osu file format v14

[General]
AudioFilename: audio.mp3
AudioLeadIn: 0
PreviewTime: 43346
Countdown: 0
SampleSet: Soft
StackLeniency: 0.7
Mode: 0
LetterboxInBreaks: 0
WidescreenStoryboard: 1

[Editor]
Bookmarks: 22144,42406,51908,56542,181175
DistanceSpacing: 2.5
BeatDivisor: 2
GridSize: 8
TimelineZoom: 1.800006

[Metadata]
Title:Ikanaide
TitleUnicode:いかないで
Artist:mafumafu
ArtistUnicode:まふまふ
Creator:MetaBee
Version:Normal
Source:
Tags:
BeatmapID:2404349
BeatmapSetID:731406

[Difficulty]
HPDrainRate:3
CircleSize:3
OverallDifficulty:4
ApproachRate:6
SliderMultiplier:1.4
SliderTickRate:1

[Events]
//Background and Video events
0,0,"ikanaide pic.jpg",0,0
//Break Periods
2,23600,24863
2,26113,27376
2,28626,29890
2,81401,90204
//Storyboard Layer 0 (Background)
//Storyboard Layer 1 (Fail)
//Storyboard Layer 2 (Pass)
//Storyboard Layer 3 (Foreground)
//Storyboard Layer 4 (Overlay)
//Storyboard Sound Samples

[TimingPoints]
783,314.13612565445,4,1,0,60,1,0
783,-100,4,2,0,80,0,0
3296,-125,4,2,0,80,0,0
23400,-133.333333333333,4,2,0,80,0,0
33453,-100,4,2,0,80,0,0
43505,-83.3333333333333,4,3,0,80,0,1
61097,-100,4,3,0,80,0,0
71149,-111.111111111111,4,3,0,80,0,0
78688,-100,4,2,0,80,0,0
79002,-166.666666666667,4,2,0,80,0,0
121411,-83.3333333333333,4,3,0,80,0,1
139002,-100,4,3,0,80,0,0
156594,-90.9090909090909,4,3,0,80,0,1
164133,-166.666666666667,4,3,0,80,0,0

[HitObjects]
100,113,783,6,0,P|122:187|181:222,1,140
208,228,1411,2,0,L|225:312,2,70
262,117,2039,6,0,L|193:125,2,70
296,113,2510,1,0,0:0:0:0:
332,111,2667,2,0,P|392:141|422:211,1,140
439,297,3296,6,0,P|492:266|513:204,1,112
497,130,3924,2,0,P|445:159|418:225,1,112
360,271,4552,6,0,P|310:299|245:296,1,112
168,264,5180,2,0,P|192:228|268:200,1,112
180,356,5809,6,0,P|131:352|79:296,1,112
58,267,6280,1,0,0:0:0:0:
40,229,6437,2,0,P|39:157|70:111,1,112
131,188,7065,6,0,P|157:135|151:78,1,112
139,48,7536,1,0,0:0:0:0:
136,7,7693,2,0,P|194:12|230:48,1,112
272,135,8322,6,0,P|310:181|372:202,1,112
443,152,8950,2,0,P|458:216|433:263,1,112
352,307,9578,2,0,P|342:241|369:184,1,112
443,152,10207,2,0,P|457:110|437:38,1,112
355,97,10835,6,0,P|298:117|259:167,1,112
254,203,11306,1,0,0:0:0:0:
245,241,11463,2,0,P|226:296|165:337,1,112
67,324,12091,6,0,P|55:260|87:203,1,112
98,181,12563,1,0,0:0:0:0:
119,137,12720,2,0,P|127:71|106:12,1,112
34,86,13348,5,0,0:0:0:0:
98,181,13662,1,0,0:0:0:0:
167,86,13976,2,0,P|223:85|276:119,1,112
314,222,14604,1,0,0:0:0:0:
190,191,14919,2,0,L|164:255,2,56
314,222,15547,2,0,L|338:159,1,56
354,127,15861,6,0,P|409:125|442:169,1,112
455,258,16489,2,0,L|365:330,1,112
270,377,17118,6,0,P|229:357|221:284,1,112
227,256,17589,1,0,0:0:0:0:
238,213,17746,2,0,P|224:159|166:113,1,112
70,135,18374,5,0,0:0:0:0:
142,209,18688,1,0,0:0:0:0:
244,137,19002,2,0,P|304:109|365:119,1,112
450,158,19631,5,0,0:0:0:0:
319,206,19945,2,0,L|338:277,2,56
449,157,20573,2,0,L|434:102,1,56
421,75,20887,5,0,0:0:0:0:
348,20,21201,1,0,0:0:0:0:
284,81,21515,1,0,0:0:0:0:
359,137,21830,1,0,0:0:0:0:
450,154,22144,2,0,L|519:154,4,56
394,217,23400,5,0,0:0:0:0:
317,258,25913,5,0,0:0:0:0:
322,174,28426,5,0,0:0:0:0:
394,217,30940,5,0,0:0:0:0:
317,258,32196,1,0,0:0:0:0:
320,176,32824,1,0,0:0:0:0:
315,257,33453,6,0,P|254:306|154:310,2,140
320,176,34395,1,0,0:0:0:0:
321,91,34709,2,0,P|382:42|482:38,2,140
321,175,35652,1,0,0:0:0:0:
238,214,35966,6,0,L|84:215,1,140
103,128,36594,2,0,L|276:127,1,140
243,41,37222,1,0,0:0:0:0:
159,41,37536,1,0,0:0:0:0:
75,41,37851,1,0,0:0:0:0:
24,113,38165,6,0,L|24:221,1,70
25,219,38479,2,0,P|63:292|145:283,1,140
144,289,39107,2,0,P|208:277|281:305,1,140
299,322,39735,2,0,P|357:319|379:239,1,140
349,171,40364,1,0,0:0:0:0:
310,95,40678,1,0,0:0:0:0:
249,21,40992,6,0,P|217:80|239:161,3,140
311,99,42248,2,0,L|454:97,2,140
78,213,43505,6,0,P|158:235|253:218,1,167.999994873047
323,178,43976,1,0,0:0:0:0:
395,118,44133,2,0,P|320:87|251:128,1,167.999994873047
240,222,44762,6,0,P|254:261|259:310,2,83.9999974365235
170,168,45233,1,0,0:0:0:0:
163,256,45390,2,0,P|112:297|14:269,1,167.999994873047
82,208,46018,6,0,P|79:140|176:69,1,167.999994873047
229,52,46489,1,0,0:0:0:0:
312,75,46646,2,0,P|398:90|486:76,2,167.999994873047
227,79,47589,2,0,P|242:121|279:158,1,83.9999974365235
286,165,47903,2,0,P|338:207|402:298,1,167.999994873047
460,355,48531,6,0,L|490:276,4,83.9999974365235
373,368,49631,5,0,0:0:0:0:
373,368,49788,2,0,P|280:361|173:308,1,167.999994873047
144,268,50259,2,0,P|111:253|35:244,1,83.9999974365235
131,353,50887,1,0,0:0:0:0:
144,268,51044,6,0,P|164:211|280:131,1,167.999994873047
328,121,51515,1,0,0:0:0:0:
412,121,51673,2,0,P|433:173|384:269,2,167.999994873047
368,44,52615,1,0,0:0:0:0:
328,121,52929,2,0,L|293:318,1,167.999994873047
339,363,53557,5,0,0:0:0:0:
298,286,53872,2,0,P|343:277|389:291,2,83.9999974365235
259,357,54814,5,0,0:0:0:0:
219,281,55129,2,0,P|178:271|137:280,2,83.9999974365235
175,361,55756,2,0,P|124:366|81:349,2,83.9999974365235
259,357,56385,2,0,P|297:318|309:278,1,83.9999974365235
321,200,56699,1,0,0:0:0:0:
244,235,57013,2,0,L|195:66,1,167.999994873047
168,0,57641,1,0,0:0:0:0:
117,65,57955,1,0,0:0:0:0:
70,137,58269,1,0,0:0:0:0:
256,192,58584,12,0,60782,0:0:0:0:
180,169,61097,6,0,L|362:145,1,140
354,148,61568,1,0,0:0:0:0:
393,143,61725,2,0,P|474:215|422:314,1,210
422,320,62353,5,0,0:0:0:0:
382,239,62667,2,0,P|342:262|318:314,1,70
319,310,62981,2,0,P|251:343|144:268,1,210
137,236,63610,5,0,0:0:0:0:
240,245,63924,2,0,P|236:197|197:144,1,70
197,138,64238,2,0,L|77:16,2,140
281,115,65180,2,0,P|309:89|322:48,1,70
326,28,65495,1,0,0:0:0:0:
239,41,65809,1,0,0:0:0:0:
281,115,66123,6,0,P|298:208|259:266,1,140
251,270,66594,1,0,0:0:0:0:
224,288,66751,2,0,P|122:254|104:138,1,210
107,131,67379,5,0,0:0:0:0:
200,185,67693,2,0,P|219:149|219:112,1,70
217,80,68008,2,0,P|256:20|382:27,1,210
413,49,68636,5,0,0:0:0:0:
321,108,68950,2,0,P|343:144|417:165,1,70
405,176,69264,2,0,P|465:246|477:329,1,140
425,365,69892,5,0,0:0:0:0:
392,283,70207,1,0,0:0:0:0:
337,351,70521,1,0,0:0:0:0:
310,266,70835,1,0,0:0:0:0:
282,184,71149,6,0,L|238:58,2,125.999996154785
202,204,72406,6,0,L|115:365,2,125.999996154785
137,152,73348,2,0,L|66:25,2,125.999996154785
202,204,74290,1,0,0:0:0:0:
282,184,74604,1,0,0:0:0:0:
361,206,74919,1,0,0:0:0:0:
441,174,75233,1,0,0:0:0:0:
505,240,75547,2,0,B|478:263|432:265|432:265|386:308,1,125.999996154785
256,192,76175,12,0,78688,0:0:0:0:
246,213,79002,6,0,P|256:192|280:165,10,41.9999987182618
242,258,80730,2,0,L|241:326,1,41.9999987182618
242,330,81201,1,0,0:0:0:0:
281,48,91254,6,0,L|341:113,1,83.9999974365235
358,127,91725,1,0,0:0:0:0:
354,153,91882,2,0,L|312:244,1,83.9999974365235
306,260,92353,1,0,0:0:0:0:
291,275,92510,2,0,P|240:279|196:247,1,83.9999974365235
140,177,93139,2,0,P|144:135|188:78,1,83.9999974365235
239,62,93767,5,0,0:0:0:0:
234,149,94081,1,0,0:0:0:0:
317,111,94395,2,0,P|322:147|302:213,1,83.9999974365235
265,267,95023,5,0,0:0:0:0:
232,190,95337,1,0,0:0:0:0:
180,256,95652,2,0,P|189:312|228:349,1,83.9999974365235
319,350,96280,6,0,L|380:283,1,83.9999974365235
388,253,96751,1,0,0:0:0:0:
387,225,96908,2,0,L|364:140,1,83.9999974365235
357,119,97379,1,0,0:0:0:0:
346,94,97536,2,0,P|302:74|259:78,1,83.9999974365235
182,121,98165,2,0,P|163:153|154:231,1,83.9999974365235
143,289,98793,6,0,P|128:322|74:378,2,83.9999974365235
73,234,99735,1,0,0:0:0:0:
29,307,100050,6,0,P|17:331|12:356,4,41.9999987182618
199,145,101306,6,0,L|315:139,1,83.9999974365235
368,171,101934,1,0,0:0:0:0:
376,257,102248,1,0,0:0:0:0:
299,308,102563,2,0,L|205:313,1,83.9999974365235
133,315,103191,1,0,0:0:0:0:
59,282,103505,1,0,0:0:0:0:
128,228,103819,1,0,0:0:0:0:
52,195,104133,6,0,L|22:166,13,41.9999987182618
0,149,106332,1,0,0:0:0:0:
33,70,106646,1,0,0:0:0:0:
118,113,106961,1,0,0:0:0:0:
199,145,107275,1,0,0:0:0:0:
265,211,107589,2,0,P|275:254|271:308,1,83.9999974365235
211,348,108217,1,0,0:0:0:0:
188,269,108531,1,0,0:0:0:0:
127,331,108845,5,0,0:0:0:0:
105,248,109159,2,0,L|90:184,13,41.9999987182618
89,174,111358,6,0,P|104:145|137:112,1,41.9999987182618
146,108,111673,2,0,P|173:102|214:106,1,41.9999987182618
228,102,111987,2,0,P|252:120|268:159,1,41.9999987182618
270,152,112301,2,0,P|282:184|283:223,1,41.9999987182618
289,228,112615,2,0,P|300:272|320:297,3,41.9999987182618
323,299,113243,1,0,0:0:0:0:
373,224,113557,6,0,P|395:245|409:290,1,41.9999987182618
418,284,113872,2,0,P|456:245|474:200,1,83.9999974365235
480,188,114343,1,0,0:0:0:0:
482,152,114500,2,0,P|471:111|445:75,1,83.9999974365235
373,37,115128,1,0,0:0:0:0:
374,120,115442,2,0,L|374:209,1,83.9999974365235
371,307,116070,6,0,P|353:321|320:328,1,41.9999987182618
300,325,116385,2,0,L|195:305,1,83.9999974365235
162,234,117013,2,0,P|208:219|271:221,1,83.9999974365235
329,189,117641,2,0,P|295:140|256:123,2,83.9999974365235
243,217,118584,1,0,0:0:0:0:
189,141,118898,6,0,L|129:45,1,83.9999974365235
68,25,119526,2,0,P|58:69|71:119,1,83.9999974365235
114,178,120154,5,0,0:0:0:0:
188,225,120468,1,0,0:0:0:0:
112,267,120782,2,0,L|71:294,2,41.9999987182618
188,225,121411,6,0,P|299:160|374:194,1,167.999994873047
410,203,121882,1,0,0:0:0:0:
488,256,122039,2,0,P|407:295|333:254,1,167.999994873047
329,166,122668,6,0,P|304:96|207:43,1,167.999994873047
146,36,123139,1,0,0:0:0:0:
62,46,123296,2,0,P|92:109|195:110,1,167.999994873047
323,64,123924,6,0,P|392:84|453:171,1,167.999994873047
462,241,124395,1,0,0:0:0:0:
458,326,124552,2,0,P|394:300|385:205,1,167.999994873047
449,157,125180,5,0,0:0:0:0:
382,209,125495,2,0,P|331:222|266:194,1,83.9999974365235
276,207,125809,2,0,P|192:172|104:202,1,167.999994873047
112,279,126437,6,0,P|54:253|65:120,1,167.999994873047
103,104,126908,1,0,0:0:0:0:
196,88,127065,2,0,P|287:108|334:183,1,167.999994873047
419,197,127694,6,0,P|394:238|254:214,1,167.999994873047
233,180,128165,1,0,0:0:0:0:
199,256,128322,2,0,P|148:310|57:328,1,167.999994873047
12,235,128950,6,0,P|-2:155|23:58,2,167.999994873047
99,242,129892,1,0,0:0:0:0:
80,161,130207,2,0,P|135:118|257:130,1,167.999994873047
311,153,130678,1,0,0:0:0:0:
386,206,130835,2,0,L|231:285,1,167.999994873047
128,279,131463,5,0,0:0:0:0:
45,320,131778,2,0,P|74:354|119:372,2,83.9999974365235
120,177,132720,5,0,0:0:0:0:
37,141,133034,2,0,P|66:107|111:89,2,83.9999974365235
196,225,133819,2,0,P|214:187|212:140,1,83.9999974365235
202,116,134290,2,0,P|197:73|217:29,1,83.9999974365235
231,10,134604,1,0,0:0:0:0:
284,85,134919,1,0,0:0:0:0:
324,162,135233,1,0,0:0:0:0:
324,162,135861,1,0,0:0:0:0:
256,192,136489,12,0,138374,0:0:0:0:
193,204,139002,6,0,P|236:140|304:131,1,140
332,131,139474,1,0,0:0:0:0:
359,139,139631,2,0,P|457:137|491:96,1,140
405,57,140259,5,0,0:0:0:0:
320,40,140573,2,0,P|274:37|217:51,1,70
214,56,140887,2,0,P|145:69|55:45,1,140
10,0,141515,5,0,0:0:0:0:
1,83,141830,2,0,P|5:133|25:188,1,70
48,232,142144,2,0,P|45:296|17:373,2,140
92,159,143086,1,0,0:0:0:0:
137,233,143400,1,0,0:0:0:0:
180,154,143714,1,0,0:0:0:0:
226,228,144029,6,0,P|232:283|194:383,2,140
264,149,145128,1,0,0:0:0:0:
180,154,145285,6,0,P|174:99|212:-1,2,140
264,149,146385,1,0,0:0:0:0:
226,228,146542,2,0,P|157:257|78:243,1,140
34,195,147170,1,0,0:0:0:0:
114,171,147484,1,0,0:0:0:0:
54,116,147798,1,0,0:0:0:0:
133,90,148112,1,0,0:0:0:0:
66,35,148426,2,0,L|4:-3,2,70
149,5,149055,5,0,0:0:0:0:
216,60,149369,2,0,P|221:97|208:145,1,70
206,154,149683,1,0,0:0:0:0:
300,11,150311,1,0,0:0:0:0:
366,68,150625,2,0,P|371:105|358:153,1,70
356,162,150939,1,0,0:0:0:0:
323,235,151254,6,0,P|287:256|235:255,1,70
231,258,151568,1,0,0:0:0:0:
146,251,151882,1,0,0:0:0:0:
198,180,152196,1,0,0:0:0:0:
108,167,152510,2,0,P|66:215|70:321,2,140
206,175,153453,1,0,0:0:0:0:
256,192,154081,12,0,156280,0:0:0:0:
383,171,156594,5,0,0:0:0:0:
383,197,156908,2,0,L|383:290,2,77.0000023498536
383,171,157536,1,0,0:0:0:0:
298,183,157851,5,0,0:0:0:0:
298,157,158165,2,0,L|298:64,2,77.0000023498536
298,183,158793,1,0,0:0:0:0:
213,171,159107,5,0,0:0:0:0:
213,197,159421,2,0,L|213:290,2,77.0000023498536
213,171,160049,1,0,0:0:0:0:
128,186,160364,5,0,0:0:0:0:
129,98,160678,1,0,0:0:0:0:
57,141,160992,1,0,0:0:0:0:
60,52,161306,1,0,0:0:0:0:
256,192,161620,12,0,164133,0:0:0:0:
265,171,164447,6,0,P|257:190|244:206,10,41.9999987182618
270,126,166175,2,0,L|270:84,1,41.9999987182618
270,54,166646,1,0,0:0:0:0:
