osu file format v14

[General]
AudioFilename: audio.mp3
AudioLeadIn: 0
PreviewTime: 57272
Countdown: 0
SampleSet: Soft
StackLeniency: 0.3
Mode: 0
LetterboxInBreaks: 0
WidescreenStoryboard: 0

[Editor]
DistanceSpacing: 1.2
BeatDivisor: 4
GridSize: 32
TimelineZoom: 1.3

[Metadata]
Title:I wanna be a girl
TitleUnicode:女の子になりたい
Artist:mafumafu
ArtistUnicode:まふまふ
Creator:Night Mare
Version:papple's Hard
Source:
Tags:Onnanoko Onna No Ko Ni Naritai luna want to utaite japanese male vocals jpop j-pop Tanaka Hidekazu 神楽色アーティファクト Kagurairo Artifact MONACA papple104 zelq TheBlank 田中秀和 pop pappl_e_104
BeatmapID:2269409
BeatmapSetID:1069248

[Difficulty]
HPDrainRate:4.5
CircleSize:3.3
OverallDifficulty:7
ApproachRate:7.7
SliderMultiplier:1.9
SliderTickRate:1

[Events]
//Background and Video events
0,0,"image.jpg",0,0
Video,-200,"video.mp4"
//Break Periods
2,160543,173048
//Storyboard Layer 0 (Background)
//Storyboard Layer 1 (Fail)
//Storyboard Layer 2 (Pass)
//Storyboard Layer 3 (Foreground)
//Storyboard Layer 4 (Overlay)
//Storyboard Sound Samples

[TimingPoints]
915,428.571428571429,4,2,1,50,1,0
6057,-100,4,2,2,75,0,0
6378,-100,4,2,1,75,0,0
6915,-100,4,2,2,75,0,0
7236,-100,4,2,1,75,0,0
7772,-100,4,2,2,75,0,0
8093,-100,4,2,1,75,0,0
8629,-100,4,2,2,75,0,0
8950,-100,4,2,1,75,0,0
9486,-100,4,2,2,75,0,0
9807,-100,4,2,1,75,0,0
10343,-100,4,2,2,75,0,0
10664,-100,4,2,1,75,0,0
11200,-100,4,2,2,75,0,0
11521,-100,4,2,1,75,0,0
12379,-100,4,2,1,72,0,0
12486,-125,4,2,1,69,0,0
12593,-125,4,2,1,66,0,0
12700,-125,4,2,1,63,0,0
12807,-125,4,2,1,60,0,0
12915,-125,4,2,2,60,0,0
26629,-125,4,2,1,60,0,0
34986,-125,4,2,2,60,0,0
35200,-125,4,2,2,65,0,0
35629,-125,4,2,1,65,0,0
36057,-125,4,2,2,65,0,0
36915,-125,4,2,2,60,0,0
39915,-125,4,2,1,60,0,0
40343,-125,4,2,2,50,0,0
46986,-125,4,2,1,50,0,0
47200,-100,4,2,2,65,0,0
47521,-100,4,2,1,65,0,0
48486,-125,4,2,1,65,0,0
48915,-125,4,2,2,65,0,0
49557,-125,4,2,1,65,0,0
50629,-125,4,2,2,65,0,0
51057,-125,4,2,1,55,0,0
51272,-125,4,2,1,57,0,0
51486,-125,4,2,1,59,0,0
51700,-125,4,2,1,61,0,0
51915,-125,4,2,1,63,0,0
52129,-125,4,2,1,65,0,0
52343,-125,4,2,1,70,0,0
52771,-125,4,2,1,65,0,0
52986,-125,4,2,1,67,0,0
53414,-125,4,2,1,69,0,0
54057,-100,4,2,2,75,0,0
54378,-100,4,2,1,75,0,0
54915,-100,4,2,2,75,0,0
55236,-100,4,2,1,75,0,0
55772,-100,4,2,2,75,0,0
56093,-100,4,2,1,75,0,0
57057,-100,4,2,2,75,0,0
57486,-100,4,2,3,85,0,1
57700,-100,4,2,1,85,0,1
69486,-100,4,2,1,85,0,0
70343,-100,4,2,2,85,0,0
70772,-100,4,2,2,85,0,1
70843,-100,4,2,2,85,0,0
71200,-100,4,2,3,85,0,1
71414,-100,4,2,1,85,0,1
85772,-100,4,2,1,85,0,0
86200,-100,4,2,1,55,0,0
86629,-100,4,2,2,75,0,0
86950,-100,4,2,1,75,0,0
87486,-100,4,2,2,75,0,0
87807,-100,4,2,1,75,0,0
88343,-100,4,2,2,75,0,0
88664,-100,4,2,1,75,0,0
89522,-100,4,2,1,72,0,0
89629,-125,4,2,1,69,0,0
89736,-125,4,2,1,66,0,0
89843,-125,4,2,1,63,0,0
89950,-125,4,2,1,60,0,0
90057,-125,4,2,2,60,0,0
91557,-125,4,2,1,60,0,0
103772,-125,4,2,2,60,0,0
110629,-125,4,2,1,60,0,0
112343,-125,4,2,2,65,0,0
112772,-125,4,2,1,65,0,0
114057,-125,4,2,2,60,0,0
117057,-125,4,2,1,60,0,0
117486,-125,4,2,2,50,0,0
124128,-125,4,2,1,50,0,0
124343,-100,4,2,2,65,0,0
124664,-100,4,2,1,65,0,0
125415,-125,4,2,1,50,0,0
126057,-125,4,2,2,65,0,0
126700,-125,4,2,1,65,0,0
127772,-125,4,2,2,65,0,0
128200,-125,4,2,1,55,0,0
128843,-125,4,2,1,61,0,0
129057,-125,4,2,1,63,0,0
129486,-125,4,2,1,70,0,0
129914,-125,4,2,1,65,0,0
130129,-125,4,2,1,67,0,0
130557,-125,4,2,1,69,0,0
131200,-100,4,2,2,75,0,0
131521,-100,4,2,1,75,0,0
132057,-100,4,2,2,75,0,0
132379,-100,4,2,1,75,0,0
132915,-100,4,2,2,75,0,0
133236,-100,4,2,1,75,0,0
134200,-100,4,2,2,75,0,0
134629,-100,4,2,3,85,0,1
134843,-100,4,2,1,85,0,1
146629,-100,4,2,1,85,0,0
147486,-100,4,2,2,85,0,0
147915,-100,4,2,2,85,0,1
147986,-100,4,2,2,85,0,0
148343,-100,4,2,3,85,0,1
148557,-100,4,2,1,85,0,1
159486,-100,4,2,1,85,0,0
159915,-125,4,2,1,55,0,0
160343,-125,4,2,2,70,0,0
173843,-125,4,2,1,60,0,0
174057,-125,4,2,2,60,0,0
180057,-125,4,2,1,60,0,0
180915,-100,4,2,2,70,0,0
181236,-100,4,2,1,70,0,0
182200,-125,4,2,1,70,0,0
182629,-125,4,2,2,70,0,0
183272,-125,4,2,1,70,0,0
184343,-125,4,2,2,70,0,0
184771,-125,4,2,1,55,0,0
185414,-125,4,2,1,61,0,0
185629,-125,4,2,1,63,0,0
186057,-125,4,2,1,70,0,0
186485,-125,4,2,1,65,0,0
186700,-125,4,2,1,67,0,0
187129,-125,4,2,1,69,0,0
187772,-100,4,2,2,75,0,0
188093,-100,4,2,1,75,0,0
188629,-100,4,2,2,75,0,0
188950,-100,4,2,1,75,0,0
189486,-100,4,2,2,75,0,0
189807,-100,4,2,1,75,0,0
190343,-100,4,2,2,75,0,0
190664,-100,4,2,1,75,0,0
191200,-100,4,2,2,75,0,0
191522,-100,4,2,1,75,0,0
192486,-100,4,2,2,75,0,0
193343,-100,4,2,2,75,0,1
193450,-100,4,2,2,75,0,0
194200,-100,4,2,2,60,0,0
194414,-100,4,2,1,60,0,0
195486,-125,4,2,1,50,0,0
196772,-100,4,2,2,80,0,1
197200,-100,4,2,1,80,0,1
198057,-125,4,2,1,80,0,1
199343,-125,4,2,2,80,0,1
199772,-125,4,2,2,60,0,0
200200,-125,4,2,1,60,0,0
201486,-125,4,2,1,65,0,1
201593,-125,4,2,1,65,0,0
203200,-125,4,2,1,70,0,1
203307,-125,4,2,1,70,0,0
204915,-100,4,2,4,75,0,0
205772,-100,4,2,2,75,0,0
206200,-100,4,2,2,75,0,1
206272,-100,4,2,2,75,0,0
206629,-100,4,2,3,85,0,1
206843,-100,4,2,1,85,0,1
221200,-100,4,2,1,85,0,0
221629,-100,4,2,2,85,0,1
222057,-100,4,2,2,80,0,0
222378,-100,4,2,1,80,0,0
222915,-100,4,2,2,80,0,0
223236,-100,4,2,1,80,0,0
223772,-100,4,2,2,80,0,0
224093,-100,4,2,1,80,0,0
224629,-100,4,2,2,80,0,0
224950,-100,4,2,1,80,0,0
225486,-100,4,2,2,80,0,0
225807,-100,4,2,1,80,0,0
226343,-100,4,2,2,80,0,0
228915,-100,4,2,3,50,0,0
228986,-100,4,2,2,50,0,1
229057,-100,4,2,2,60,0,0
230629,-100,4,2,2,50,0,0
232343,-100,4,2,2,40,0,0
234057,-100,4,2,2,30,0,0
235772,-100,4,2,2,20,0,0
237486,-100,4,2,99,5,0,0

[Colours]
Combo1 : 255,113,255
Combo2 : 255,191,191
Combo3 : 222,191,255
Combo4 : 223,223,223

[HitObjects]
167,116,6057,6,0,P|96:113|38:151,2,142.69,6|6|0,1:2|1:2|1:0,2:0:0:0:
127,224,6915,6,0,P|89:283|93:353,2,142.69,6|6|8,1:2|1:2|1:3,2:0:0:0:
200,312,7772,6,0,P|270:315|329:278,2,142.69,6|6|8,1:2|1:2|1:2,2:0:0:0:
241,205,8629,6,0,P|300:167|370:171,1,142.69,6|6,2:0|1:2,2:0:0:0:
464,68,9165,2,0,L|470:116,1,47.5633333333334,8|8,1:2|1:3,2:0:0:0:
358,47,9486,6,0,P|287:58|216:56,1,142.69,6|6,1:2|1:2,2:0:0:0:
311,165,10022,2,0,L|264:160,1,47.5633333333334,8|8,1:2|1:3,2:0:0:0:
157,199,10343,6,0,P|86:187|15:189,1,142.69,6|6,1:2|1:2,2:0:0:0:
110,80,10879,2,0,L|62:85,1,47.5633333333334,8|8,1:2|1:3,2:0:0:0:
15,189,11200,6,0,P|27:260|25:331,2,142.69,6|6|6,1:2|1:2|1:2,2:0:0:0:
110,80,12057,1,6,1:2:0:0:
206,142,12272,5,8,2:0:0:0:
209,145,12379,1,8,2:0:0:0:
212,148,12486,2,0,L|208:185,3,38.0506666666667,8|8|8|8,2:0|2:0|2:0|2:0,2:0:0:0:
205,231,12915,1,4,1:2:0:0:
312,111,13129,5,10,2:0:0:0:
402,168,13343,1,2,1:2:0:0:
498,123,13557,2,0,P|507:159|504:197,1,76.1013333333334,10|2,2:0|1:2,2:0:0:0:
427,271,13986,1,10,2:0:0:0:
402,168,14200,1,2,1:2:0:0:
324,296,14415,5,10,2:0:0:0:
235,238,14629,2,0,P|198:229|160:230,1,76.1013333333334,2|10,1:2|2:0,2:0:0:0:
63,187,15057,2,0,P|54:150|55:112,1,76.1013333333334,2|10,1:2|2:0,2:0:0:0:
79,65,15379,1,2,2:0:0:0:
82,62,15486,2,0,L|158:54,1,76.1013333333334,0|8,1:0|2:0,2:0:0:0:
234,129,15915,2,0,L|310:136,1,76.1013333333334,0|8,1:0|2:0,2:0:0:0:
400,80,16343,1,0,1:0:0:0:
386,210,16557,5,10,2:0:0:0:
477,154,16772,2,0,P|491:189|491:226,1,76.1013333333334,2|8,1:2|2:0,2:0:0:0:
425,309,17200,1,2,1:2:0:0:
386,210,17415,1,10,2:0:0:0:
287,249,17629,2,0,L|211:242,1,76.1013333333334,2|10,1:2|2:0,2:0:0:0:
89,235,18057,6,0,P|105:268|103:306,1,76.1013333333334,2|8,1:2|2:0,2:0:0:0:
135,349,18379,2,0,L|248:359,1,114.152,2|10,2:0|2:0,2:0:0:0:
355,367,18915,1,2,1:2:0:0:
287,249,19129,2,0,P|285:211|296:174,1,76.1013333333334,8|0,2:0|1:0,2:0:0:0:
307,48,19557,5,10,2:0:0:0:
210,93,19772,2,0,L|134:86,1,76.1013333333334,2|8,1:2|2:0,2:0:0:0:
81,81,20093,2,0,P|77:62|77:43,1,38.0506666666667,2|0,2:0|1:0,2:0:0:0:
4,155,20415,1,10,2:0:0:0:
59,245,20629,1,2,1:2:0:0:
162,220,20843,2,0,P|163:257|153:294,1,76.1013333333334,8|0,2:0|1:0,2:0:0:0:
287,249,21272,5,10,2:0:0:0:
372,313,21486,2,0,L|448:306,1,76.1013333333334,2|8,1:2|2:0,2:0:0:0:
500,299,21807,2,0,P|503:280|503:261,1,38.0506666666667,2|0,2:0|1:0,2:0:0:0:
481,156,22129,1,10,2:0:0:0:
382,197,22343,1,2,1:2:0:0:
299,131,22557,2,0,L|306:55,1,76.1013333333334,8|0,2:0|1:2,2:0:0:0:
201,173,22986,5,10,2:0:0:0:
255,265,23200,2,0,L|331:272,1,76.1013333333334,2|8,1:2|2:0,2:0:0:0:
369,310,23522,1,2,2:0:0:0:
372,313,23629,1,0,1:0:0:0:
259,371,23843,1,10,2:0:0:0:
165,322,24057,2,0,P|150:287|149:249,1,76.1013333333334,2|8,1:2|2:0,2:0:0:0:
93,159,24486,2,0,P|127:144|165:143,1,76.1013333333334,2|8,1:2|2:0,2:0:0:0:
224,54,24915,6,0,L|300:47,2,76.1013333333334,2|8|0,1:2|2:0|1:0,2:0:0:0:
127,10,25557,1,10,2:0:0:0:
37,67,25772,1,2,1:2:0:0:
34,70,25879,1,0,1:0:0:0:
31,73,25986,1,8,2:0:0:0:
93,159,26200,2,0,P|92:196|77:231,1,76.1013333333334,0|8,1:0|2:0,2:0:0:0:
118,377,26629,1,4,1:2:0:0:
170,284,26843,6,0,P|204:268|242:267,1,76.1013333333334,10|0,2:0|1:0,2:0:0:0:
329,329,27272,1,8,2:0:0:0:
417,270,27486,2,0,L|410:194,1,76.1013333333334,2|10,1:2|2:0,2:0:0:0:
358,101,27915,1,2,1:2:0:0:
451,49,28129,5,10,2:0:0:0:
503,142,28343,2,0,L|510:218,1,76.1013333333334,2|10,1:2|2:0,2:0:0:0:
417,270,28772,2,0,P|383:254|345:253,1,76.1013333333334,2|10,1:2|2:0,2:0:0:0:
296,233,29093,1,2,2:0:0:0:
293,230,29200,2,0,L|217:237,1,76.1013333333334,0|8,1:0|2:0,2:0:0:0:
114,265,29629,2,0,P|110:227|120:191,1,76.1013333333334,2|10,1:2|2:0,2:0:0:0:
208,130,30057,1,0,1:0:0:0:
217,237,30272,6,0,P|220:274|210:311,1,76.1013333333334,10|0,2:0|1:0,2:0:0:0:
123,372,30700,1,10,2:0:0:0:
27,326,30915,1,2,1:2:0:0:
38,220,31129,2,0,L|114:213,1,76.1013333333334,10|2,2:0|1:2,2:0:0:0:
217,237,31557,1,10,2:0:0:0:
291,160,31772,6,0,P|294:123|284:86,1,76.1013333333334,2|8,1:2|2:0,2:0:0:0:
243,52,32093,2,0,L|130:62,1,114.152,2|10,2:0|2:0,2:0:0:0:
36,114,32629,1,2,1:2:0:0:
114,213,32843,2,0,L|107:289,1,76.1013333333334,8|0,2:0|1:0,2:0:0:0:
228,354,33272,5,8,2:0:0:0:
297,273,33486,2,0,P|334:269|371:277,1,76.1013333333334,6|8,1:2|2:0,2:0:0:0:
412,312,33807,2,0,L|408:349,1,38.0506666666667,2|0,2:0|1:0,2:0:0:0:
480,230,34129,1,10,2:0:0:0:
441,131,34343,2,0,P|403:134|366:126,1,76.1013333333334,2|8,1:2|2:0,2:0:0:0:
289,52,34772,2,0,L|285:15,2,38.0506666666667,0|8|10,1:0|1:2|2:3,2:0:0:0:
244,170,35200,6,0,L|251:246,1,76.1013333333334,6|8,1:2|1:2,2:0:0:0:
297,273,35522,1,8,1:2:0:0:
300,276,35629,2,0,L|293:352,1,76.1013333333334,6|8,1:2|1:2,2:0:0:0:
188,333,36057,2,0,P|150:332|114:343,1,76.1013333333334,6|8,1:2|1:2,2:0:0:0:
44,263,36486,2,0,L|7:267,2,38.0506666666667,0|8|10,1:0|1:2|1:2,2:0:0:0:
132,202,36915,6,0,L|208:209,1,76.1013333333334,6|8,1:2|2:0,2:0:0:0:
258,226,37236,1,2,2:0:0:0:
261,229,37343,1,0,1:0:0:0:
338,156,37557,1,10,2:0:0:0:
433,204,37772,2,0,P|444:167|441:130,1,76.1013333333334,2|8,1:2|2:0,2:0:0:0:
368,53,38200,1,0,1:0:0:0:
264,80,38415,2,0,L|188:73,1,76.1013333333334,10|0,2:0|1:0,2:0:0:0:
87,106,38843,5,8,2:0:0:0:
132,202,39057,2,0,L|128:240,2,38.0506666666667,0|8|8,1:0|1:2|1:2,2:0:0:0:
237,183,39486,2,0,L|313:190,1,76.1013333333334,2|2,1:2|1:2,2:0:0:0:
400,129,39915,2,0,L|396:91,2,38.0506666666667,8|10|8,1:3|1:2|1:3,2:0:0:0:
467,251,40343,6,0,P|453:305|410:340,2,114.152,6|2|2,1:2|2:0|2:0,2:0:0:0:
376,256,41200,1,2,1:2:0:0:
313,190,41415,2,0,L|237:197,2,76.1013333333334,2|2|2,2:2|1:2|2:2,2:2:0:0:
400,129,42057,6,0,P|455:137|508:117,2,114.152,2|2|2,1:2|2:0|2:0,2:0:0:0:
339,59,42915,1,2,1:2:0:0:
253,89,43129,2,0,L|177:82,2,76.1013333333334,2|2|2,2:2|1:2|2:2,2:2:0:0:
313,190,43772,6,0,P|279:255|207:266,1,152,2|2,1:2|1:2,2:0:0:0:
155,192,44415,1,2,2:0:0:0:
94,122,44629,2,0,P|40:134|6:178,2,114,2|2|2,1:2|2:0|2:0,2:0:0:0:
177,82,45486,6,0,L|290:94,2,114.152,2|0|0,1:2|2:0|2:0,2:0:0:0:
103,117,46343,2,0,L|110:193,1,76.1013333333334,2|0,1:2|1:0,2:0:0:0:
129,205,46665,2,0,L|118:318,1,114.152,8|8,1:2|1:3,2:0:0:0:
234,282,47200,6,0,P|301:301|347:355,2,142.69,6|6|6,1:2|1:2|1:2,2:0:0:0:
103,117,48272,5,10,1:2:0:0:
189,55,48486,2,0,P|226:53|263:62,1,76.1013333333334,2|10,1:2|1:3,2:0:0:0:
335,142,48915,1,4,1:2:0:0:
436,109,49129,2,0,L|443:185,1,76.1013333333334,2|2,2:0|2:0,2:0:0:0:
456,290,49557,1,6,1:2:0:0:
276,220,49986,5,2,1:2:0:0:
218,290,50200,2,0,L|142:283,1,76.1013333333334,10|10,1:2|1:3,2:0:0:0:
55,345,50629,2,0,P|46:270|50:194,1,152.202666666667,14|8,1:2|1:3,2:0:0:0:
86,105,51272,1,10,1:2:0:0:
89,108,51379,1,2,2:2:0:0:
92,111,51486,2,0,L|168:104,1,76.1013333333334,10|8,1:3|1:3,2:0:0:0:
252,69,51915,2,0,L|328:76,1,76.1013333333334,8|8,1:3|1:3,2:0:0:0:
400,179,52343,2,0,P|327:168|276:220,1,152.202666666667,12|8,1:2|1:3,2:0:0:0:
184,224,52986,5,10,1:2:0:0:
181,227,53093,1,2,2:2:0:0:
178,230,53200,2,0,L|185:306,1,76.1013333333334,10|8,1:3|1:3,2:0:0:0:
272,334,53629,2,0,L|268:372,2,38.0506666666667,8|8|8,1:3|1:3|1:3,2:0:0:0:
358,259,54057,6,0,L|499:272,2,142.69,14|6|8,1:2|1:2|1:3,2:0:0:0:
277,178,54915,2,0,L|182:186,1,95.1266666666668,14|0,1:2|2:0,2:0:0:0:
126,196,55236,1,6,1:2:0:0:
123,199,55343,1,2,2:0:0:0:
109,86,55557,1,8,1:3:0:0:
18,154,55772,6,0,P|11:224|47:284,2,142.69,14|14|14,1:2|2:0|1:2,2:0:0:0:
109,86,56629,1,14,1:2:0:0:
178,335,57057,2,0,L|225:330,3,47.5633333333334,12|8|8|8,1:2|1:2|1:2|1:2,2:0:0:0:
279,351,57486,6,0,P|322:332|369:331,1,95.1266666666668,6|8,1:2|2:0,2:0:0:0:
474,236,57915,2,0,P|427:236|384:217,1,95.1266666666668,2|8,1:2|2:0,2:0:0:0:
344,175,58236,1,2,2:0:0:0:
341,172,58343,1,2,1:2:0:0:
229,190,58557,1,10,2:0:0:0:
211,78,58772,1,2,1:2:0:0:
341,172,58986,5,10,2:0:0:0:
301,279,59200,2,0,P|259:300|211:302,1,95.1266666666668,2|8,1:2|2:0,2:0:0:0:
90,178,59629,2,0,P|131:156|179:154,1,95.1266666666668,2|8,1:2|2:0,2:0:0:0:
226,187,59950,1,2,2:0:0:0:
229,190,60057,1,2,1:2:0:0:
323,60,60272,1,10,2:0:0:0:
412,130,60486,2,0,L|404:225,1,95.1266666666668,2|10,1:2|2:0,2:0:0:0:
330,312,60915,6,0,P|283:303|235:303,1,95.1266666666668,6|10,1:2|2:0,2:0:0:0:
242,189,61343,2,0,P|195:197|147:197,1,95.1266666666668,2|10,1:2|2:0,2:0:0:0:
93,181,61665,1,2,2:0:0:0:
90,178,61772,1,2,1:2:0:0:
155,84,61986,1,10,2:0:0:0:
61,19,62200,1,2,1:2:0:0:
90,178,62415,5,10,2:0:0:0:
155,84,62629,2,0,L|250:76,1,95.1266666666668,2|8,1:2|2:0,2:0:0:0:
344,139,63057,2,0,L|439:147,1,95.1266666666668,2|8,1:2|2:0,2:0:0:0:
495,154,63379,1,2,2:0:0:0:
498,157,63486,1,2,1:2:0:0:
485,308,63700,1,10,2:0:0:0:
376,272,63915,2,0,P|330:284|291:311,1,95.1266666666668,2|10,1:2|2:0,2:0:0:0:
153,205,64343,6,0,L|248:197,1,95.1266666666668,6|8,1:2|2:0,2:0:0:0:
364,93,64772,2,0,L|269:85,1,95.1266666666668,2|8,1:2|2:0,2:0:0:0:
212,81,65093,1,2,2:2:0:0:
209,84,65200,1,2,1:2:0:0:
110,27,65415,1,10,2:2:0:0:
25,103,65629,1,2,1:2:0:0:
71,207,65843,1,10,2:2:0:0:
184,195,66057,6,0,P|195:240|198:288,1,95.1266666666668,2|8,1:2|2:0,2:0:0:0:
294,351,66486,1,2,1:2:0:0:
306,238,66700,1,10,2:0:0:0:
419,250,66915,2,0,P|430:204|433:156,1,95.1266666666668,2|8,1:2|2:0,2:0:0:0:
400,48,67343,1,0,1:0:0:0:
289,73,67557,6,0,B|240:80|200:50|200:50|164:21|109:27,1,190.253333333334,10|10,2:0|2:0,2:0:0:0:
14,89,68200,2,0,L|22:184,1,95.1266666666668,2|10,1:2|2:0,2:0:0:0:
72,286,68629,1,2,1:2:0:0:
174,236,68843,1,10,2:0:0:0:
242,327,69057,2,0,P|285:344|332:341,1,95.1266666666668,2|10,1:2|2:0,2:0:0:0:
472,221,69486,6,0,P|429:204|382:207,1,95.1266666666668,10|0,1:3|2:0,2:0:0:0:
340,246,69807,2,0,L|332:341,1,95.1266666666668,10|0,1:3|2:0,2:0:0:0:
381,370,70129,1,10,1:3:0:0:
489,334,70343,1,6,1:2:0:0:
217,226,70772,2,0,L|170:231,3,47.5633333333334,10|10|10|10,1:2|1:2|1:2|1:2,2:0:0:0:
114,242,71200,6,0,P|125:289|124:336,1,95.1266666666668,6|8,1:2|2:0,2:0:0:0:
6,280,71629,2,0,P|5:232|15:186,1,95.1266666666668,2|8,1:2|2:0,2:0:0:0:
51,141,71950,1,2,2:0:0:0:
54,138,72057,2,0,L|149:130,1,95.1266666666668,2|8,1:2|2:0,2:0:0:0:
228,48,72486,1,2,1:2:0:0:
321,114,72700,1,10,2:0:0:0:
428,73,72915,6,0,P|435:119|422:164,1,95.1266666666668,2|8,1:2|2:0,2:0:0:0:
283,250,73343,2,0,P|270:204|277:158,1,95.1266666666668,2|8,1:2|2:0,2:0:0:0:
318,117,73665,1,2,2:0:0:0:
321,114,73772,1,2,1:2:0:0:
228,48,73986,1,10,2:0:0:0:
149,130,74200,2,0,L|157:225,1,95.1266666666668,2|10,1:2|2:0,2:0:0:0:
142,345,74629,6,0,P|189:345|236:354,1,95.1266666666668,6|10,1:2|2:0,2:0:0:0:
283,250,75057,2,0,P|330:249|377:240,1,95.1266666666668,2|10,1:2|2:0,2:0:0:0:
427,214,75379,1,2,2:0:0:0:
430,211,75486,1,2,1:2:0:0:
480,109,75700,1,10,2:0:0:0:
390,38,75915,2,0,L|295:46,1,95.1266666666668,2|8,1:2|2:0,2:0:0:0:
239,145,76343,2,0,L|144:137,1,95.1266666666668,2|8,1:2|2:0,2:0:0:0:
7,234,76772,6,0,P|54:234|101:243,1,95.1266666666668,2|8,1:2|2:0,2:0:0:0:
151,270,77093,1,2,2:0:0:0:
154,273,77200,1,2,1:2:0:0:
235,353,77415,1,10,2:0:0:0:
283,250,77629,2,0,L|275:155,1,95.1266666666668,2|10,1:2|2:0,2:0:0:0:
394,81,78057,2,0,L|386:176,1,95.1266666666668,6|8,1:2|2:0,2:0:0:0:
462,260,78486,1,0,1:0:0:0:
411,362,78700,6,0,P|364:368|317:359,1,95.1266666666668,10|2,2:0|1:2,2:0:0:0:
283,250,79129,1,10,2:0:0:0:
183,305,79343,1,2,1:2:0:0:
128,205,79557,1,10,2:0:0:0:
228,150,79772,2,0,P|241:104|236:58,1,95.1266666666668,2|8,1:2|2:0,2:0:0:0:
128,95,80200,1,2,1:2:0:0:
57,5,80415,1,10,2:0:0:0:
236,58,80629,2,0,P|283:55|325:35,1,95.1266666666668,2|8,1:2|2:0,2:0:0:0:
454,24,81057,1,0,1:2:0:0:
490,133,81272,6,0,P|443:138|398:124,1,95.1266666666668,10|4,2:0|1:2,2:0:0:0:
295,172,81700,1,10,2:0:0:0:
381,248,81915,2,0,P|386:295|372:340,1,95.1266666666668,2|8,1:2|2:0,2:0:0:0:
273,283,82343,2,0,P|226:278|181:292,1,95.1266666666668,2|8,1:2|2:0,2:0:0:0:
75,338,82772,6,0,L|67:243,1,95.1266666666668,2|8,1:2|2:0,2:0:0:0:
61,186,83093,1,2,2:0:0:0:
64,183,83200,2,0,P|110:188|155:174,1,95.1266666666668,6|8,1:2|2:0,2:0:0:0:
231,88,83629,2,0,P|277:82|323:95,1,94.6833333333334,0|8,1:2|2:0,2:0:0:0:
363,204,84057,6,0,L|268:196,2,95.1266666666668,2|8|0,1:2|2:0|1:2,2:0:0:0:
479,299,84700,1,10,2:0:0:0:
482,296,84807,1,2,2:0:0:0:
485,293,84915,2,0,L|477:198,1,95.1266666666668,2|10,1:2|1:2,2:0:0:0:
363,204,85343,2,0,L|371:109,1,95.1266666666668,10|10,1:3|1:2,2:0:0:0:
463,42,85772,1,10,1:2:0:0:
363,204,86200,2,0,P|298:174|228:165,1,142.69,2|0,2:0|2:0,2:0:0:0:
172,178,86629,6,0,L|183:319,1,142.69,6|6,1:2|1:2,2:0:0:0:
72,232,87165,2,0,L|77:280,1,47.5633333333334,0|8,1:0|1:3,2:0:0:0:
172,178,87486,6,0,L|313:166,1,142.69,6|6,1:2|1:2,2:0:0:0:
226,278,88022,2,0,L|274:273,1,47.5633333333334,8|8,1:3|1:2,2:0:0:0:
424,197,88343,2,0,P|422:126|379:71,2,142.69,6|6|6,1:2|1:2|1:2,2:0:0:0:
391,307,89200,1,6,1:2:0:0:
280,279,89415,1,8,2:0:0:0:
277,276,89522,1,8,2:0:0:0:
274,273,89629,2,0,L|236:276,3,38.0506666666667,8|8|8|8,2:0|2:0|2:0|2:0,2:0:0:0:
192,284,90057,5,4,1:2:0:0:
86,199,91343,2,0,P|88:161|100:125,1,76.1013333333334,8|10,1:2|1:3,2:0:0:0:
174,71,91772,6,0,L|250:79,1,76.1013333333334,6|10,1:2|2:0,2:0:0:0:
316,141,92200,2,0,L|392:133,1,76.1013333333334,2|10,1:2|2:0,2:0:0:0:
437,129,92522,1,2,2:0:0:0:
440,132,92629,2,0,P|451:168|453:205,1,76.1013333333334,0|8,1:0|2:0,2:0:0:0:
365,228,93057,2,0,P|353:264|351:301,1,76.1013333333334,0|8,1:0|2:0,2:0:0:0:
280,359,93486,1,0,1:0:0:0:
211,299,93700,5,10,2:0:0:0:
130,342,93915,2,0,L|54:334,1,76.1013333333334,2|10,1:2|2:0,2:0:0:0:
7,256,94343,1,2,1:2:0:0:
50,176,94557,2,0,P|86:164|124:163,1,76.1013333333334,10|2,2:0|1:2,2:0:0:0:
204,208,94986,1,10,2:0:0:0:
280,158,95200,6,0,L|272:82,1,76.1013333333334,2|8,1:2|2:0,2:0:0:0:
265,37,95522,2,0,P|209:50|153:43,1,114.152,2|10,2:0|2:0,2:0:0:0:
74,88,96057,1,2,1:2:0:0:
50,176,96272,2,0,L|58:252,1,76.1013333333334,8|0,2:0|1:0,2:0:0:0:
105,329,96700,5,10,2:0:0:0:
180,276,96915,2,0,P|217:273|254:283,1,76.1013333333334,2|8,1:2|2:0,2:0:0:0:
289,313,97236,2,0,L|293:351,1,38.0506666666667,2|0,2:0|2:0,2:0:0:0:
367,265,97557,1,10,2:0:0:0:
433,328,97772,1,2,1:2:0:0:
510,280,97986,2,0,P|512:242|502:205,1,76.1013333333334,8|0,2:0|1:0,2:0:0:0:
431,148,98415,5,10,2:0:0:0:
369,215,98629,2,0,P|332:218|295:208,1,76.1013333333334,2|8,1:2|2:0,2:0:0:0:
260,178,98950,2,0,L|256:140,1,38.0506666666667,2|0,2:0|2:0,2:0:0:0:
221,56,99272,1,10,2:0:0:0:
134,84,99486,1,2,1:2:0:0:
55,39,99700,2,0,P|45:75|47:113,1,76.1013333333334,8|0,2:0|1:0,2:0:0:0:
116,174,100129,5,10,2:0:0:0:
171,247,100343,2,0,L|247:239,1,76.1013333333334,2|8,1:2|2:0,2:0:0:0:
292,235,100665,1,2,2:0:0:0:
295,232,100772,2,0,P|304:195|302:157,1,76.1013333333334,0|10,1:0|2:0,2:0:0:0:
376,92,101200,2,0,L|452:100,1,76.1013333333334,2|8,1:2|2:0,2:0:0:0:
488,191,101629,2,0,L|412:199,1,76.1013333333334,2|8,1:2|2:0,2:0:0:0:
375,290,102057,6,0,P|381:328|383:366,2,76.1013333333334,2|8|2,1:2|2:0|1:2,2:0:0:0:
295,232,102700,1,10,2:0:0:0:
292,235,102807,1,2,1:2:0:0:
289,238,102915,1,2,2:0:0:0:
170,281,103129,5,10,1:2:0:0:
97,204,103343,2,0,L|89:128,1,76.1013333333334,10|10,1:2|1:2,2:0:0:0:
147,39,103772,1,4,1:2:0:0:
199,155,103986,5,10,2:0:0:0:
271,77,104200,2,0,P|308:68|345:67,1,76.1013333333334,2|10,1:2|2:0,2:0:0:0:
441,115,104629,2,0,L|449:191,1,76.1013333333334,2|10,1:2|2:0,2:0:0:0:
462,296,105057,1,2,1:2:0:0:
363,256,105272,5,10,2:0:0:0:
278,320,105486,2,0,P|240:323|204:312,1,76.1013333333334,2|10,1:2|2:0,2:0:0:0:
101,340,105915,2,0,P|97:302|108:266,1,76.1013333333334,2|10,1:2|2:0,2:0:0:0:
143,226,106236,1,2,2:0:0:0:
146,223,106343,2,0,L|222:215,1,76.1013333333334,0|8,1:0|2:0,2:0:0:0:
274,224,106665,2,0,P|299:174|295:118,1,114.152,2|10,2:0|2:0,2:0:0:0:
217,47,107200,1,2,1:2:0:0:
138,147,107415,6,0,L|146:223,1,76.1013333333334,10|2,2:0|1:2,2:0:0:0:
212,306,107843,1,10,2:0:0:0:
304,253,108057,2,0,P|341:257|374:276,1,76.1013333333334,2|10,1:2|2:0,2:0:0:0:
474,239,108486,2,0,P|489:204|488:166,1,76.1013333333334,2|10,1:2|2:0,2:0:0:0:
424,71,108915,6,0,L|348:63,1,76.1013333333334,2|8,1:2|2:0,2:0:0:0:
296,57,109236,2,0,P|246:83|190:79,1,114.152,2|10,2:0|2:0,2:0:0:0:
116,156,109772,1,2,1:2:0:0:
11,170,109986,2,0,L|19:246,1,76.1013333333334,8|0,2:0|1:0,2:0:0:0:
127,314,110415,5,10,2:0:0:0:
219,261,110629,2,0,P|231:225|231:187,1,76.1013333333334,6|8,1:2|2:0,2:0:0:0:
208,139,110950,2,0,L|212:101,1,38.0506666666667,2|0,2:0|1:0,2:0:0:0:
278,17,111272,1,10,2:0:0:0:
363,81,111486,2,0,L|439:73,1,76.1013333333334,2|8,1:2|2:0,2:0:0:0:
497,161,111915,2,0,L|493:199,3,38.0506666666667,8|8|10|8,1:3|1:2|1:2|1:3,2:0:0:0:
465,244,112343,6,0,P|429:232|391:232,1,76.1013333333334,6|8,1:2|1:2,2:0:0:0:
346,261,112665,1,8,1:2:0:0:
343,264,112772,2,0,P|307:276|269:276,1,76.1013333333334,6|8,1:2|1:2,2:0:0:0:
187,343,113200,2,0,L|111:335,1,76.1013333333334,6|8,1:2|1:2,2:0:0:0:
58,329,113522,1,8,1:2:0:0:
55,326,113629,1,6,1:2:0:0:
18,226,113843,5,10,1:2:0:0:
110,173,114057,2,0,L|186:181,1,76.1013333333334,6|8,1:2|2:0,2:0:0:0:
239,188,114379,2,0,P|261:136|255:80,1,114.152,2|10,2:0|2:0,2:0:0:0:
347,25,114915,2,0,P|383:34|421:35,1,76.1013333333334,2|8,1:2|2:0,2:0:0:0:
472,20,115236,2,0,L|483:133,1,114.152,2|10,2:0|2:0,2:0:0:0:
462,238,115772,5,0,1:0:0:0:
381,169,115986,1,8,2:0:0:0:
320,257,116200,2,0,L|324:295,2,38.0506666666667,0|8|0,1:0|1:2|2:0,2:0:0:0:
239,188,116629,2,0,L|163:196,1,76.1013333333334,2|2,1:2|1:2,2:0:0:0:
90,119,117057,2,0,L|94:81,2,38.0506666666667,8|10|8,1:3|1:2|1:3,2:0:0:0:
76,257,117486,6,0,P|97:326|167:350,1,152.202666666667,6|0,1:2|1:0,2:0:0:0:
237,292,118129,2,0,L|313:300,1,76.1013333333334,2|0,2:0|1:0,2:0:0:0:
381,360,118557,1,2,2:0:0:0:
463,319,118772,2,0,P|477:284|479:246,1,76.1013333333334,2|2,1:2|2:0,2:0:0:0:
409,166,119200,6,0,L|257:150,1,152.202666666667,2|0,1:2|1:0,2:0:0:0:
167,163,119843,2,0,P|152:128|150:90,1,76.1013333333334,2|0,2:0|1:0,2:0:0:0:
196,11,120272,1,2,2:0:0:0:
272,61,120486,2,0,L|348:69,1,76.1013333333334,2|2,1:2|2:0,2:0:0:0:
457,33,120915,6,0,P|455:107|409:165,1,152.202666666667,2|2,1:2|1:2,2:0:0:0:
370,248,121557,1,2,2:0:0:0:
292,200,121772,2,0,P|236:207|191:242,2,114.152,2|2|2,1:2|2:0|2:0,2:0:0:0:
370,248,122629,6,0,L|358:361,2,114.152,2|0|0,1:2|2:0|2:0,2:0:0:0:
292,200,123486,2,0,L|216:193,1,76.1013333333334,2|0,1:2|1:0,2:0:0:0:
213,171,123807,2,0,L|99:182,1,114.152,8|8,1:2|1:3,2:0:0:0:
151,77,124343,6,0,P|218:58|284:83,2,142.69,6|6|6,1:2|1:2|1:2,2:0:0:0:
16,243,125415,6,0,L|24:319,1,76.1013333333334,2|8,1:2|1:3,2:0:0:0:
112,377,125843,1,0,1:0:0:0:
187,301,126057,1,6,1:2:0:0:
277,359,126272,2,0,L|353:351,1,76.1013333333334,2|2,2:0|2:0,2:0:0:0:
458,341,126700,1,6,1:2:0:0:
307,212,127129,6,0,P|269:210|233:222,1,76.1013333333334,2|10,1:2|1:2,2:0:0:0:
187,301,127557,1,10,1:3:0:0:
110,251,127772,2,0,L|94:99,1,152.202666666667,14|8,1:2|1:3,2:0:0:0:
151,28,128415,1,10,1:2:0:0:
154,25,128522,1,2,2:2:0:0:
157,22,128629,2,0,P|195:20|231:32,1,76.1013333333334,10|8,1:3|1:3,2:0:0:0:
287,103,129057,2,0,P|325:105|361:93,1,76.1013333333334,8|8,1:3|1:3,2:0:0:0:
473,40,129486,2,0,P|451:109|496:167,1,152.202666666667,12|8,1:2|1:3,2:0:0:0:
443,241,130129,5,10,1:3:0:0:
440,244,130236,1,2,2:2:0:0:
437,247,130343,2,0,L|361:255,1,76.1013333333334,10|8,1:3|1:3,2:0:0:0:
294,317,130772,2,0,L|298:355,2,38.0506666666667,8|8|8,1:3|1:3|1:3,2:0:0:0:
190,270,131200,6,0,L|49:283,2,142.69,14|6|8,1:2|1:2|1:3,2:0:0:0:
269,187,132057,2,0,P|274:140|261:95,1,95.1266666666668,14|0,1:2|2:0,2:0:0:0:
217,58,132379,1,6,1:2:0:0:
214,55,132486,1,2,2:0:0:0:
137,139,132700,1,8,1:3:0:0:
29,100,132915,6,0,P|26:171|34:241,2,142.69,14|14|14,1:2|1:2|1:2,2:0:0:0:
116,26,133772,1,14,1:2:0:0:
245,176,134200,2,0,L|240:223,3,47.5633333333334,12|8|8|8,1:2|1:2|1:2|1:2,2:0:0:0:
195,259,134629,6,0,L|203:354,1,95.1266666666668,6|8,1:2|2:0,2:0:0:0:
76,265,135057,2,0,L|84:170,1,95.1266666666668,2|8,1:2|2:0,2:0:0:0:
134,142,135379,1,2,2:0:0:0:
137,139,135486,1,2,1:2:0:0:
245,176,135700,1,10,2:0:0:0:
282,68,135915,1,2,1:2:0:0:
390,105,136129,1,10,2:0:0:0:
245,176,136343,6,0,P|239:222|252:268,1,95.1266666666668,2|8,1:2|2:0,2:0:0:0:
408,344,136772,2,0,P|413:297|400:251,1,95.1266666666668,2|8,1:2|2:0,2:0:0:0:
356,216,137093,1,2,2:0:0:0:
353,213,137200,1,2,1:2:0:0:
298,374,137415,1,10,2:0:0:0:
252,268,137629,2,0,P|206:254|159:260,1,95.1266666666668,2|10,1:2|2:0,2:0:0:0:
43,319,138057,6,0,L|51:224,1,95.1266666666668,6|10,1:2|2:0,2:0:0:0:
137,149,138486,2,0,L|129:54,1,95.1266666666668,2|10,1:2|2:0,2:0:0:0:
88,14,138807,1,2,2:0:0:0:
85,11,138915,1,2,1:2:0:0:
30,111,139129,1,10,2:0:0:0:
137,149,139343,1,2,1:2:0:0:
160,260,139557,1,10,2:0:0:0:
245,184,139772,6,0,P|292:182|335:199,1,95.1266666666668,2|8,1:2|2:0,2:0:0:0:
333,86,140200,2,0,P|380:87|423:70,1,95.1266666666668,2|8,1:2|2:0,2:0:0:0:
456,23,140522,1,2,2:0:0:0:
459,20,140629,1,2,1:2:0:0:
475,173,140843,1,10,2:0:0:0:
403,260,141057,2,0,P|401:308|418:351,1,95.1266666666668,2|10,1:2|2:0,2:0:0:0:
300,212,141486,6,0,L|205:204,1,95.1266666666668,6|8,1:2|2:0,2:0:0:0:
135,324,141915,2,0,L|230:316,1,95.1266666666668,2|8,1:2|2:0,2:0:0:0:
283,336,142236,1,2,2:2:0:0:
286,339,142343,1,2,1:2:0:0:
205,204,142557,2,0,P|203:156|220:113,1,95.1266666666668,10|2,2:0|1:2,2:0:0:0:
327,71,142986,5,8,2:0:0:0:
396,161,143200,2,0,L|388:256,1,95.1266666666668,2|8,1:2|2:0,2:0:0:0:
279,291,143629,1,2,1:2:0:0:
205,204,143843,1,10,2:0:0:0:
96,237,144057,2,0,L|1:229,1,95.1266666666668,2|8,1:2|2:0,2:0:0:0:
9,115,144486,1,0,1:0:0:0:
97,43,144700,6,0,B|146:36|186:66|186:66|222:95|277:89,1,190.253333333334,10|10,2:0|2:0,2:0:0:0:
360,11,145343,2,0,P|407:7|452:20,1,95.1266666666668,2|8,1:2|2:0,2:0:0:0:
509,120,145772,1,2,1:2:0:0:
395,120,145986,1,10,2:2:0:0:
313,199,146200,2,0,P|309:246|322:291,1,95.1266666666668,2|10,1:2|2:0,2:0:0:0:
485,357,146629,6,0,P|497:311|494:264,1,95.1266666666668,10|0,1:3|2:0,2:0:0:0:
456,222,146950,2,0,L|361:230,1,95.1266666666668,10|0,1:3|2:0,2:0:0:0:
313,199,147272,1,10,1:3:0:0:
219,263,147486,1,6,1:2:0:0:
33,127,147915,2,0,L|38:174,3,47.5633333333334,10|10|10|10,1:2|1:2|1:2|1:2,2:0:0:0:
20,229,148343,6,0,P|67:218|114:219,1,95.1266666666668,6|8,1:2|2:0,2:0:0:0:
176,98,148772,2,0,P|129:109|82:108,1,95.1266666666668,2|8,1:2|2:0,2:0:0:0:
27,94,149093,1,2,2:0:0:0:
24,91,149200,1,2,1:2:0:0:
104,9,149415,1,10,2:0:0:0:
176,98,149629,1,2,1:2:0:0:
281,55,149843,5,10,2:0:0:0:
353,144,150057,2,0,L|345:239,1,95.1266666666668,2|8,1:2|2:0,2:0:0:0:
243,355,150486,2,0,L|235:260,1,95.1266666666668,2|8,1:2|2:0,2:0:0:0:
228,204,150807,1,2,2:0:0:0:
225,201,150915,1,2,1:2:0:0:
113,219,151129,1,10,2:0:0:0:
154,112,151343,2,0,P|196:90|243:87,1,95.1266666666668,2|10,1:2|2:0,2:0:0:0:
393,39,151772,6,0,L|401:134,1,95.1266666666668,6|10,1:2|2:0,2:0:0:0:
450,162,152093,1,2,2:0:0:0:
453,165,152200,2,0,L|441:307,1,142.69,2|2,1:2|2:0,2:0:0:0:
436,364,152629,1,2,1:2:0:0:
329,325,152843,1,10,2:0:0:0:
339,212,153057,1,2,1:2:0:0:
235,260,153272,5,10,2:0:0:0:
143,193,153486,2,0,P|96:183|49:183,1,95.1266666666668,2|8,1:2|2:0,2:0:0:0:
194,91,153915,2,0,P|241:90|287:81,1,95.1266666666668,2|8,1:2|2:0,2:0:0:0:
339,56,154236,1,2,2:0:0:0:
342,53,154343,1,2,1:2:0:0:
440,111,154557,2,0,P|449:157|449:204,1,95.1266666666668,10|2,2:0|1:2,2:0:0:0:
405,310,154986,1,10,2:0:0:0:
295,282,155200,2,0,P|247:282|201:291,1,95.1266666666668,6|8,1:2|2:0,2:0:0:0:
108,358,155629,1,0,1:0:0:0:
21,284,155843,6,0,L|29:189,1,95.1266666666668,10|2,2:0|1:2,2:0:0:0:
38,75,156272,1,10,2:2:0:0:
140,126,156486,1,2,1:2:0:0:
247,87,156700,1,10,2:2:0:0:
303,187,156915,2,0,L|295:282,1,95.1266666666668,2|8,1:2|2:0,2:0:0:0:
376,362,157343,1,2,1:2:0:0:
459,284,157557,1,10,2:0:0:0:
303,187,157772,2,0,P|256:190|214:210,1,95.1266666666668,2|8,1:2|2:0,2:0:0:0:
145,105,158200,1,0,1:2:0:0:
57,178,158415,6,0,L|65:273,1,95.1266666666668,10|2,2:0|1:2,2:0:0:0:
143,355,158843,1,10,1:2:0:0:
245,304,159057,2,0,P|292:303|338:315,1,95.1266666666668,10|10,1:3|1:2,2:0:0:0:
429,246,159486,5,10,1:2:0:0:
315,91,159915,2,0,L|201:100,1,114.152,2|0,2:0|2:0,2:0:0:0:
145,105,160343,1,6,1:2:0:0:
14,179,173843,6,0,L|52:183,1,38.0506666666667,8|8,1:3|1:3,2:0:0:0:
92,204,174057,2,0,P|138:172|194:175,2,114.152,6|2|2,1:2|2:0|2:0,2:0:0:0:
163,261,174915,2,0,P|219:263|265:232,1,114.152,10|2,1:2|2:0,2:0:0:0:
285,191,175343,2,0,L|361:199,1,76.1013333333334,0|2,1:0|2:0,2:0:0:0:
455,163,175772,2,0,L|445:276,2,114.152,2|2|2,1:2|2:0|2:0,2:0:0:0:
417,80,176629,1,10,1:2:0:0:
359,307,177272,5,2,2:0:0:0:
286,252,177486,2,0,L|173:262,2,114.152,6|2|2,1:2|2:0|2:0,2:0:0:0:
361,199,178343,2,0,P|363:142|332:96,1,114.152,10|2,1:2|2:0,2:0:0:0:
291,77,178772,2,0,L|215:85,1,76.1013333333334,0|2,1:0|2:0,2:0:0:0:
136,41,179200,1,2,1:2:0:0:
9,172,179629,6,0,L|17:248,1,76.1013333333334,0|8,1:0|2:0,2:0:0:0:
89,302,180057,2,0,L|85:339,2,38.0506666666667,8|8|8,1:3|2:0|2:0,2:0:0:0:
147,231,180486,2,0,L|143:193,2,38.0506666666667,0|8|8,1:0|1:3|1:3,2:0:0:0:
223,316,180915,6,0,L|318:308,1,95.1266666666668,6|0,1:2|2:0,2:0:0:0:
374,317,181236,2,0,P|393:274|387:228,1,95.1266666666668,6|0,1:2|2:0,2:0:0:0:
343,192,181557,1,6,1:2:0:0:
498,95,181986,5,8,1:3:0:0:
407,27,182200,2,0,P|370:25|333:34,1,76.1013333333334,8|8,1:2|1:3,2:0:0:0:
263,125,182629,1,6,1:2:0:0:
159,76,182843,2,0,L|152:152,1,76.1013333333334,2|2,2:0|2:0,2:0:0:0:
139,264,183272,1,6,1:2:0:0:
55,101,183700,5,8,1:3:0:0:
159,76,183915,2,0,L|235:83,1,76.1013333333334,12|8,2:0|1:3,2:0:0:0:
333,34,184343,2,0,P|374:95|369:170,1,152.202666666667,4|8,1:2|1:3,2:0:0:0:
312,241,184986,1,10,1:3:0:0:
309,244,185093,1,2,2:0:0:0:
306,247,185200,2,2,L|230:254,1,76.1013333333334,10|8,1:3|1:3,2:0:0:0:
194,338,185629,2,0,L|118:331,1,76.1013333333334,8|8,1:3|1:3,2:0:0:0:
49,231,186057,2,0,P|97:175|171:173,1,152.202666666667,12|8,1:2|1:3,2:0:0:0:
224,248,186700,5,10,1:3:0:0:
227,251,186807,1,2,2:2:0:0:
230,254,186915,2,0,L|306:261,1,76.1013333333334,10|8,1:3|1:3,2:0:0:0:
390,227,187343,2,0,L|394:189,2,38.0506666666667,8|8|8,1:3|1:3|1:3,2:0:0:0:
453,322,187772,6,0,P|401:368|331:371,2,142.69,14|6|8,1:2|1:2|1:3,2:0:0:0:
390,227,188629,2,0,L|382:132,1,95.1266666666668,14|2,1:2|2:0,2:0:0:0:
375,76,188950,1,6,1:2:0:0:
372,73,189057,1,2,2:0:0:0:
269,122,189272,1,10,1:3:0:0:
192,38,189486,6,0,P|121:28|50:33,2,142.69,6|6|6,1:2|1:2|1:2,2:0:0:0:
243,140,190343,2,0,P|172:149|101:144,2,142.69,6|6|6,1:2|1:2|1:2,2:0:0:0:
372,73,191200,2,0,L|380:168,1,95.1266666666668,14|0,1:2|2:0,2:0:0:0:
425,202,191522,2,0,L|433:297,1,95.1266666666668,14|0,1:2|2:0,2:0:0:0:
439,353,191843,1,14,1:2:0:0:
323,288,192057,1,14,1:2:0:0:
372,73,192486,2,0,L|419:68,3,47.5633333333334,12|8|8|8,1:2|1:2|1:2|1:2,2:0:0:0:
476,60,192915,6,0,P|483:129|436:180,1,142.69,10|0,1:2|2:0,2:0:0:0:
380,189,193343,1,14,1:2:0:0:
380,189,194200,6,0,L|385:236,2,47.5633333333334,8|8|8,1:2|1:2|1:3,2:0:0:0:
281,132,194629,1,2,2:0:0:0:
90,16,195486,6,0,L|96:91,1,76.1013333333334,8|0,1:3|1:0,2:0:0:0:
178,160,195915,2,0,L|172:235,1,76.1013333333334,8|8,2:0|2:0,2:0:0:0:
114,325,196343,5,8,1:3:0:0:
230,68,196772,2,0,P|317:57|359:107,1,142.5,14|0,1:2|2:0,2:0:0:0:
410,70,197200,2,0,L|418:165,1,95.1266666666668,6|0,1:2|2:0,2:0:0:0:
392,216,197522,2,0,L|384:311,1,95.1266666666668,6|0,1:2|2:0,2:0:0:0:
378,367,197843,1,6,1:2:0:0:
273,310,198057,6,0,P|235:304|197:308,1,76.1013333333334,8|0,1:3|2:0,2:0:0:0:
96,276,198486,2,0,L|86:162,1,114.152,8|0,1:3|2:0,2:0:0:0:
80,109,198915,1,2,1:2:0:0:
136,19,199129,1,2,2:0:0:0:
230,68,199343,2,0,P|267:72|305:66,1,76.1013333333334,14|0,1:2|2:0,2:0:0:0:
370,179,199772,6,0,L|295:173,1,76.1013333333334,6|0,1:2|2:0,2:0:0:0:
216,219,200200,2,0,L|140:225,1,76.1013333333334,10|8,1:3|1:3,2:0:0:0:
98,243,200522,1,2,2:2:0:0:
95,246,200629,1,10,1:3:0:0:
146,322,200843,2,0,L|221:315,1,76.1013333333334,10|10,1:3|1:3,2:0:0:0:
296,262,201272,1,10,1:3:0:0:
331,346,201486,6,0,P|381:292|376:218,1,152.202666666667,14|10,1:2|1:3,2:0:0:0:
298,171,202129,1,10,1:3:0:0:
345,93,202343,2,0,L|420:99,2,76.1013333333334,10|8|8,1:3|1:3|1:3,2:0:0:0:
267,46,202986,1,10,1:3:0:0:
220,124,203200,6,0,L|144:117,1,76.1013333333334,12|10,1:2|1:3,2:0:0:0:
81,51,203629,1,10,1:3:0:0:
14,113,203843,2,0,L|20:188,1,76.1013333333334,10|10,1:3|1:3,2:0:0:0:
48,276,204272,1,10,1:3:0:0:
133,243,204486,2,0,L|208:249,1,76.1013333333334,10|10,1:3|1:3,2:0:0:0:
291,329,204915,6,0,P|334:311|382:309,1,95.1266666666668,12|0,1:2|2:0,2:0:0:0:
433,335,205236,2,0,P|450:291|452:243,1,95.1266666666668,12|0,1:2|2:0,2:0:0:0:
427,193,205557,1,12,1:2:0:0:
502,107,205772,1,4,1:2:0:0:
277,78,206200,2,0,L|230:73,3,47.5633333333334,10|2|10|2,1:2|1:2|1:2|1:2,2:0:0:0:
188,113,206629,6,0,L|93:121,1,95.1266666666668,6|8,1:2|2:0,2:0:0:0:
27,237,207057,2,0,L|122:245,1,95.1266666666668,2|8,1:2|2:0,2:0:0:0:
153,293,207379,1,2,2:0:0:0:
156,290,207486,2,0,P|203:289|244:310,1,95.1266666666668,2|8,1:2|2:0,2:0:0:0:
299,210,207915,1,2,1:2:0:0:
344,365,208129,5,10,2:0:0:0:
425,285,208343,2,0,P|427:237|412:193,1,95.1266666666668,2|8,1:2|2:0,2:0:0:0:
285,63,208772,2,0,P|269:107|272:154,1,95.1266666666668,2|8,1:2|2:0,2:0:0:0:
296,207,209093,1,2,2:0:0:0:
299,210,209200,1,2,1:2:0:0:
245,311,209415,1,10,2:0:0:0:
145,257,209629,1,2,1:2:0:0:
38,297,209843,1,10,2:0:0:0:
56,185,210057,6,0,P|91:154|137:142,1,95.1266666666668,6|10,1:2|2:0,2:0:0:0:
229,74,210486,2,0,P|275:77|316:101,1,95.1266666666668,2|10,1:2|2:0,2:0:0:0:
348,149,210807,1,2,2:0:0:0:
351,152,210915,1,2,1:2:0:0:
460,119,211129,1,10,2:0:0:0:
493,228,211343,1,2,1:2:0:0:
351,152,211557,5,10,2:0:0:0:
290,249,211772,2,0,L|195:241,1,95.1266666666668,2|8,1:2|2:0,2:0:0:0:
137,143,212200,2,0,L|42:151,1,95.1266666666668,2|8,1:2|2:0,2:0:0:0:
7,196,212522,1,2,2:0:0:0:
4,199,212629,1,2,1:2:0:0:
59,299,212843,1,10,2:0:0:0:
165,257,213057,2,0,L|260:265,1,95.1266666666668,2|10,1:2|2:0,2:0:0:0:
315,365,213486,2,0,P|357:345|404:347,1,95.1266666666668,6|8,1:2|2:0,2:0:0:0:
502,288,213915,1,0,1:0:0:0:
405,228,214129,6,0,P|387:184|392:137,1,95.1266666666668,10|2,2:0|1:2,2:0:0:0:
472,56,214557,1,10,2:0:0:0:
371,3,214772,1,2,1:2:0:0:
291,85,214986,1,10,2:0:0:0:
190,32,215200,2,0,L|95:40,1,95.1266666666668,2|8,1:2|2:0,2:0:0:0:
24,129,215629,1,2,1:2:0:0:
111,203,215843,1,10,2:0:0:0:
190,32,216057,2,0,P|237:35|279:55,1,95.1266666666668,2|8,1:2|2:0,2:0:0:0:
207,144,216486,1,0,1:2:0:0:
296,213,216700,6,0,P|343:209|385:189,1,95.1266666666668,10|4,2:0|1:2,2:0:0:0:
459,276,217129,1,10,2:0:0:0:
405,376,217343,2,0,L|310:368,1,95.1266666666668,2|8,1:2|2:0,2:0:0:0:
220,298,217772,2,0,L|125:306,1,95.1266666666668,2|10,1:2|2:0,2:0:0:0:
27,248,218200,2,0,P|58:213|101:194,1,95.1266666666668,2|8,1:2|2:0,2:0:0:0:
160,198,218522,1,2,2:0:0:0:
163,195,218629,2,0,L|171:100,1,95.1266666666668,6|8,1:2|2:0,2:0:0:0:
280,55,219057,2,0,L|288:150,1,95.1266666666668,0|8,1:2|2:0,2:0:0:0:
375,224,219486,6,0,P|422:227|464:247,2,95.1266666666668,2|8|0,1:2|2:0|1:2,2:0:0:0:
297,358,220129,1,10,2:0:0:0:
294,355,220236,1,2,2:0:0:0:
291,352,220343,2,0,P|270:309|267:262,1,95.1266666666668,2|10,1:2|1:2,2:0:0:0:
375,224,220772,2,0,P|395:181|398:134,1,95.1266666666668,10|10,1:3|1:2,2:0:0:0:
304,70,221200,2,0,L|209:78,1,95.1266666666668,10|2,1:2|1:2,2:0:0:0:
180,189,221629,2,0,L|321:200,1,142.69,6|0,1:2|2:0,2:0:0:0:
374,224,222057,6,0,P|443:214|497:258,2,142.69,6|6|8,1:2|1:2|1:3,2:0:0:0:
331,330,222915,6,0,P|260:338|189:338,1,142.69,6|6,1:2|1:2,2:0:0:0:
282,238,223450,2,0,P|258:235|235:234,1,47.5633333333334,8|8,1:2|1:3,2:0:0:0:
141,168,223772,6,0,P|132:97|132:26,1,142.69,6|6,1:2|1:2,2:0:0:0:
231,119,224307,2,0,P|235:95|236:71,1,47.5633333333334,8|8,2:0|1:3,2:0:0:0:
344,143,224629,6,6,L|485:131,2,142.69,6|6|6,1:2|1:2|1:2,2:0:0:0:
282,238,225486,6,0,L|140:226,1,142.69,6|6,1:2|1:2,2:0:0:0:
227,338,226022,2,0,L|180:333,1,47.5633333333334,8|8,1:2|1:3,2:0:0:0:
33,267,226343,5,6,1:2:0:0:
344,143,228915,5,6,2:0:0:0:
256,192,229022,12,0,237486,2:0:0:0:
