osu file format v14

[General]
AudioFilename: audio.mp3
AudioLeadIn: 0
PreviewTime: 57272
Countdown: 0
SampleSet: Soft
StackLeniency: 0.5
Mode: 0
LetterboxInBreaks: 0
WidescreenStoryboard: 0

[Editor]
Bookmarks: 6218,13129,23522,26843,40557,47415,50843,57700,71415,86843,90218,103986,117700,124557,127986,134843,148557,160557,174218,181129,184557,193129,206843,222218
DistanceSpacing: 0.5
BeatDivisor: 4
GridSize: 4
TimelineZoom: 2

[Metadata]
Title:I wanna be a girl
TitleUnicode:女の子になりたい
Artist:mafumafu
ArtistUnicode:まふまふ
Creator:Night Mare
Version:Zelq's Expert
Source:
Tags:Onnanoko Onna No Ko Ni Naritai luna want to utaite japanese male vocals jpop j-pop Tanaka Hidekazu 神楽色アーティファクト Kagurairo Artifact MONACA papple104 zelq TheBlank 田中秀和 pop pappl_e_104
BeatmapID:2395915
BeatmapSetID:1069248

[Difficulty]
HPDrainRate:6
CircleSize:4.2
OverallDifficulty:8.5
ApproachRate:9
SliderMultiplier:2.5
SliderTickRate:1

[Events]
//Background and Video events
0,0,"image.jpg",0,0
Video,-200,"video.mp4"
//Break Periods
2,161200,165915
2,168057,173200
//Storyboard Layer 0 (Background)
//Storyboard Layer 1 (Fail)
//Storyboard Layer 2 (Pass)
//Storyboard Layer 3 (Foreground)
//Storyboard Layer 4 (Overlay)
//Storyboard Sound Samples

[TimingPoints]
915,428.571428571429,4,2,1,50,1,0
4772,-166.666666666667,4,2,1,50,0,0
5629,-90.9090909090909,4,2,1,50,0,0
6057,-125,4,2,2,75,0,0
6271,-125,4,2,99,5,0,0
6379,-125,4,2,1,75,0,0
6593,-125,4,2,99,5,0,0
6700,-125,4,2,1,75,0,0
6915,-125,4,2,2,75,0,0
7236,-100,4,2,1,75,0,0
7772,-125,4,2,2,75,0,0
7986,-125,4,2,99,5,0,0
8093,-125,4,2,1,75,0,0
8629,-125,4,2,2,75,0,0
8950,-100,4,2,1,75,0,0
9486,-125,4,2,2,75,0,0
9700,-125,4,2,99,5,0,0
9807,-125,4,2,1,75,0,0
10343,-125,4,2,2,75,0,0
10557,-125,4,2,99,5,0,0
10665,-125,4,2,1,75,0,0
11200,-76.9230769230769,4,2,2,75,0,0
11522,-76.9230769230769,4,2,1,75,0,0
12272,-100,4,2,1,75,0,0
12379,-100,4,2,1,72,0,0
12486,-100,4,2,1,69,0,0
12593,-100,4,2,1,66,0,0
12700,-100,4,2,1,63,0,0
12807,-100,4,2,1,60,0,0
12915,-100,4,2,2,60,0,0
13129,-125,4,2,2,60,0,0
17093,-125,4,2,99,5,0,0
17200,-125,4,2,2,60,0,0
18593,-125,4,2,99,5,0,0
18700,-125,4,2,2,60,0,0
20307,-125,4,2,99,5,0,0
20415,-125,4,2,2,60,0,0
22021,-125,4,2,99,5,0,0
22129,-125,4,2,2,60,0,0
23736,-125,4,2,99,5,0,0
23843,-125,4,2,2,60,0,0
26629,-83.3333333333333,4,2,1,60,0,0
26843,-111.111111111111,4,2,1,60,0,0
32307,-111.111111111111,4,2,99,5,0,0
32415,-111.111111111111,4,2,1,60,0,0
34986,-111.111111111111,4,2,2,60,0,0
35200,-111.111111111111,4,2,2,65,0,0
35629,-111.111111111111,4,2,1,65,0,0
36057,-111.111111111111,4,2,2,65,0,0
36915,-111.111111111111,4,2,2,60,0,0
37450,-111.111111111111,4,2,99,5,0,0
37557,-111.111111111111,4,2,2,60,0,0
39486,-76.9230769230769,4,2,2,60,0,0
39915,-76.9230769230769,4,2,1,60,0,0
40343,-142.857142857143,4,2,2,50,0,0
46986,-142.857142857143,4,2,1,50,0,0
47200,-76.923076923077,4,2,2,65,0,0
47522,-76.923076923077,4,2,1,65,0,0
48915,-76.923076923077,4,2,2,65,0,0
49236,-76.923076923077,4,2,1,65,0,0
49557,-100,4,2,1,65,0,0
50629,-100,4,2,2,65,0,0
51057,-90.9090909090909,4,2,1,55,0,0
51272,-90.9090909090909,4,2,1,57,0,0
51486,-90.9090909090909,4,2,1,59,0,0
51700,-90.9090909090909,4,2,1,61,0,0
51915,-90.9090909090909,4,2,1,63,0,0
52129,-90.9090909090909,4,2,1,65,0,0
52343,-90.9090909090909,4,2,1,70,0,0
52772,-90.9090909090909,4,2,1,65,0,0
52986,-90.9090909090909,4,2,1,67,0,0
53415,-90.9090909090909,4,2,1,69,0,0
54057,-90.9090909090909,4,2,2,75,0,0
54271,-90.9090909090909,4,2,99,5,0,0
54379,-90.9090909090909,4,2,1,75,0,0
54593,-90.9090909090909,4,2,99,5,0,0
54700,-90.9090909090909,4,2,1,75,0,0
54915,-90.9090909090909,4,2,2,75,0,0
55129,-90.9090909090909,4,2,99,5,0,0
55236,-90.9090909090909,4,2,1,75,0,0
55450,-90.9090909090909,4,2,99,5,0,0
55557,-90.9090909090909,4,2,1,75,0,0
55772,-90.9090909090909,4,2,2,75,0,0
56415,-90.9090909090909,4,2,1,75,0,0
57057,-90.9090909090909,4,2,2,75,0,0
57486,-83.3333333333333,4,2,3,85,0,1
57700,-83.3333333333333,4,2,1,85,0,1
69486,-83.3333333333333,4,2,1,85,0,0
70343,-83.3333333333333,4,2,2,85,0,0
71200,-83.3333333333333,4,2,3,85,0,1
71414,-83.3333333333333,4,2,1,85,0,1
76236,-83.3333333333333,4,2,99,5,0,1
76343,-83.3333333333333,4,2,1,85,0,1
85772,-83.3333333333333,4,2,1,85,0,0
86200,-83.3333333333333,4,2,1,55,0,0
86629,-111.111111111111,4,2,2,75,0,0
86843,-111.111111111111,4,2,99,5,0,0
86950,-111.111111111111,4,2,1,75,0,0
87164,-111.111111111111,4,2,99,5,0,0
87272,-111.111111111111,4,2,1,75,0,0
87486,-83.3333333333333,4,2,2,75,0,0
87700,-83.3333333333333,4,2,99,5,0,0
87807,-111.111111111111,4,2,1,75,0,0
88343,-76.9230769230769,4,2,2,75,0,0
88665,-76.9230769230769,4,2,1,75,0,0
89415,-100,4,2,1,75,0,0
89522,-100,4,2,1,72,0,0
89629,-100,4,2,1,69,0,0
89736,-100,4,2,1,66,0,0
89843,-100,4,2,1,63,0,0
89950,-100,4,2,1,60,0,0
90057,-333.333333333332,4,2,2,60,0,0
91129,-111.111111111111,4,2,2,60,0,0
91557,-111.111111111111,4,2,1,60,0,0
91772,-125,4,2,1,60,0,0
97450,-125,4,2,99,5,0,0
97557,-125,4,2,1,60,0,0
99164,-125,4,2,99,5,0,0
99272,-125,4,2,1,60,0,0
100879,-125,4,2,99,5,0,0
100986,-125,4,2,1,60,0,0
101950,-125,4,2,99,5,0,0
102057,-125,4,2,1,60,0,0
103129,-83.3333333333333,4,2,1,60,0,0
103772,-90.9090909090908,4,2,2,60,0,0
103986,-111.111111111111,4,2,2,60,0,0
109450,-111.111111111111,4,2,99,5,0,0
109557,-111.111111111111,4,2,2,60,0,0
110629,-111.111111111111,4,2,1,60,0,0
111164,-111.111111111111,4,2,99,5,0,0
111272,-111.111111111111,4,2,2,60,0,0
111915,-111.111111111111,4,2,1,60,0,0
112343,-111.111111111111,4,2,2,65,0,0
112772,-111.111111111111,4,2,1,65,0,0
114057,-111.111111111111,4,2,2,60,0,0
114593,-111.111111111111,4,2,99,5,0,0
114700,-111.111111111111,4,2,2,60,0,0
115450,-111.111111111111,4,2,99,5,0,0
115557,-111.111111111111,4,2,2,60,0,0
116629,-76.9230769230769,4,2,2,60,0,0
117057,-76.9230769230769,4,2,1,60,0,0
117486,-142.857142857143,4,2,2,50,0,0
124129,-142.857142857143,4,2,1,50,0,0
124343,-76.9230769230769,4,2,2,65,0,0
124557,-76.9230769230769,4,2,99,5,0,0
124665,-76.9230769230769,4,2,1,65,0,0
124879,-76.9230769230769,4,2,99,5,0,0
124986,-76.9230769230769,4,2,1,65,0,0
125415,-111.111111111111,4,2,1,50,0,0
126057,-76.9230769230769,4,2,2,65,0,0
126379,-76.9230769230769,4,2,1,65,0,0
126593,-76.9230769230769,4,2,99,5,0,0
126700,-100,4,2,1,65,0,0
127772,-100,4,2,2,65,0,0
128200,-90.9090909090909,4,2,1,55,0,0
128843,-90.9090909090909,4,2,1,61,0,0
129057,-90.9090909090909,4,2,1,63,0,0
129486,-90.9090909090909,4,2,1,70,0,0
129915,-90.9090909090909,4,2,1,65,0,0
130129,-90.9090909090909,4,2,1,67,0,0
130557,-90.9090909090909,4,2,1,69,0,0
131200,-90.9090909090909,4,2,2,75,0,0
131414,-90.9090909090909,4,2,99,5,0,0
131522,-90.9090909090909,4,2,1,75,0,0
132057,-90.9090909090909,4,2,2,75,0,0
132379,-90.9090909090909,4,2,1,75,0,0
132915,-90.9090909090909,4,2,2,75,0,0
133557,-90.9090909090909,4,2,1,75,0,0
134200,-90.9090909090909,4,2,2,75,0,0
134629,-83.3333333333333,4,2,3,85,0,1
134843,-83.3333333333333,4,2,1,85,0,1
146629,-83.3333333333333,4,2,1,85,0,0
147486,-83.3333333333333,4,2,2,85,0,0
148343,-83.3333333333333,4,2,3,85,0,1
148557,-83.3333333333333,4,2,1,85,0,1
159915,-83.3333333333333,4,2,1,55,0,0
160343,-83.3333333333333,4,2,2,70,0,0
166665,-83.3333333333333,4,2,1,50,0,0
167200,-83.3333333333333,4,2,1,50,0,0
173843,-83.3333333333333,4,2,1,60,0,0
174057,-142.857142857143,4,2,2,60,0,0
180057,-142.857142857143,4,2,1,60,0,0
180915,-76.923076923077,4,2,2,70,0,0
181129,-76.923076923077,4,2,99,5,0,0
181236,-76.923076923077,4,2,1,70,0,0
181450,-76.923076923077,4,2,99,5,0,0
181557,-76.923076923077,4,2,1,70,0,0
181772,-100,4,2,1,70,0,0
182629,-76.9230769230769,4,2,2,70,0,0
182843,-76.9230769230769,4,2,99,5,0,0
182950,-76.9230769230769,4,2,1,70,0,0
183164,-76.9230769230769,4,2,99,5,0,0
183272,-76.9230769230769,4,2,1,70,0,0
184343,-76.9230769230769,4,2,2,70,0,0
184772,-90.9090909090909,4,2,1,55,0,0
185415,-90.9090909090909,4,2,1,61,0,0
185629,-90.9090909090909,4,2,1,63,0,0
186057,-90.9090909090909,4,2,1,70,0,0
186486,-90.9090909090909,4,2,1,65,0,0
186700,-90.9090909090909,4,2,1,67,0,0
187129,-90.9090909090909,4,2,1,69,0,0
187772,-90.9090909090909,4,2,2,75,0,0
188093,-90.9090909090909,4,2,1,75,0,0
188629,-90.9090909090909,4,2,2,75,0,0
188950,-90.9090909090909,4,2,1,75,0,0
189486,-90.9090909090909,4,2,2,75,0,0
189807,-90.9090909090909,4,2,1,75,0,0
190343,-90.9090909090909,4,2,2,75,0,0
190665,-90.9090909090909,4,2,1,75,0,0
191200,-90.9090909090909,4,2,2,75,0,0
191843,-90.9090909090909,4,2,1,75,0,0
192486,-90.9090909090909,4,2,2,75,0,0
193057,-90.9090909090909,4,2,1,75,0,0
193343,-90.9090909090909,4,2,2,75,0,0
193985,-90.9090909090909,4,2,2,60,0,0
194415,-90.9090909090909,4,2,1,60,0,0
195486,-125,4,2,1,50,0,0
196772,-71.4285714285714,4,2,2,80,0,0
197200,-71.4285714285714,4,2,1,80,0,0
199343,-71.4285714285714,4,2,2,80,0,0
199772,-71.4285714285714,4,2,2,60,0,0
200200,-71.4285714285714,4,2,1,60,0,0
201486,-71.4285714285714,4,2,1,65,0,0
203200,-71.4285714285714,4,2,1,70,0,0
204915,-71.4285714285714,4,2,4,75,0,0
205772,-71.4285714285714,4,2,2,75,0,0
206629,-83.3333333333333,4,2,3,85,0,1
206843,-83.3333333333333,4,2,1,85,0,1
212093,-83.3333333333333,4,2,99,5,0,1
212200,-83.3333333333333,4,2,1,85,0,1
219057,-83.3333333333333,4,2,1,85,0,1
221200,-83.3333333333333,4,2,1,85,0,0
221629,-62.5,4,2,2,85,0,0
222057,-100,4,2,2,80,0,0
222271,-100,4,2,99,5,0,0
222379,-100,4,2,1,80,0,0
222915,-100,4,2,2,80,0,0
223129,-100,4,2,99,5,0,0
223236,-100,4,2,1,80,0,0
223772,-100,4,2,2,80,0,0
223986,-100,4,2,99,5,0,0
224093,-100,4,2,1,80,0,0
224629,-100,4,2,2,80,0,0
224843,-100,4,2,99,5,0,0
224950,-100,4,2,1,80,0,0
225486,-100,4,2,2,80,0,0
225700,-100,4,2,99,5,0,0
225807,-100,4,2,1,80,0,0
226343,-100,4,2,2,80,0,0
228700,-100,4,2,2,50,0,0
228986,-100,4,2,3,60,0,0
230629,-100,4,2,3,50,0,0
232343,-100,4,2,3,40,0,0
234057,-100,4,2,3,30,0,0
235772,-100,4,2,3,20,0,0
237486,-100,4,2,99,5,0,0

[Colours]
Combo1 : 255,0,255
Combo2 : 255,191,191
Combo3 : 222,191,255
Combo4 : 223,223,223
Combo5 : 255,113,255

[HitObjects]
80,49,915,5,2,2:0:0:0:
80,49,1772,5,2,2:0:0:0:
62,158,1986,1,0,2:0:0:0:
160,118,2200,1,0,2:0:0:0:
399,192,2629,5,2,2:0:0:0:
399,192,3057,37,0,2:0:0:0:
417,301,3272,1,0,2:0:0:0:
319,261,3486,1,2,2:0:0:0:
48,327,4343,5,2,2:0:0:0:
129,363,4772,2,0,P|148:290|130:217,1,150.199995422363,0|2,2:0|2:0,2:0:0:0:
34,61,5522,5,0,2:0:0:0:
34,61,5629,2,0,B|144:22|117:139|232:99,1,206.525006294251,4|0,2:0|2:0,2:0:0:0:
372,42,6057,38,0,B|378:12|349:-5|349:-5|357:23|352:54,1,100.133333333333,6|0,1:2|2:0,2:0:0:0:
308,118,6379,2,0,P|289:164|301:212,1,100.133333333333,6|0,1:2|2:0,2:0:0:0:
397,237,6700,1,0,1:0:0:0:
403,208,6807,1,0,1:0:0:0:
391,181,6915,1,6,1:2:0:0:
479,334,7236,6,0,P|417:326|362:354,1,125.166666666667,6|8,1:2|1:2,2:0:0:0:
286,298,7557,1,8,1:3:0:0:
286,298,7772,6,0,B|254:293|254:293|226:304|226:304|189:297,1,100.133333333333,6|0,1:2|2:0,2:0:0:0:
121,234,8093,2,0,B|119:206|119:206|132:223,1,50.0666666666667,6|0,1:2|1:0,2:0:0:0:
98,321,8307,1,0,1:0:0:0:
68,328,8415,1,8,1:2:0:0:
39,336,8522,1,8,1:2:0:0:
10,344,8629,1,6,2:0:0:0:
0,116,8950,38,0,P|57:97|114:124,1,125.166666666667,6|8,1:2|1:2,2:0:0:0:
186,61,9272,1,8,1:3:0:0:
186,61,9486,6,0,B|283:38,1,100.133333333333,6|0,1:2|2:0,2:0:0:0:
376,94,9807,2,0,P|380:118|374:142,1,50.0666666666667,6|0,1:2|2:0,2:0:0:0:
245,181,10022,1,8,1:2:0:0:
238,151,10129,1,8,1:3:0:0:
384,244,10343,6,0,B|481:266,1,100.133333333333,6|0,1:2|2:0,2:0:0:0:
510,163,10665,2,0,L|454:177,1,49.6000000000001,6|0,1:2|2:0,2:0:0:0:
415,335,10879,1,8,1:2:0:0:
386,343,10986,1,8,1:3:0:0:
198,264,11200,38,0,B|183:287|166:290|166:290|169:271|192:259,1,81.3583296140037,6|0,1:2|2:0,2:0:0:0:
346,231,11522,2,0,B|373:231|384:244|384:244|366:252|344:237,1,81.3583296140037,6|0,1:2|2:0,2:0:0:0:
243,119,11843,2,0,B|229:94|235:78|235:78|251:90|249:117,1,81.3583296140037,6|0,1:2|2:0,2:0:0:0:
261,203,12057,5,6,1:2:0:0:
266,373,12272,6,0,L|277:311,1,62.5833333333334,8|8,2:0|2:0,2:0:0:0:
161,348,12486,1,8,2:0:0:0:
123,353,12593,1,8,2:0:0:0:
86,358,12700,1,8,2:0:0:0:
49,364,12807,1,8,2:0:0:0:
11,370,12915,1,4,1:2:0:0:
12,142,13129,38,0,L|114:154,1,100.133333333333,10|2,2:0|1:2,2:0:0:0:
52,241,13557,1,10,2:0:0:0:
161,348,13772,2,0,P|148:292|153:228,1,100.133333333333,2|10,1:2|2:0,2:0:0:0:
238,173,14200,1,2,1:2:0:0:
339,243,14415,1,10,2:0:0:0:
287,353,14629,5,2,1:2:0:0:
287,353,14843,2,0,B|317:340|317:340|348:361|398:363,1,100.133333333333,10|2,2:0|1:2,2:0:0:0:
492,279,15272,1,10,2:0:0:0:
463,288,15379,1,2,2:0:0:0:
395,173,15593,1,2,2:0:0:0:
423,183,15700,2,0,P|425:135|437:84,1,100.133333333333,8|0,2:0|1:0,2:0:0:0:
512,0,16129,1,8,2:0:0:0:
462,91,16343,1,0,1:0:0:0:
324,27,16557,6,0,B|309:7|309:7|309:31,1,50.0666666666667,10|0,2:0|2:0,2:0:0:0:
299,114,16772,2,0,B|286:128|261:135|261:135|212:97|162:112,1,150.2,2|0,1:2|2:0,2:0:0:0:
97,169,17200,1,2,1:2:0:0:
3,91,17415,1,10,2:0:0:0:
107,51,17629,1,2,1:2:0:0:
197,211,17843,37,10,2:0:0:0:
197,211,17950,1,2,2:0:0:0:
197,211,18057,2,0,L|185:316,1,100.133333333333,2|8,1:2|2:0,2:0:0:0:
122,374,18379,2,0,P|80:360|88:299,1,100.133333333333,2|0,2:0|2:0,2:0:0:0:
164,303,18700,1,10,2:0:0:0:
340,373,18915,2,0,L|442:359,2,100.133333333333,2|8|0,1:2|2:0|1:0,2:0:0:0:
292,224,19557,5,10,2:0:0:0:
292,224,19665,1,2,2:0:0:0:
292,224,19772,2,0,P|347:241|394:221,1,100.133333333333,2|8,1:2|2:0,2:0:0:0:
428,134,20093,2,0,P|385:173|379:223,1,100.133333333333,2|0,2:0|2:0,2:0:0:0:
456,280,20415,1,10,2:0:0:0:
480,45,20629,6,0,B|408:37|408:37|359:60|359:60|266:50,1,200.266666666667,2|0,1:2|1:0,2:0:0:0:
73,22,21272,38,0,B|48:20|48:20|66:40,1,50.0666666666667,10|2,2:0|2:0,2:0:0:0:
155,68,21486,2,0,P|175:116|144:157,1,100.133333333333,2|8,1:2|2:0,2:0:0:0:
92,238,21807,2,0,P|40:231|20:183,1,100.133333333333,2|0,2:0|2:0,2:0:0:0:
68,118,22129,1,10,2:0:0:0:
186,250,22343,6,0,L|193:349,2,100.133333333333,2|8|0,1:2|2:0|1:2,2:0:0:0:
304,147,22986,1,10,2:0:0:0:
471,229,23200,6,0,L|363:220,1,100.133333333333,2|8,1:2|2:0,2:0:0:0:
292,272,23522,2,0,P|276:318|294:364,1,100.133333333333,2|0,2:0|2:0,2:0:0:0:
385,364,23843,2,0,P|386:338|372:319,1,50.0666666666667,10|0,2:0|2:0,2:0:0:0:
277,381,24057,37,2,1:2:0:0:
158,369,24272,1,8,2:0:0:0:
86,216,24486,1,2,1:2:0:0:
202,230,24700,1,8,2:0:0:0:
53,289,24915,6,0,B|15:295|15:295|0:184,1,150.2,2|0,1:2|2:0,2:0:0:0:
49,90,25343,2,0,B|74:75|74:75|105:104|168:89,1,100.133333333333,0|10,1:0|2:0,2:0:0:0:
233,54,25665,1,0,1:0:0:0:
262,50,25772,1,2,1:2:0:0:
291,45,25879,1,0,1:0:0:0:
320,40,25986,1,8,2:0:0:0:
401,231,26200,1,0,1:0:0:0:
196,205,26415,1,8,2:0:0:0:
460,75,26629,6,0,P|466:38|456:3,1,75.0999977111818,4|0,1:2|2:0,2:0:0:0:
392,145,26843,38,0,B|341:166|289:134|289:134|336:190|306:265,1,225.299993133545,10|8,2:0|2:0,2:0:0:0:
229,352,27486,2,0,B|221:333|197:326|197:326|171:350|121:355,1,112.649996566773,2|10,1:2|2:0,2:0:0:0:
55,213,27915,2,0,P|95:176|150:170,1,112.499996566773,2|10,1:2|2:0,2:0:0:0:
142,262,28343,5,2,1:2:0:0:
30,202,28557,1,10,2:0:0:0:
41,75,28772,1,2,1:2:0:0:
150,18,28986,1,10,2:0:0:0:
183,20,29093,1,2,2:0:0:0:
332,94,29307,1,2,2:0:0:0:
365,91,29415,2,0,P|365:62|301:12,1,112.649996566773,10|0,2:0|1:2,2:0:0:0:
206,110,29843,1,8,2:0:0:0:
333,224,30057,6,0,L|394:210,1,56.3249982833864,0|0,1:0|2:0,2:0:0:0:
457,167,30272,2,0,B|354:158|393:278|252:270,1,225.299993133545,10|10,2:0|2:0,2:0:0:0:
158,176,30915,1,2,1:2:0:0:
257,288,31129,1,10,2:0:0:0:
86,363,31343,2,0,L|97:251,1,112.649996566773,2|10,1:2|2:0,2:0:0:0:
68,150,31665,37,2,2:0:0:0:
68,149,31772,2,0,P|120:136|157:175,1,112.649996566773,2|8,1:2|2:0,2:0:0:0:
33,166,32093,2,0,P|-3:126|11:75,1,112.649996566773,2|0,2:0|2:0,2:0:0:0:
108,25,32415,1,10,2:0:0:0:
266,166,32629,5,2,1:2:0:0:
404,130,32843,1,8,2:0:0:0:
306,24,33057,1,0,1:0:0:0:
198,229,33272,6,0,B|169:234|169:234|184:207,1,56.3249982833864,10|0,2:0|2:0,2:0:0:0:
266,166,33486,2,0,B|371:178|316:228|425:244,2,168.974994850159,6|2|10,1:2|2:0|2:0,2:0:0:0:
256,372,34343,2,0,P|281:368|283:342,1,56.3249982833864,2|0,1:2|2:0,2:0:0:0:
176,312,34557,1,8,2:0:0:0:
142,318,34665,1,0,1:0:0:0:
107,345,34772,1,0,1:0:0:0:
74,336,34879,1,8,1:2:0:0:
42,326,34986,1,10,2:3:0:0:
183,201,35200,37,6,1:2:0:0:
159,50,35415,1,10,1:2:0:0:
120,40,35522,1,8,1:2:0:0:
82,50,35629,1,4,1:2:0:0:
73,209,35843,1,10,1:2:0:0:
101,180,35950,1,8,1:2:0:0:
111,142,36057,1,4,1:2:0:0:
25,126,36272,1,10,1:2:0:0:
177,226,36486,5,0,1:0:0:0:
265,213,36593,5,8,1:2:0:0:
356,200,36700,38,0,L|349:268,1,56.3249982833864,10|0,1:2|2:0,2:0:0:0:
455,346,36915,6,0,L|436:218,1,112.649996566773,6|8,1:2|2:0,2:0:0:0:
448,130,37236,2,0,P|498:124|506:185,1,112.649996566773,2|0,2:0|2:0,2:0:0:0:
427,120,37557,1,10,2:0:0:0:
282,301,37772,2,0,L|115:330,2,168.974994850159,2|2|10,1:2|2:0|2:0,2:0:0:0:
460,240,38629,5,0,1:0:0:0:
260,197,38843,1,8,2:0:0:0:
408,40,39057,1,0,1:0:0:0:
408,40,39165,1,8,1:2:0:0:
408,40,39272,1,8,1:2:0:0:
269,107,39486,38,0,B|246:103|219:114|219:114|234:96|254:97,1,81.3583296140037,2|0,1:2|2:0,2:0:0:0:
443,152,39700,2,0,B|466:148|493:159|493:159|478:141|458:142,1,81.3583296140037,2|0,1:2|2:0,2:0:0:0:
303,277,39915,5,8,1:3:0:0:
274,354,40022,1,10,1:2:0:0:
355,339,40129,1,8,1:3:0:0:
42,371,40343,6,0,L|23:241,2,131.424995994568,6|2|2,1:2|2:0|2:0,2:0:0:0:
132,199,41200,2,0,P|173:190|207:217,1,87.6166639963788,2|2,1:2|2:0,2:0:0:0:
120,294,41629,1,2,1:2:0:0:
23,241,41843,1,2,2:2:0:0:
151,82,42057,37,2,1:2:0:0:
40,21,42272,1,2,2:2:0:0:
22,18,42379,1,2,2:2:0:0:
146,108,42593,1,2,2:2:0:0:
163,105,42700,1,2,2:2:0:0:
180,102,42807,1,2,2:2:0:0:
197,99,42915,2,0,B|259:86|259:86|302:137|265:200,1,175.233327992758,2|2,1:2|1:2,2:0:0:0:
174,270,43557,1,2,2:0:0:0:
311,384,43772,5,2,1:2:0:0:
311,384,44200,1,2,1:2:0:0:
404,369,44415,1,2,2:2:0:0:
499,355,44629,1,2,1:2:0:0:
499,337,44736,2,0,P|466:311|468:193,1,131.424995994568,2|2,2:2|1:2,2:0:0:0:
497,81,45272,6,0,P|506:109|502:137,1,43.8083319981894,2|0,2:0|2:0,2:0:0:0:
416,148,45486,2,0,L|267:130,1,131.424995994568,2|0,1:2|2:0,2:0:0:0:
208,81,45915,2,0,L|121:96,1,87.6166639963788,0|0,1:2|2:0,2:0:0:0:
16,300,46343,37,2,1:2:0:0:
30,310,46450,1,0,1:0:0:0:
47,313,46557,1,0,1:0:0:0:
64,314,46665,1,8,1:2:0:0:
81,311,46772,5,0,1:0:0:0:
109,285,46879,1,0,1:0:0:0:
123,249,46986,1,8,1:3:0:0:
117,211,47093,1,0,1:0:0:0:
48,168,47200,6,0,P|52:211|164:228,1,162.716659228008,6|0,1:2|2:0,2:0:0:0:
160,134,47522,2,0,P|120:115|50:204,1,162.716659228008,6|0,1:2|2:0,2:0:0:0:
109,285,47843,1,6,1:2:0:0:
387,340,48272,37,8,1:2:0:0:
465,357,48379,1,8,1:2:0:0:
308,322,48593,5,8,1:2:0:0:
387,340,48700,1,8,1:3:0:0:
227,305,48915,6,0,P|213:266|228:220,1,81.3583296140037,6|0,1:2|2:0,2:0:0:0:
366,172,49129,2,0,P|339:203|291:213,1,81.3583296140037,2|4,2:0|1:2,2:0:0:0:
181,118,49343,2,0,P|221:125|254:161,1,81.3583296140037,2|0,2:0|2:0,2:0:0:0:
363,48,49557,38,0,B|325:53|299:81|299:81|255:33|175:35,1,187.75,6|0,1:2|2:0,2:0:0:0:
90,17,49986,1,2,1:2:0:0:
48,29,50093,1,0,1:2:0:0:
4,25,50200,5,10,1:2:0:0:
56,6,50307,1,0,1:2:0:0:
103,36,50415,1,10,1:2:0:0:
107,92,50522,1,0,1:2:0:0:
65,129,50629,1,14,1:2:0:0:
65,129,51057,6,0,P|100:109|138:108,1,68.8416687647503,8|0,1:3|2:0,2:0:0:0:
160,327,51272,2,0,P|160:286|178:253,1,68.8416687647503,8|0,1:3|2:0,2:0:0:0:
86,241,51486,2,0,P|106:206|138:186,1,68.8416687647503,8|0,1:3|2:0,2:0:0:0:
267,364,51700,2,0,P|247:329|246:291,1,68.8416687647503,8|0,1:3|2:0,2:0:0:0:
160,327,51915,2,0,P|160:286|178:253,1,68.8416687647503,8|0,1:3|2:0,2:0:0:0:
378,342,52129,2,0,P|343:321|323:289,1,68.8416687647503,8|0,1:3|2:0,2:0:0:0:
277,152,52343,1,12,1:2:0:0:
277,152,52772,38,0,L|357:136,1,68.8416687647503,8|0,1:3|2:0,2:0:0:0:
207,40,52986,2,0,L|287:56,1,68.8416687647503,8|0,1:3|2:0,2:0:0:0:
171,261,53200,2,0,L|251:245,1,68.8416687647503,8|0,1:3|2:0,2:0:0:0:
101,149,53415,2,0,L|181:165,1,68.2000020980837,8|0,1:3|2:0,2:0:0:0:
24,336,53629,5,8,1:3:0:0:
0,298,53736,1,8,1:3:0:0:
5,263,53843,1,8,1:3:0:0:
20,248,53950,1,8,1:3:0:0:
34,245,54057,6,0,L|170:260,1,137.6833375295,14|0,1:2|2:0,2:0:0:0:
262,354,54379,2,0,L|246:217,1,137.6833375295,6|0,1:2|1:0,2:0:0:0:
338,149,54700,1,8,1:3:0:0:
375,177,54807,1,8,1:2:0:0:
376,203,54915,38,0,P|324:164|325:98,1,137.6833375295,14|0,1:2|2:0,2:0:0:0:
280,24,55236,2,0,P|220:49|163:15,1,137.6833375295,6|8,1:2|1:2,2:0:0:0:
87,66,55557,2,0,P|99:97|96:138,1,68.8416687647503,8|0,1:3|2:0,2:0:0:0:
74,319,55772,54,2,L|67:364,2,46.1083347320557,6|2|2,1:2|2:2|2:2,2:2:0:0:
50,239,55986,2,2,L|4:232,2,46.1083347320557,2|2|2,1:2|2:2|2:2,2:2:0:0:
130,215,56200,2,2,L|136:169,2,46.1083347320557,2|2|2,1:2|2:2|2:2,2:2:0:0:
166,305,56415,1,6,1:2:0:0:
166,305,56486,1,2,2:2:0:0:
166,305,56557,1,2,2:2:0:0:
166,305,56629,6,0,L|242:297,1,68.8416687647503,6|0,1:2|2:0,2:0:0:0:
361,350,56843,2,0,L|437:342,1,68.8416687647503,8|8,1:2|1:2,2:0:0:0:
292,241,57057,1,12,1:2:0:0:
272,196,57165,1,8,1:2:0:0:
282,149,57272,1,8,1:2:0:0:
318,117,57379,1,8,1:2:0:0:
369,191,57486,6,0,P|448:218|525:176,1,150.199995422363,6|8,1:2|2:0,2:0:0:0:
512,168,57807,1,2,2:0:0:0:
471,75,57915,2,0,B|345:38|400:141|254:99,1,225.299993133545,2|2,1:2|2:0,2:0:0:0:
158,39,58343,2,0,B|192:4|192:4|290:25,1,150.199995422363,2|10,1:2|2:0,2:0:0:0:
292,241,58772,2,0,B|258:276|258:276|159:254,1,150.199995422363,2|10,1:2|2:0,2:0:0:0:
82,108,59200,6,0,B|52:79|50:41|50:41|17:75|36:123,1,150.199995422363,2|8,1:2|2:0,2:0:0:0:
50,125,59522,1,2,2:0:0:0:
158,39,59629,2,0,B|195:27|232:56|232:56|314:13|429:65,1,225.299993133545,2|2,1:2|2:0,2:0:0:0:
461,120,60057,1,2,1:2:0:0:
415,326,60272,1,10,2:0:0:0:
223,288,60486,1,2,1:2:0:0:
255,143,60700,1,10,2:0:0:0:
349,183,60915,5,6,1:2:0:0:
351,202,60986,1,2,2:0:0:0:
353,221,61057,1,2,2:0:0:0:
355,242,61129,2,0,P|329:238|304:228,2,50.2999984741212,10|2|2,2:0|2:0|2:0,2:0:0:0:
325,322,61343,22,0,P|250:328|161:346,1,150.199995422363,2|10,1:2|2:0,2:0:0:0:
159,368,61665,1,2,2:0:0:0:
54,321,61772,2,0,P|53:245|113:276,1,150.199995422363,2|10,1:2|2:0,2:0:0:0:
255,143,62200,2,0,P|231:173|196:190,1,75.0999977111818,2|0,1:2|2:0,2:0:0:0:
79,152,62415,2,0,P|64:116|67:77,1,75.0999977111818,10|0,2:0|2:0,2:0:0:0:
164,19,62629,22,0,L|174:168,1,150.199995422363,2|8,1:2|2:0,2:0:0:0:
296,378,63057,2,0,L|306:228,1,150.199995422363,2|8,1:2|2:0,2:0:0:0:
362,135,63379,1,2,2:0:0:0:
382,116,63486,1,2,1:2:0:0:
410,106,63593,1,2,2:0:0:0:
439,102,63700,1,10,2:0:0:0:
467,110,63807,1,2,2:0:0:0:
490,129,63915,53,2,1:2:0:0:
485,181,64022,1,2,2:0:0:0:
479,233,64129,1,10,2:0:0:0:
473,285,64236,1,2,2:0:0:0:
465,362,64343,5,6,1:2:0:0:
393,41,64557,37,10,2:2:0:0:
376,74,64665,1,2,2:2:0:0:
348,99,64772,1,2,1:2:0:0:
313,113,64879,1,2,2:2:0:0:
275,115,64986,1,10,2:2:0:0:
239,103,65093,1,2,2:2:0:0:
213,75,65200,5,2,1:2:0:0:
165,38,65307,1,2,2:2:0:0:
104,33,65415,1,10,2:2:0:0:
51,61,65522,1,2,2:2:0:0:
29,117,65629,1,2,1:2:0:0:
41,175,65736,1,2,2:2:0:0:
84,215,65843,1,10,2:2:0:0:
143,220,65950,1,2,2:2:0:0:
147,127,66057,6,0,P|130:109|118:143,1,75.0999977111818,2|0,1:2|2:0,2:0:0:0:
48,212,66272,2,0,P|23:217|47:245,1,75.0999977111818,10|0,2:0|2:0,2:0:0:0:
78,340,66486,2,0,P|70:363|106:357,1,75.0999977111818,2|0,1:2|2:0,2:0:0:0:
201,354,66700,1,10,2:2:0:0:
247,337,66807,1,2,2:2:0:0:
292,341,66915,37,2,1:2:0:0:
299,304,67022,1,2,2:2:0:0:
308,267,67129,1,10,2:2:0:0:
315,230,67236,5,2,2:2:0:0:
351,237,67343,1,2,1:2:0:0:
387,244,67450,1,2,2:2:0:0:
423,250,67557,6,0,P|427:301|402:322,1,75.0999977111818,10|0,2:0|2:0,2:0:0:0:
222,252,67772,38,0,P|203:180|210:105,1,150.199995422363,6|8,1:2|2:0,2:0:0:0:
456,58,68200,1,2,1:2:0:0:
441,100,68307,1,2,2:2:0:0:
404,127,68415,1,10,2:2:0:0:
360,139,68522,1,2,2:2:0:0:
315,133,68629,1,2,1:2:0:0:
179,20,68843,1,10,2:0:0:0:
31,165,69057,5,2,1:2:0:0:
37,217,69165,1,2,2:0:0:0:
46,268,69272,1,10,2:0:0:0:
54,319,69379,1,2,2:0:0:0:
0,384,69486,5,8,1:3:0:0:
143,354,69807,37,8,1:3:0:0:
279,318,70129,5,8,1:3:0:0:
422,280,70343,1,4,1:2:0:0:
422,280,70772,37,10,1:2:0:0:
433,263,70843,1,2,2:0:0:0:
437,243,70915,1,2,2:0:0:0:
429,224,70986,2,0,P|399:235|371:233,2,50.2999984741212,10|2|2,1:2|2:0|2:0,2:0:0:0:
462,142,71200,22,0,P|439:66|383:104,1,150.199995422363,6|8,1:2|2:0,2:0:0:0:
380,99,71522,1,2,2:0:0:0:
287,201,71629,2,0,B|309:197|320:177|320:177|274:127|293:50,1,150.199995422363,2|8,1:2|2:0,2:0:0:0:
157,28,71950,1,2,2:0:0:0:
157,28,72057,2,0,P|195:88|172:157,1,150.199995422363,2|8,1:2|2:0,2:0:0:0:
19,352,72486,2,0,P|52:287|123:273,1,150.199995422363,2|10,1:2|2:0,2:0:0:0:
298,351,72915,6,0,L|280:202,1,150.199995422363,2|8,1:2|2:0,2:0:0:0:
295,183,73236,1,2,2:0:0:0:
414,209,73343,2,0,B|480:221|480:221|506:273|457:328,1,150.199995422363,2|8,1:2|2:0,2:0:0:0:
387,362,73665,1,2,2:0:0:0:
387,362,73772,2,0,L|375:284,1,75.0999977111818,2|0,1:2|2:0,2:0:0:0:
423,193,73986,2,0,L|411:118,1,75.0999977111818,10|0,2:0|2:0,2:0:0:0:
277,268,74200,2,0,L|265:190,1,75.0999977111818,2|0,1:2|2:0,2:0:0:0:
313,99,74415,2,0,L|301:24,1,74.3999977111818,10|0,2:0|2:0,2:0:0:0:
157,50,74629,21,6,1:2:0:0:
137,52,74700,1,2,2:0:0:0:
117,54,74772,1,2,2:0:0:0:
97,57,74843,2,0,L|83:-1,2,50.2999984741212,10|2|2,2:0|2:0|2:0,2:0:0:0:
42,139,75057,22,0,P|113:143|139:226,1,150.199995422363,2|10,1:2|2:0,2:0:0:0:
117,225,75379,1,2,2:0:0:0:
178,339,75486,2,0,L|28:322,1,150.199995422363,2|10,1:2|2:0,2:0:0:0:
265,193,75915,2,0,B|375:175|335:313|467:303,1,225.299993133545,2|0,1:2|2:0,2:0:0:0:
497,244,76343,54,0,P|425:256|391:320,1,150.199995422363,2|8,1:2|2:0,2:0:0:0:
492,79,76772,2,0,B|486:60|467:51|467:51|420:97|318:66,1,150.199995422363,2|8,1:2|2:0,2:0:0:0:
274,27,77093,1,2,2:2:0:0:
247,12,77200,1,2,1:2:0:0:
217,12,77307,1,2,2:2:0:0:
188,21,77415,1,10,2:2:0:0:
170,44,77522,1,2,2:2:0:0:
160,72,77629,5,2,1:2:0:0:
158,124,77736,1,2,2:2:0:0:
119,159,77843,1,10,2:2:0:0:
67,167,77950,1,2,2:2:0:0:
13,101,78057,5,6,1:2:0:0:
22,322,78272,38,2,P|48:347|85:349,1,75.0999977111818,10|2,2:2|2:2,2:2:0:0:
185,263,78486,2,2,P|211:237|248:235,1,75.0999977111818,2|2,1:2|2:2,2:2:0:0:
381,361,78700,2,0,P|357:290|371:217,1,150.199995422363,10|2,2:0|1:2,2:0:0:0:
485,43,79129,1,10,2:2:0:0:
197,68,79343,5,2,1:2:0:0:
255,78,79450,1,2,2:2:0:0:
313,90,79557,1,10,2:2:0:0:
372,102,79665,1,2,2:2:0:0:
455,120,79772,6,0,B|498:128|498:128|480:232,1,150.199995422363,2|8,1:2|2:0,2:0:0:0:
323,349,80093,1,2,2:0:0:0:
323,349,80200,2,0,P|318:301|297:264,1,75.0999977111818,2|0,1:2|2:0,2:0:0:0:
149,221,80415,2,0,P|109:249|88:286,1,75.0999977111818,10|0,2:0|2:0,2:0:0:0:
217,384,80629,2,0,B|230:359|230:359|201:300|227:234,1,150.199995422363,2|8,1:2|2:0,2:0:0:0:
288,165,80950,1,2,2:2:0:0:
330,151,81057,1,2,1:2:0:0:
373,165,81165,1,2,2:2:0:0:
390,206,81272,2,0,P|355:205|325:177,1,75.0999977111818,10|0,2:0|2:0,2:0:0:0:
285,3,81486,37,6,1:2:0:0:
455,120,81700,1,10,2:2:0:0:
197,38,81915,1,2,1:2:0:0:
160,29,82022,1,2,2:2:0:0:
122,32,82129,1,10,2:2:0:0:
89,51,82236,1,2,2:2:0:0:
64,79,82343,1,2,1:2:0:0:
282,253,82557,5,10,2:2:0:0:
261,196,82665,1,2,2:2:0:0:
210,164,82772,1,2,1:2:0:0:
150,162,82879,1,2,2:2:0:0:
116,177,82986,1,10,2:2:0:0:
90,204,83093,1,2,2:2:0:0:
78,239,83200,1,6,1:2:0:0:
395,281,83415,6,0,L|315:277,1,75.0999977111818,10|0,2:0|2:0,2:0:0:0:
168,363,83629,2,0,L|172:283,1,75.0999977111818,2|2,1:2|2:0,2:0:0:0:
86,136,83843,2,0,L|166:140,1,75.0999977111818,10|2,2:0|2:0,2:0:0:0:
353,148,84057,1,2,1:2:0:0:
393,103,84165,1,2,2:2:0:0:
384,43,84272,1,10,2:2:0:0:
334,9,84379,1,2,2:2:0:0:
276,24,84486,37,2,1:2:0:0:
272,53,84593,1,2,2:2:0:0:
269,82,84700,1,10,2:2:0:0:
266,111,84807,1,2,2:2:0:0:
263,141,84915,5,2,1:2:0:0:
384,336,85129,6,0,P|377:299|388:263,1,75.0999977111818,10|8,1:2|1:2,2:0:0:0:
263,141,85343,2,0,P|234:164|198:173,1,75.0999977111818,8|8,1:3|1:3,2:0:0:0:
154,343,85557,2,0,P|188:356|214:383,1,75.0999977111818,10|0,1:2|1:0,2:0:0:0:
273,250,85772,37,10,1:2:0:0:
289,274,86200,5,0,2:0:0:0:
264,278,86629,6,0,L|127:253,1,112.649996566773,6|0,1:2|2:0,2:0:0:0:
49,345,86950,2,0,P|61:290|45:237,1,112.649996566773,6|0,1:2|2:0,2:0:0:0:
103,124,87272,37,8,1:3:0:0:
103,124,87379,1,8,1:2:0:0:
103,124,87486,2,0,B|187:108|160:172|250:160,1,150.199995422363,6|0,1:2|2:0,2:0:0:0:
326,51,87807,2,0,P|278:29|240:65,1,112.649996566773,6|8,1:2|1:2,2:0:0:0:
386,163,88129,1,8,1:3:0:0:
386,163,88343,6,0,B|425:163|425:163|390:185,1,81.3583296140037,6|0,1:2|2:0,2:0:0:0:
225,176,88665,2,0,B|205:141|205:141|241:160,1,81.3583296140037,6|0,1:2|2:0,2:0:0:0:
312,308,88986,2,0,B|291:342|291:342|290:301,1,81.3583296140037,6|0,1:2|2:0,2:0:0:0:
306,221,89200,5,6,1:2:0:0:
127,262,89415,38,0,L|188:273,1,62.5833333333334,8|8,2:0|2:0,2:0:0:0:
39,330,89629,1,8,2:0:0:0:
34,286,89736,1,8,2:0:0:0:
30,242,89843,1,8,2:0:0:0:
26,198,89950,1,8,2:0:0:0:
22,158,90057,6,0,L|178:182,1,150.024995422363,4|0,1:2|2:0,2:0:0:0:
170,180,91129,2,0,P|155:151|162:124,1,56.3249982833864,2|0,0:2|1:0,2:0:0:0:
251,50,91343,1,8,1:2:0:0:
289,58,91450,1,8,1:2:0:0:
327,66,91557,1,10,1:3:0:0:
455,145,91772,6,0,P|452:95|465:47,1,100.133333333333,6|10,1:2|2:0,2:0:0:0:
326,163,92200,1,2,1:2:0:0:
452,259,92415,1,10,2:0:0:0:
481,255,92522,1,2,2:0:0:0:
365,376,92736,1,2,2:0:0:0:
395,370,92843,1,10,2:0:0:0:
288,268,93057,2,0,P|269:251|245:244,1,50.0666666666667,0|0,1:0|2:0,2:0:0:0:
177,318,93272,2,0,P|158:334|134:341,1,50.0666666666667,8|0,2:0|2:0,2:0:0:0:
46,289,93486,1,0,1:0:0:0:
159,114,93700,37,10,2:0:0:0:
56,40,93915,2,0,L|48:139,1,100.133333333333,2|10,1:2|2:0,2:0:0:0:
211,232,94343,1,2,1:2:0:0:
159,114,94557,1,10,2:0:0:0:
91,219,94772,1,2,1:2:0:0:
211,232,94986,1,10,2:0:0:0:
61,364,95200,6,0,P|26:331|45:288,1,100.133333333333,2|8,1:2|2:0,2:0:0:0:
136,327,95522,2,0,B|195:334|195:334|219:351|219:351|279:359,1,150.2,2|10,2:0|2:0,2:0:0:0:
473,285,96057,2,0,B|480:254|480:254|468:224|468:187,2,100.133333333333,2|8|0,1:2|2:0|1:0,2:0:0:0:
413,361,96700,1,10,2:0:0:0:
324,241,96915,6,0,P|309:193|321:146,1,100.133333333333,2|8,1:2|2:0,2:0:0:0:
401,89,97236,2,0,P|357:113|309:106,1,100.133333333333,2|0,2:0|2:0,2:0:0:0:
248,30,97557,1,10,2:0:0:0:
392,193,97772,1,2,1:2:0:0:
208,129,97986,1,10,2:2:0:0:
208,129,98093,1,2,2:2:0:0:
208,129,98200,1,2,1:2:0:0:
48,55,98415,38,0,L|42:104,1,50.0666666666667,10|0,2:0|2:0,2:0:0:0:
21,199,98629,2,0,P|67:211|101:178,1,100.133333333333,2|8,1:2|2:0,2:0:0:0:
154,266,98950,2,0,P|120:299|131:346,1,100.133333333333,2|0,2:0|2:0,2:0:0:0:
15,307,99272,1,10,2:0:0:0:
207,366,99486,1,2,1:2:0:0:
352,254,99700,2,0,L|253:273,1,100.133333333333,8|0,2:0|1:0,2:0:0:0:
138,179,100129,1,10,2:0:0:0:
294,45,100343,6,0,L|280:150,1,100.133333333333,2|8,1:2|2:0,2:0:0:0:
193,45,100665,2,0,P|234:20|282:31,1,100.133333333333,2|0,2:0|2:0,2:0:0:0:
386,112,100986,1,10,2:2:0:0:
386,112,101093,1,2,2:2:0:0:
386,112,101200,1,2,1:2:0:0:
276,237,101415,1,8,2:0:0:0:
390,350,101629,2,0,P|415:361|442:361,1,50.0666666666667,2|0,1:2|2:0,2:0:0:0:
464,236,101843,2,0,P|439:225|412:225,1,50.0666666666667,8|0,2:0|2:0,2:0:0:0:
279,322,102057,5,2,1:2:0:0:
263,321,102165,1,2,2:2:0:0:
248,320,102272,1,10,2:2:0:0:
233,319,102379,1,2,2:2:0:0:
218,318,102486,1,2,1:2:0:0:
203,317,102593,1,2,2:2:0:0:
188,316,102700,37,10,2:2:0:0:
117,345,102807,5,2,1:2:0:0:
47,378,102915,5,2,2:2:0:0:
145,31,103129,38,0,P|162:63|164:101,1,75.0999977111818,10|0,1:2|2:0,2:0:0:0:
63,228,103343,2,0,P|82:196|113:176,1,75.0999977111818,10|0,1:2|2:0,2:0:0:0:
274,204,103557,2,0,P|236:202|203:185,1,75.0999977111818,10|0,1:2|2:0,2:0:0:0:
292,49,103772,6,0,B|321:35|321:35|356:41,1,68.8416687647503,4|0,1:2|2:0,2:0:0:0:
483,29,103986,2,0,L|450:159,1,112.649996566773,10|2,2:0|1:2,2:0:0:0:
368,294,104415,1,10,2:0:0:0:
479,234,104629,1,2,1:2:0:0:
356,139,104843,1,10,2:0:0:0:
257,350,105057,1,2,1:2:0:0:
368,294,105272,1,10,2:0:0:0:
226,239,105486,6,0,B|202:224|202:224|165:259|124:263,1,112.649996566773,2|10,1:2|2:0,2:0:0:0:
13,189,105915,1,2,1:2:0:0:
50,341,106129,1,10,2:0:0:0:
46,368,106236,1,2,2:0:0:0:
123,166,106450,1,2,2:2:0:0:
119,139,106557,1,10,2:2:0:0:
203,336,106772,2,0,P|228:346|256:349,1,56.3249982833864,0|0,1:0|2:0,2:0:0:0:
375,319,106986,2,0,P|397:301|413:279,1,56.3249982833864,10|0,2:0|2:0,2:0:0:0:
400,151,107200,1,2,1:2:0:0:
244,36,107415,37,10,2:0:0:0:
203,131,107629,2,0,L|314:142,1,112.649996566773,2|10,1:2|2:0,2:0:0:0:
459,20,108057,2,0,P|404:22|372:67,1,112.649996566773,2|10,1:2|2:0,2:0:0:0:
447,237,108486,2,0,P|444:182|399:150,1,112.649996566773,2|10,1:2|2:0,2:0:0:0:
299,304,108915,6,0,P|256:339|202:335,1,112.649996566773,2|8,1:2|2:0,2:0:0:0:
173,243,109236,2,0,P|215:207|269:211,1,112.649996566773,2|0,2:0|2:0,2:0:0:0:
318,310,109557,1,10,2:0:0:0:
113,376,109772,5,2,1:2:0:0:
79,369,109879,1,0,1:0:0:0:
46,360,109986,1,8,2:0:0:0:
12,353,110093,2,0,L|-1:241,1,112.649996566773,2|0,2:0|2:0,2:0:0:0:
80,165,110415,37,10,2:0:0:0:
47,156,110522,1,2,2:0:0:0:
13,149,110629,2,0,L|0:37,1,112.649996566773,6|8,1:2|2:0,2:0:0:0:
103,76,110950,2,0,B|118:60|150:56|150:56|173:81|206:80,1,112.649996566773,2|0,2:0|2:0,2:0:0:0:
303,22,111272,1,10,2:0:0:0:
401,158,111486,2,0,P|351:135|300:155,1,112.649996566773,2|8,1:2|2:0,2:0:0:0:
221,346,111915,1,8,1:3:0:0:
227,312,112022,1,8,1:2:0:0:
254,277,112129,1,10,1:2:0:0:
245,244,112236,1,8,1:3:0:0:
235,212,112343,1,6,1:2:0:0:
67,260,112557,5,8,1:2:0:0:
106,269,112665,1,8,1:2:0:0:
145,259,112772,1,6,1:2:0:0:
318,354,112986,5,8,1:2:0:0:
357,344,113093,1,8,1:2:0:0:
396,352,113200,2,0,P|407:327|410:299,1,56.3249982833864,6|0,1:2|2:0,2:0:0:0:
490,209,113415,53,8,1:2:0:0:
451,219,113522,1,8,1:2:0:0:
412,211,113629,1,0,1:0:0:0:
460,76,113843,53,10,1:2:0:0:
460,76,113950,1,8,1:2:0:0:
460,76,114057,2,0,P|385:63|337:104,1,112.649996566773,6|8,1:2|2:0,2:0:0:0:
290,157,114379,2,0,P|237:173|186:153,1,112.649996566773,2|0,2:0|2:0,2:0:0:0:
140,44,114700,1,10,2:0:0:0:
56,176,114915,6,0,B|27:154|34:127|34:127|66:133|70:171,1,112.649996566773,2|8,1:2|2:0,2:0:0:0:
53,276,115236,2,0,B|48:312|21:319|21:319|10:288|41:266,1,112.649996566773,2|0,2:0|2:0,2:0:0:0:
139,235,115557,1,10,2:0:0:0:
264,345,115772,2,0,B|306:360|306:360|337:340|370:350,1,112.649996566773,0|8,1:2|2:0,2:0:0:0:
487,52,116307,5,8,1:2:0:0:
487,52,116415,1,2,2:0:0:0:
392,230,116629,38,0,B|370:246|370:246|306:227,1,81.3583296140037,2|0,1:2|2:0,2:0:0:0:
334,72,116843,2,0,B|358:83|358:83|374:147,1,81.3583296140037,2|0,1:2|2:0,2:0:0:0:
209,215,117057,5,8,1:3:0:0:
179,134,117165,1,10,1:2:0:0:
261,147,117272,1,8,1:3:0:0:
38,247,117486,6,0,B|52:340|52:340|24:365,2,131.424995994568,6|2|2,1:2|2:0|2:0,2:0:0:0:
3,60,118343,2,0,B|23:42|50:52|50:52|27:67|21:96,1,87.6166639963788,0|2,1:0|2:0,2:0:0:0:
121,207,118772,1,2,1:2:0:0:
239,58,118986,1,2,2:0:0:0:
351,147,119200,37,2,1:2:0:0:
151,103,119415,1,2,2:0:0:0:
148,85,119522,1,2,2:0:0:0:
200,248,119736,1,2,2:2:0:0:
198,265,119843,1,2,2:2:0:0:
197,282,119950,1,2,2:2:0:0:
196,299,120057,2,0,P|241:282|298:285,1,87.6166639963788,0|2,1:0|2:0,2:0:0:0:
444,334,120486,1,2,1:2:0:0:
310,370,120700,1,2,2:0:0:0:
440,228,120915,5,2,1:2:0:0:
440,228,121343,1,2,1:2:0:0:
479,132,121557,1,2,2:2:0:0:
416,49,121772,2,0,B|313:27|356:98|233:75,1,175.233327992758,2|2,1:2|1:2,2:0:0:0:
34,47,122522,5,2,2:0:0:0:
34,47,122629,2,0,P|63:98|68:139,1,87.6166639963788,2|0,1:2|2:0,2:0:0:0:
139,210,122950,2,0,P|149:167|172:131,1,87.6166639963788,2|0,2:0|2:0,2:0:0:0:
249,77,123272,1,2,2:0:0:0:
352,224,123486,37,2,1:2:0:0:
360,239,123593,1,0,1:0:0:0:
361,256,123700,1,0,1:0:0:0:
361,273,123807,1,8,1:2:0:0:
354,289,123915,5,0,1:0:0:0:
325,315,124022,1,0,1:0:0:0:
287,327,124129,1,8,1:3:0:0:
248,320,124236,1,0,1:0:0:0:
212,243,124343,6,0,P|284:198|357:230,1,162.716659228008,6|0,1:2|2:0,2:0:0:0:
264,112,124665,2,0,P|266:196|202:244,1,162.716659228008,6|0,1:2|2:0,2:0:0:0:
351,223,124986,1,6,1:2:0:0:
446,64,125415,38,0,L|438:8,2,56.3249982833864,2|0|8,1:2|1:0|1:3,2:0:0:0:
474,146,125736,1,2,1:2:0:0:
394,129,125843,1,0,1:0:0:0:
241,32,126057,6,0,L|263:111,1,81.3583296140037,6|0,1:2|2:0,2:0:0:0:
86,69,126272,2,0,L|142:10,1,81.3583296140037,2|4,2:0|1:2,2:0:0:0:
194,184,126486,2,0,L|115:163,1,81.3583296140037,2|0,2:0|2:0,2:0:0:0:
258,24,126700,54,0,B|308:8|308:8|373:52|459:17,1,187.75,6|0,1:2|2:0,2:0:0:0:
488,122,127129,1,2,1:2:0:0:
459,155,127236,1,0,1:0:0:0:
415,161,127343,21,10,1:2:0:0:
466,184,127450,1,8,1:3:0:0:
488,235,127557,1,10,1:3:0:0:
476,290,127665,1,0,1:0:0:0:
429,321,127772,1,14,1:2:0:0:
429,321,128200,54,0,P|408:293|378:277,1,68.8416687647503,8|0,1:3|2:0,2:0:0:0:
318,383,128415,2,0,P|314:349|296:319,1,68.8416687647503,8|0,1:3|2:0,2:0:0:0:
492,212,128629,2,0,P|463:199|425:200,1,68.8416687647503,8|0,1:3|2:0,2:0:0:0:
429,321,128843,2,0,P|408:293|378:277,1,68.8416687647503,8|0,1:3|2:0,2:0:0:0:
494,87,129057,2,0,P|463:89|430:108,1,68.8416687647503,8|0,1:3|2:0,2:0:0:0:
492,212,129272,2,0,P|463:199|425:200,1,68.8416687647503,8|0,1:3|2:0,2:0:0:0:
368,8,129486,1,12,1:2:0:0:
368,8,129915,6,0,L|362:82,1,68.8416687647503,8|0,1:3|2:0,2:0:0:0:
276,32,130129,2,0,L|270:106,1,68.8416687647503,8|0,1:3|2:0,2:0:0:0:
68,101,130343,2,0,L|74:175,1,68.8416687647503,8|0,1:3|2:0,2:0:0:0:
160,125,130557,2,0,L|166:199,1,68.8416687647503,8|0,1:3|2:0,2:0:0:0:
409,243,130772,53,8,1:3:0:0:
372,217,130879,1,8,1:3:0:0:
334,214,130986,1,8,1:3:0:0:
301,228,131093,1,8,1:3:0:0:
287,239,131200,54,0,L|279:385,1,137.6833375295,14|0,1:2|2:0,2:0:0:0:
175,312,131522,2,0,P|150:247|205:235,1,137.6833375295,6|0,1:2|1:0,2:0:0:0:
372,344,131843,1,8,1:3:0:0:
411,351,131950,1,8,1:2:0:0:
432,349,132057,6,0,B|471:333|471:333|481:238,1,137.6833375295,14|0,1:2|2:0,2:0:0:0:
447,162,132379,1,6,1:2:0:0:
459,150,132486,2,0,L|451:81,1,68.8416687647503,0|8,2:0|1:2,2:0:0:0:
330,17,132700,2,0,L|338:85,1,68.8416687647503,8|0,1:3|1:0,2:0:0:0:
214,202,132915,38,2,P|193:211|171:209,2,46.1083347320557,6|2|2,1:2|2:2|2:2,2:2:0:0:
118,129,133129,2,2,P|120:107|134:88,2,46.1083347320557,2|2|2,1:2|2:2|2:2,2:2:0:0:
228,83,133343,2,2,P|247:97|256:117,2,46.1083347320557,2|2|2,1:2|2:2|2:2,2:2:0:0:
334,202,133557,1,6,1:2:0:0:
334,202,133629,1,2,2:2:0:0:
334,202,133700,1,2,2:2:0:0:
334,202,133772,38,0,L|328:291,1,68.8416687647503,6|0,1:2|2:0,2:0:0:0:
453,349,133986,2,0,L|458:280,1,68.8416687647503,8|8,1:2|1:2,2:0:0:0:
267,355,134200,1,12,1:2:0:0:
219,327,134307,1,8,1:2:0:0:
163,325,134415,1,8,1:2:0:0:
114,351,134522,1,8,1:2:0:0:
33,295,134629,38,0,B|40:231|40:231|50:219|50:219|60:139,1,150.199995422363,6|8,1:2|2:0,2:0:0:0:
46,133,134950,1,2,2:0:0:0:
173,215,135057,2,0,B|224:260|301:242|301:242|310:182|262:139,1,225.299993133545,2|2,1:2|2:0,2:0:0:0:
142,36,135486,6,0,P|108:24|71:31,1,75.0999977111818,2|0,1:2|2:0,2:0:0:0:
270,136,135700,2,0,P|306:143|341:130,1,75.0999977111818,10|0,2:0|2:0,2:0:0:0:
80,215,135915,1,2,1:2:0:0:
248,31,136129,1,10,2:0:0:0:
448,172,136343,6,0,B|479:202|458:244|458:244|437:208|388:193,1,150.199995422363,2|8,1:2|2:0,2:0:0:0:
422,174,136665,1,2,2:0:0:0:
344,325,136772,2,0,B|329:353|298:358|298:358|219:302|141:327,1,225.299993133545,2|2,1:2|2:0,2:0:0:0:
58,378,137200,1,2,1:2:0:0:
0,184,137415,1,10,2:0:0:0:
161,48,137629,1,2,1:2:0:0:
230,179,137843,1,10,2:0:0:0:
145,151,138057,5,6,1:2:0:0:
125,156,138129,1,2,2:0:0:0:
106,162,138200,1,2,2:0:0:0:
86,167,138272,2,0,P|90:139|89:110,2,50.2999984741212,10|2|2,2:0|2:0|2:0,2:0:0:0:
59,254,138486,38,0,P|134:255|202:284,1,150.199995422363,2|10,1:2|2:0,2:0:0:0:
201,302,138807,1,2,2:0:0:0:
345,320,138915,2,0,P|356:250|297:211,1,150.199995422363,2|10,1:2|2:0,2:0:0:0:
11,355,139343,2,0,P|50:353|84:339,1,75.0999977111818,2|0,1:2|2:0,2:0:0:0:
151,237,139557,2,0,P|149:197|135:163,1,75.0999977111818,10|0,2:0|2:0,2:0:0:0:
16,53,139772,6,0,B|-16:97|-16:97|5:202,1,150.199995422363,2|8,1:2|2:0,2:0:0:0:
284,349,140200,2,0,B|316:305|316:305|294:199,1,150.199995422363,2|8,1:2|2:0,2:0:0:0:
224,115,140522,1,2,2:2:0:0:
202,93,140629,1,2,1:2:0:0:
173,83,140736,1,2,2:2:0:0:
143,85,140843,1,10,2:2:0:0:
115,96,140950,1,2,2:2:0:0:
95,118,141057,37,2,1:2:0:0:
111,168,141165,1,2,2:2:0:0:
153,199,141272,1,10,2:2:0:0:
204,208,141379,1,2,2:2:0:0:
289,181,141486,5,6,1:2:0:0:
468,358,141700,5,10,2:2:0:0:
444,328,141807,1,2,2:2:0:0:
432,292,141915,1,2,1:2:0:0:
427,254,142022,1,2,2:2:0:0:
435,217,142129,1,10,2:2:0:0:
450,183,142236,1,2,2:2:0:0:
473,153,142343,37,2,1:2:0:0:
488,95,142450,1,2,2:2:0:0:
462,40,142557,1,10,2:2:0:0:
408,12,142665,1,2,2:2:0:0:
348,20,142772,1,2,1:2:0:0:
307,63,142879,1,2,2:2:0:0:
302,122,142986,1,10,2:2:0:0:
328,175,143093,1,2,2:2:0:0:
392,117,143200,6,0,P|367:89|331:82,1,75.0999977111818,2|0,1:2|2:0,2:0:0:0:
239,21,143415,2,0,P|202:28|178:56,1,75.0999977111818,10|0,2:0|2:0,2:0:0:0:
91,115,143629,2,0,P|79:150|91:184,1,75.0999977111818,2|0,1:2|2:0,2:0:0:0:
175,239,143843,1,10,2:2:0:0:
224,255,143950,1,2,2:2:0:0:
273,273,144057,5,2,1:2:0:0:
247,300,144165,1,2,2:2:0:0:
221,327,144272,1,10,2:2:0:0:
195,354,144379,37,2,2:2:0:0:
158,345,144486,1,2,1:2:0:0:
121,337,144593,1,2,2:2:0:0:
84,329,144700,6,0,B|121:314|121:314|163:325,1,75.0999977111818,10|0,2:0|2:0,2:0:0:0:
371,384,144915,6,0,B|351:349|351:349|366:227,1,150.199995422363,6|10,1:2|2:0,2:0:0:0:
422,37,145343,1,2,1:2:0:0:
461,58,145450,1,2,2:2:0:0:
476,100,145557,1,10,2:2:0:0:
469,144,145665,1,2,2:2:0:0:
432,170,145772,1,2,1:2:0:0:
279,75,145986,1,10,2:2:0:0:
194,241,146200,37,2,1:2:0:0:
141,235,146307,1,2,2:0:0:0:
88,228,146415,1,10,2:0:0:0:
36,220,146522,1,2,2:0:0:0:
0,141,146629,5,8,1:3:0:0:
143,111,146950,5,8,1:3:0:0:
279,75,147272,37,8,1:3:0:0:
422,37,147486,1,4,1:2:0:0:
422,37,147915,53,10,1:2:0:0:
430,54,147986,1,2,2:0:0:0:
435,73,148057,1,2,2:0:0:0:
438,92,148129,2,0,L|379:80,2,50.2999984741212,10|2|2,1:2|2:0|2:0,2:0:0:0:
491,169,148343,6,0,B|431:183|431:183|386:223|416:284,1,150.199995422363,6|8,1:2|2:0,2:0:0:0:
427,280,148665,1,2,2:0:0:0:
301,366,148772,2,0,L|311:216,1,150.199995422363,2|8,1:2|2:0,2:0:0:0:
248,147,149093,1,2,2:0:0:0:
248,147,149200,2,0,B|181:108|181:108|111:127,1,150.199995422363,2|10,1:2|2:0,2:0:0:0:
0,332,149629,2,0,B|67:371|67:371|136:351,1,150.199995422363,2|10,1:2|2:0,2:0:0:0:
328,216,150057,6,0,P|353:147|325:79,1,150.199995422363,2|8,1:2|2:0,2:0:0:0:
306,67,150379,1,2,2:0:0:0:
452,27,150486,2,0,B|424:63|435:107|435:107|487:165|455:263,1,225.299993133545,2|2,1:2|2:0,2:0:0:0:
359,285,150915,2,0,P|339:253|345:217,1,75.0999977111818,2|0,1:2|2:0,2:0:0:0:
480,190,151129,2,0,P|499:221|493:257,1,75.0999977111818,10|0,2:0|2:0,2:0:0:0:
224,257,151343,2,0,P|204:288|210:324,1,75.0999977111818,2|0,1:2|2:0,2:0:0:0:
345,352,151557,2,0,P|364:320|358:284,1,75.0999977111818,10|0,2:0|2:0,2:0:0:0:
274,163,151772,37,6,1:2:0:0:
255,166,151843,1,2,2:0:0:0:
235,169,151915,1,2,2:0:0:0:
215,173,151986,2,0,P|217:148|226:117,2,50.2999984741212,10|0|0,2:0|2:0|2:0,2:0:0:0:
126,224,152200,6,0,P|121:153|92:77,1,150.199995422363,2|10,1:2|2:0,2:0:0:0:
72,64,152522,1,2,2:0:0:0:
8,176,152629,2,0,P|-1:249|13:323,2,150.199995422363,2|10|2,1:2|2:0|1:2,2:0:0:0:
176,43,153272,1,10,2:0:0:0:
339,214,153486,6,0,P|410:227|460:175,1,150.199995422363,2|8,1:2|2:0,2:0:0:0:
194,34,153915,2,0,B|208:71|208:71|176:129|190:176,1,150.199995422363,2|8,1:2|2:0,2:0:0:0:
247,244,154236,1,2,2:0:0:0:
265,267,154343,1,2,1:2:0:0:
272,296,154450,1,2,2:0:0:0:
271,325,154557,1,10,2:0:0:0:
259,353,154665,1,2,2:0:0:0:
239,375,154772,53,2,1:2:0:0:
197,343,154879,1,2,2:0:0:0:
146,328,154986,1,10,2:0:0:0:
93,333,155093,1,2,2:0:0:0:
22,376,155200,21,6,1:2:0:0:
91,218,155415,38,2,P|88:180|69:148,1,75.0999977111818,10|2,2:2|2:2,2:2:0:0:
196,46,155629,2,2,P|176:77|174:115,1,75.0999977111818,2|2,1:2|2:2,2:2:0:0:
247,244,155843,2,0,P|321:217|397:214,1,150.199995422363,10|2,2:0|1:2,2:0:0:0:
264,104,156272,1,10,2:2:0:0:
485,13,156486,5,2,1:2:0:0:
486,72,156593,1,2,2:2:0:0:
487,131,156700,1,10,2:2:0:0:
489,190,156807,1,2,2:2:0:0:
490,275,156915,6,0,B|476:258|456:262|456:262|431:326|363:348,1,150.199995422363,2|8,1:2|2:0,2:0:0:0:
255,274,157236,1,2,2:0:0:0:
255,274,157343,2,0,P|265:230|305:213,1,75.0999977111818,2|0,1:2|2:0,2:0:0:0:
244,368,157557,2,0,P|200:358|183:318,1,75.0999977111818,10|0,2:0|2:0,2:0:0:0:
125,213,157772,2,0,B|141:180|128:139|128:139|172:146|180:185,1,150.199995422363,2|8,1:2|2:0,2:0:0:0:
39,311,158093,1,2,2:2:0:0:
16,271,158200,1,2,1:2:0:0:
12,226,158307,1,2,2:2:0:0:
32,185,158415,2,0,P|40:235|30:269,1,75.0999977111818,10|0,2:0|2:0,2:0:0:0:
0,384,158629,37,2,1:2:0:0:
212,208,158843,1,10,1:2:0:0:
0,39,159057,5,8,1:3:0:0:
52,82,159165,1,8,1:3:0:0:
118,92,159272,1,10,1:2:0:0:
183,77,159379,1,2,2:0:0:0:
259,25,159486,5,10,1:2:0:0:
386,0,159915,37,0,2:0:0:0:
512,80,160343,5,6,1:2:0:0:
41,166,166665,53,0,1:0:0:0:
51,86,166772,1,8,1:3:0:0:
31,247,166986,21,8,1:3:0:0:
41,166,167200,37,4,1:2:0:0:
17,86,173843,5,8,1:3:0:0:
42,82,173950,1,8,1:3:0:0:
65,78,174057,2,0,P|34:139|48:208,2,131.424995994568,6|2|2,1:2|2:0|2:0,2:0:0:0:
245,122,174915,2,0,P|206:64|140:42,2,131.424995994568,10|2|2,1:2|2:0|2:0,2:0:0:0:
117,256,175772,2,0,P|185:251|237:204,2,131.424995994568,2|2|2,1:2|2:0|2:0,2:0:0:0:
142,148,176629,1,10,1:2:0:0:
409,20,177272,5,2,2:0:0:0:
338,93,177486,37,6,1:2:0:0:
491,67,177807,1,2,2:0:0:0:
441,220,178129,1,2,2:0:0:0:
424,134,178343,5,10,1:2:0:0:
307,270,178665,1,2,2:0:0:0:
470,314,178986,1,2,2:0:0:0:
403,226,179200,5,2,1:2:0:0:
236,328,179629,53,8,1:3:0:0:
216,324,179736,1,8,1:3:0:0:
194,320,179843,1,8,2:0:0:0:
174,316,179950,1,8,1:2:0:0:
104,371,180057,53,8,1:3:0:0:
73,322,180165,1,8,2:0:0:0:
72,265,180272,1,8,2:0:0:0:
101,216,180379,1,0,1:0:0:0:
151,189,180486,1,0,1:0:0:0:
245,215,180593,6,0,P|230:173|234:128,1,87.6166639963788,8|8,1:3|1:3,2:0:0:0:
376,78,180915,6,0,P|385:151|313:167,1,162.716659228008,6|0,1:2|2:0,2:0:0:0:
177,37,181236,2,0,P|249:12|297:71,1,162.716659228008,6|0,1:2|2:0,2:0:0:0:
245,215,181557,1,6,1:2:0:0:
126,108,181772,2,0,L|63:100,1,62.5833333333334,0|8,1:0|1:2,2:0:0:0:
24,179,181986,1,8,1:3:0:0:
44,224,182093,1,8,1:2:0:0:
60,266,182200,21,8,1:2:0:0:
88,259,182272,1,8,1:2:0:0:
116,261,182343,1,8,1:3:0:0:
142,273,182415,2,0,L|134:331,2,41.9166666666667,8|8|8,1:3|1:3|1:3,2:0:0:0:
219,241,182629,22,0,P|291:267|292:343,1,162.716659228008,4|0,1:2|2:0,2:0:0:0:
410,367,182950,2,0,P|396:291|462:253,1,162.716659228008,4|0,1:2|2:0,2:0:0:0:
350,173,183272,2,0,L|279:157,2,54.4916641871136,4|0|0,1:2|1:0|1:0,2:0:0:0:
416,126,183486,5,0,1:0:0:0:
421,69,183593,1,8,1:2:0:0:
378,31,183700,1,8,1:3:0:0:
321,32,183807,1,8,2:3:0:0:
286,77,183915,1,12,2:0:0:0:
214,355,184129,1,8,1:3:0:0:
143,37,184343,1,4,1:2:0:0:
143,37,184772,38,0,P|111:27|74:30,1,68.8416687647503,8|0,1:3|2:0,2:0:0:0:
122,122,184986,2,0,P|89:129|59:150,1,68.8416687647503,8|0,1:3|2:0,2:0:0:0:
345,206,185200,2,0,P|369:183|384:149,1,68.8416687647503,8|0,1:3|2:0,2:0:0:0:
281,145,185415,2,0,P|290:113|287:76,1,68.2000020980837,8|0,1:3|2:0,2:0:0:0:
98,297,185629,2,0,P|105:329|126:359,1,68.8416687647503,8|0,1:3|2:0,2:0:0:0:
182,272,185843,2,0,P|204:296|238:311,1,68.8416687647503,8|0,1:3|2:0,2:0:0:0:
143,37,186057,1,12,1:2:0:0:
143,37,186486,6,0,L|211:42,1,68.8416687647503,8|0,1:3|2:0,2:0:0:0:
293,9,186700,2,0,L|287:77,1,68.8416687647503,10|2,1:3|2:0,2:0:0:0:
387,287,186915,2,0,L|181:271,1,206.525006294251,10|2,1:3|2:0,2:0:0:0:
318,177,187343,2,0,L|386:182,1,68.8416687647503,8|8,1:3|1:3,2:0:0:0:
468,149,187557,2,0,L|462:217,1,68.8416687647503,10|8,1:3|1:3,2:0:0:0:
468,375,187772,6,0,P|448:312|386:286,1,137.6833375295,14|0,1:2|2:0,2:0:0:0:
179,359,188093,2,0,P|242:339|268:277,1,137.6833375295,6|0,1:2|1:0,2:0:0:0:
211,137,188415,1,8,1:3:0:0:
187,96,188522,1,8,1:2:0:0:
198,76,188629,38,0,P|258:44|274:107,1,137.6833375295,14|0,1:2|2:0,2:0:0:0:
203,220,188950,2,0,L|52:202,1,137.6833375295,6|8,1:2|1:2,2:0:0:0:
47,71,189272,2,0,P|89:91|100:125,1,68.8416687647503,8|0,1:3|2:0,2:0:0:0:
70,325,189486,6,0,P|40:265|66:203,1,137.6833375295,6|0,1:2|2:0,2:0:0:0:
306,156,189807,2,0,P|268:211|202:219,1,137.6833375295,6|0,1:2|2:0,2:0:0:0:
177,0,190129,2,0,L|169:68,1,68.8416687647503,6|0,1:2|2:0,2:0:0:0:
297,281,190343,6,0,P|277:216|305:155,1,137.6833375295,6|0,1:2|2:0,2:0:0:0:
512,288,190665,2,0,P|466:337|399:343,1,137.6833375295,6|0,1:2|2:0,2:0:0:0:
409,153,190986,2,0,P|444:167|452:206,1,68.8416687647503,6|0,1:2|2:0,2:0:0:0:
313,302,191200,6,2,L|307:347,2,46.1083347320557,6|2|2,1:2|2:2|2:2,2:2:0:0:
230,326,191415,2,2,L|224:371,2,46.1083347320557,2|2|2,1:2|2:2|2:2,2:2:0:0:
176,174,191629,6,2,L|170:129,2,46.1083347320557,2|2|2,1:2|2:2|2:2,2:2:0:0:
93,150,191843,2,2,L|87:105,2,46.4291680653891,6|2|2,1:2|2:2|2:2,2:2:0:0:
7,284,192057,53,6,1:2:0:0:
39,279,192129,1,2,2:2:0:0:
70,274,192200,1,2,2:2:0:0:
101,268,192272,1,10,1:2:0:0:
132,263,192343,1,2,2:2:0:0:
164,259,192415,1,2,2:2:0:0:
195,254,192486,37,14,1:2:0:0:
244,216,192593,1,8,1:2:0:0:
263,157,192700,1,8,1:2:0:0:
248,96,192807,1,8,1:2:0:0:
199,56,192915,37,10,1:2:0:0:
218,74,192986,1,8,1:2:0:0:
244,81,193057,1,8,1:3:0:0:
271,79,193129,1,8,1:3:0:0:
255,0,193343,6,0,B|396:-10|320:145|449:163|449:163|492:97|424:35,1,412.500012588501,14|0,1:2|1:0,2:0:0:0:
271,79,194093,1,0,1:2:0:0:
258,118,194200,1,8,1:2:0:0:
262,158,194307,1,8,1:2:0:0:
284,193,194415,1,8,1:3:0:0:
449,161,194629,21,2,2:0:0:0:
490,339,195057,53,2,2:0:0:0:
319,368,195379,5,2,2:0:0:0:
319,368,195486,2,0,L|220:359,1,100.133333333333,10|2,1:3|1:2,2:0:0:0:
209,373,195807,1,8,2:0:0:0:
145,321,195915,2,0,L|153:255,1,50.0666666666667,10|0,2:0|1:0,2:0:0:0:
217,164,196129,1,10,2:0:0:0:
172,158,196236,1,0,2:0:0:0:
127,151,196343,21,10,1:3:0:0:
109,160,196415,1,8,1:3:0:0:
90,168,196486,1,8,1:3:0:0:
72,176,196557,1,8,1:3:0:0:
54,70,196772,22,0,B|67:45|92:40|92:40|148:78|219:60,1,175.233327992758,14|0,1:2|2:0,2:0:0:0:
228,75,197093,1,2,2:0:0:0:
340,41,197200,2,0,L|320:215,1,175.233327992758,6|0,1:2|2:0,2:0:0:0:
341,229,197486,6,0,P|386:200|455:208,1,117.366663106283,6|0,1:2|2:0,2:0:0:0:
223,342,197772,2,0,P|177:370|108:362,1,117.366663106283,6|0,1:2|2:0,2:0:0:0:
5,246,198057,21,10,1:3:0:0:
100,145,198200,1,8,1:2:0:0:
234,183,198343,1,8,1:3:0:0:
229,197,198486,53,10,1:3:0:0:
103,161,198629,1,8,1:3:0:0:
16,256,198772,1,8,1:2:0:0:
31,270,198915,5,2,1:2:0:0:
107,180,199057,1,8,1:2:0:0:
223,212,199200,1,8,1:3:0:0:
136,289,199343,53,14,1:2:0:0:
78,48,199772,5,6,1:2:0:0:
78,48,200200,21,8,1:3:0:0:
165,69,200415,1,8,1:3:0:0:
132,265,200629,5,8,1:3:0:0:
106,179,200843,1,8,1:3:0:0:
292,109,201057,53,8,1:3:0:0:
231,175,201272,1,8,1:3:0:0:
401,336,201486,53,12,1:2:0:0:
428,223,201700,1,8,1:3:0:0:
317,196,201915,1,8,1:3:0:0:
286,309,202129,1,8,1:3:0:0:
428,223,202343,5,8,1:3:0:0:
319,87,202557,1,8,1:3:0:0:
186,178,202772,1,8,1:3:0:0:
286,309,202986,1,8,1:3:0:0:
445,111,203200,5,12,1:2:0:0:
206,37,203415,1,8,1:3:0:0:
329,210,203629,1,8,1:3:0:0:
103,285,203843,1,8,1:3:0:0:
309,93,204057,37,8,1:3:0:0:
189,363,204272,1,8,1:3:0:0:
118,155,204486,1,8,1:3:0:0:
386,302,204700,1,8,1:3:0:0:
491,204,204915,38,0,L|501:146,3,58.4111093309191,14|0|0|0,1:2|1:0|1:0|1:0,2:0:0:0:
457,57,205236,21,14,1:2:0:0:
414,48,205343,1,0,1:0:0:0:
370,40,205450,1,0,1:0:0:0:
309,93,205557,5,14,1:2:0:0:
266,102,205665,1,0,1:0:0:0:
197,63,205772,5,6,1:2:0:0:
77,9,206200,21,10,1:2:0:0:
53,26,206272,1,2,2:0:0:0:
32,46,206343,1,2,2:0:0:0:
19,72,206415,1,10,1:2:0:0:
11,99,206486,1,2,2:0:0:0:
9,127,206557,1,2,2:0:0:0:
11,155,206629,6,0,P|34:226|28:301,1,150.199995422363,6|8,1:2|2:0,2:0:0:0:
8,323,206950,1,0,2:0:0:0:
138,243,207057,2,0,B|276:255|186:358|358:391,1,225.299993133545,2|2,1:2|2:0,2:0:0:0:
424,343,207486,6,0,L|437:193,1,150.199995422363,2|8,1:2|2:0,2:0:0:0:
219,20,207915,2,0,L|232:170,1,150.199995422363,2|10,1:2|2:0,2:0:0:0:
26,331,208343,6,0,P|0:267|60:235,1,150.199995422363,2|8,1:2|2:0,2:0:0:0:
78,252,208665,1,2,2:0:0:0:
179,355,208772,2,0,B|202:335|236:334|236:334|305:395|400:352,1,225.299993133545,2|2,1:2|2:0,2:0:0:0:
462,286,209200,1,2,1:2:0:0:
386,58,209415,1,10,2:0:0:0:
193,114,209629,1,2,1:2:0:0:
235,255,209843,1,10,2:0:0:0:
316,216,210057,21,6,1:2:0:0:
335,211,210129,1,2,2:0:0:0:
354,209,210200,1,2,2:0:0:0:
374,210,210272,2,0,P|372:181|361:155,2,50.2999984741212,10|0|0,2:0|2:0|2:0,2:0:0:0:
475,175,210486,6,0,P|451:246|451:320,1,150.199995422363,2|10,1:2|2:0,2:0:0:0:
470,334,210807,1,2,2:0:0:0:
363,361,210915,6,0,P|326:347|288:353,1,75.0999977111818,2|0,1:2|2:0,2:0:0:0:
208,316,211129,2,0,P|171:332|149:363,1,75.0999977111818,10|0,2:0|2:0,2:0:0:0:
282,170,211343,2,0,P|245:184|207:177,1,75.0999977111818,2|0,1:2|2:0,2:0:0:0:
127,215,211557,2,0,P|90:198|68:167,1,75.0999977111818,10|0,2:0|2:0,2:0:0:0:
143,24,211772,6,0,B|233:30|233:30|264:62|264:62|377:74,1,225.299993133545,2|0,1:2|2:0,2:0:0:0:
439,29,212200,2,0,P|378:69|367:141,1,150.199995422363,2|8,1:2|2:0,2:0:0:0:
433,212,212522,1,2,2:2:0:0:
433,212,212629,37,2,1:2:0:0:
457,274,212736,1,2,2:2:0:0:
430,336,212843,1,10,2:2:0:0:
371,369,212950,1,2,2:2:0:0:
306,348,213057,1,2,1:2:0:0:
268,290,213165,1,2,2:2:0:0:
209,257,213272,1,10,2:2:0:0:
143,273,213379,1,2,2:2:0:0:
89,344,213486,5,6,1:2:0:0:
29,131,213700,5,10,2:2:0:0:
80,138,213807,1,2,2:2:0:0:
132,145,213915,1,2,1:2:0:0:
183,151,214022,1,2,2:2:0:0:
234,160,214129,1,10,2:2:0:0:
285,169,214236,1,2,2:2:0:0:
356,117,214343,37,2,1:2:0:0:
170,25,214557,1,10,2:2:0:0:
43,270,214772,5,2,1:2:0:0:
86,330,214879,1,2,2:2:0:0:
156,354,214986,1,10,2:2:0:0:
230,347,215093,1,2,2:2:0:0:
314,296,215200,6,0,L|306:376,1,75.0999977111818,2|0,1:2|2:0,2:0:0:0:
190,183,215415,2,0,L|182:103,1,75.0999977111818,8|0,2:0|2:0,2:0:0:0:
311,49,215629,37,2,1:2:0:0:
385,42,215736,1,2,2:2:0:0:
431,101,215843,1,10,2:2:0:0:
410,172,215950,1,2,2:2:0:0:
339,197,216057,2,0,L|188:182,1,150.199995422363,2|8,1:2|2:0,2:0:0:0:
124,247,216379,1,2,2:2:0:0:
124,247,216486,1,2,1:2:0:0:
0,0,216700,5,10,2:0:0:0:
0,0,216807,1,2,2:0:0:0:
0,0,216915,2,0,P|20:46|16:89,1,75.0999977111818,6|0,1:2|2:0,2:0:0:0:
108,134,217129,2,0,P|88:165|57:186,1,75.0999977111818,10|0,2:0|2:0,2:0:0:0:
222,52,217343,5,2,1:2:0:0:
272,36,217450,1,2,2:2:0:0:
323,45,217557,1,10,2:2:0:0:
365,76,217665,1,2,2:2:0:0:
282,131,217772,37,2,1:2:0:0:
446,235,217986,5,10,2:2:0:0:
391,210,218093,1,2,2:2:0:0:
332,221,218200,1,2,1:2:0:0:
292,266,218307,1,2,2:2:0:0:
234,284,218415,1,10,2:2:0:0:
178,262,218522,1,2,2:2:0:0:
234,195,218629,5,6,1:2:0:0:
375,374,218843,38,0,L|382:293,1,75.0999977111818,8|0,0:2|2:0,2:0:0:0:
487,124,219057,5,2,1:2:0:0:
427,115,219165,1,2,2:2:0:0:
368,102,219272,1,10,2:2:0:0:
308,92,219379,1,2,2:2:0:0:
250,30,219486,5,2,1:2:0:0:
175,40,219593,1,2,2:2:0:0:
102,58,219700,1,10,2:2:0:0:
29,77,219807,1,2,2:2:0:0:
73,146,219915,37,2,1:2:0:0:
71,175,220022,1,2,2:2:0:0:
69,204,220129,1,10,2:2:0:0:
67,233,220236,1,2,2:2:0:0:
64,262,220343,6,0,P|47:294|13:308,1,75.0999977111818,2|0,1:2|2:0,2:0:0:0:
161,196,220557,2,0,P|197:194|227:217,1,75.0999977111818,10|8,1:2|1:2,2:0:0:0:
271,333,220772,1,8,1:3:0:0:
316,358,220879,1,8,1:3:0:0:
368,358,220986,1,10,1:2:0:0:
414,333,221093,1,2,2:0:0:0:
435,285,221200,38,0,L|426:225,2,50.2999984741212,10|0|0,1:2|1:0|1:0,2:0:0:0:
471,161,221415,1,2,1:2:0:0:
471,161,221486,1,2,2:0:0:0:
471,161,221557,1,2,2:0:0:0:
471,161,221629,2,0,B|312:121|391:307|166:276,1,300.4,6|0,1:2|2:0,2:0:0:0:
62,122,222057,38,0,P|124:99|142:163,1,125.166666666667,6|0,1:2|2:0,2:0:0:0:
51,254,222379,2,0,P|48:206|32:130,1,125.166666666667,6|8,1:2|2:0,2:0:0:0:
145,231,222700,2,0,P|132:259|129:290,1,62.5833333333334,8|8,1:3|1:2,2:0:0:0:
223,374,222915,2,0,L|346:354,1,125.166666666667,6|0,1:2|2:0,2:0:0:0:
423,275,223236,2,0,P|426:217|370:207,1,125.166666666667,6|8,1:2|1:2,2:0:0:0:
288,278,223557,37,8,1:3:0:0:
288,278,223665,1,8,1:2:0:0:
288,278,223772,2,0,P|260:222|271:159,1,125.166666666667,6|0,1:2|2:0,2:0:0:0:
431,25,224093,2,0,P|396:76|336:99,1,125.166666666667,6|8,1:2|2:0,2:0:0:0:
135,23,224415,2,0,P|163:12|192:22,1,62.5833333333334,8|8,1:3|1:2,2:0:0:0:
29,295,224629,6,0,L|10:171,1,125.166666666667,6|0,1:2|2:0,2:0:0:0:
51,100,224950,1,6,1:2:0:0:
51,100,225057,37,8,2:0:0:0:
157,130,225200,1,0,1:0:0:0:
269,162,225343,1,8,1:2:0:0:
394,200,225486,6,0,P|442:163|445:102,1,125.166666666667,6|0,1:2|2:0,2:0:0:0:
269,162,225807,2,0,P|276:222|327:255,1,125.166666666667,6|8,1:2|1:2,2:0:0:0:
335,106,226129,1,8,1:3:0:0:
315,22,226236,1,8,1:3:0:0:
250,76,226343,1,6,1:2:0:0:
68,74,228700,53,2,2:0:0:0:
88,71,228772,1,2,2:0:0:0:
108,68,228843,1,2,2:0:0:0:
128,65,228915,1,2,2:0:0:0:
157,91,228986,1,6,2:0:0:0:
256,192,229057,12,0,237486,2:0:0:0:
