osu file format v14

[General]
AudioFilename: audio.mp3
AudioLeadIn: 0
PreviewTime: 57272
Countdown: 0
SampleSet: Soft
StackLeniency: 0.2
Mode: 0
LetterboxInBreaks: 0
WidescreenStoryboard: 1

[Editor]
Bookmarks: 6236,13156,26870,40584,47441,50870,57727,63700,71441,86870,90236,104013,117727,124584,128013,134870,148584,160584,174236,181156,184584,193156,206870,222236
DistanceSpacing: 0.6
BeatDivisor: 4
GridSize: 8
TimelineZoom: 2.599999

[Metadata]
Title:I wanna be a girl
TitleUnicode:女の子になりたい
Artist:mafumafu
ArtistUnicode:まふまふ
Creator:Night Mare
Version:TheBlank's Insane
Source:
Tags:Onnanoko Onna No Ko Ni Naritai luna want to utaite japanese male vocals jpop j-pop Tanaka Hidekazu 神楽色アーティファクト Kagurairo Artifact MONACA papple104 zelq TheBlank 田中秀和 pop pappl_e_104
BeatmapID:2397393
BeatmapSetID:1069248

[Difficulty]
HPDrainRate:5
CircleSize:3.3
OverallDifficulty:8
ApproachRate:8.7
SliderMultiplier:1.8
SliderTickRate:2

[Events]
//Background and Video events
0,0,"image.jpg",0,0
Video,-200,"video.mp4"
//Break Periods
2,160543,172770
//Storyboard Layer 0 (Background)
//Storyboard Layer 1 (Fail)
//Storyboard Layer 2 (Pass)
//Storyboard Layer 3 (Foreground)
//Storyboard Layer 4 (Overlay)
//Storyboard Sound Samples

[TimingPoints]
915,428.571428571429,4,2,1,50,1,0
6057,-83.3333333333333,4,2,2,75,0,0
6378,-83.3333333333333,4,2,1,75,0,0
6915,-83.3333333333333,4,2,2,75,0,0
7236,-83.3333333333333,4,2,1,75,0,0
7772,-83.3333333333333,4,2,2,75,0,0
8093,-83.3333333333333,4,2,1,75,0,0
8629,-83.3333333333333,4,2,2,75,0,0
8950,-83.3333333333333,4,2,1,75,0,0
9486,-83.3333333333333,4,2,2,75,0,0
9807,-83.3333333333333,4,2,1,75,0,0
10343,-83.3333333333333,4,2,2,75,0,0
10664,-83.3333333333333,4,2,1,75,0,0
11200,-71.4285714285714,4,2,2,75,0,0
11521,-71.4285714285714,4,2,1,75,0,0
11842,-71.4285714285714,4,2,1,75,0,0
12272,-100,4,2,1,75,0,0
12379,-100,4,2,1,72,0,0
12486,-100,4,2,1,69,0,0
12593,-100,4,2,1,66,0,0
12700,-100,4,2,1,63,0,0
12807,-100,4,2,1,60,0,0
12915,-100,4,2,2,60,0,0
17200,-100,4,2,2,60,0,0
18699,-100,4,2,2,60,0,0
20414,-100,4,2,2,60,0,0
22128,-100,4,2,2,60,0,0
23842,-100,4,2,2,60,0,0
24485,-100,4,2,2,60,0,0
26629,-100,4,2,1,60,0,0
27271,-100,4,2,1,60,0,0
30700,-100,4,2,1,60,0,0
32414,-100,4,2,1,60,0,0
34128,-100,4,2,1,60,0,0
34986,-100,4,2,2,60,0,0
35200,-83.3333333333333,4,2,2,65,0,0
35629,-83.3333333333333,4,2,1,65,0,0
36057,-83.3333333333333,4,2,2,65,0,0
36915,-100,4,2,2,60,0,0
37557,-100,4,2,2,60,0,0
39486,-83.3333333333333,4,2,2,60,0,0
39915,-83.3333333333333,4,2,1,60,0,0
40343,-83.3333333333333,4,2,2,50,0,0
42057,-100,4,2,2,50,0,0
42915,-83.3333333333333,4,2,2,50,0,0
44200,-100,4,2,2,50,0,0
46986,-100,4,2,1,50,0,0
47200,-76.9230769230769,4,2,2,65,0,0
47521,-76.9230769230769,4,2,1,65,0,0
48379,-100,4,2,1,65,0,0
48915,-76.9230769230769,4,2,2,65,0,0
49236,-76.9230769230769,4,2,1,65,0,0
50629,-76.9230769230769,4,2,2,65,0,0
51057,-76.9230769230769,4,2,1,55,0,0
51271,-76.9230769230769,4,2,1,57,0,0
51486,-76.9230769230769,4,2,1,59,0,0
51700,-76.9230769230769,4,2,1,61,0,0
51915,-76.9230769230769,4,2,1,63,0,0
52129,-76.9230769230769,4,2,1,65,0,0
52343,-76.9230769230769,4,2,1,70,0,0
52557,-76.9230769230769,4,2,1,65,0,0
52986,-76.9230769230769,4,2,1,67,0,0
53415,-76.9230769230769,4,2,1,69,0,0
54057,-66.6666666666667,4,2,2,75,0,0
54165,-66.6666666666667,4,2,2,75,0,0
54379,-66.6666666666667,4,2,1,75,0,0
54486,-66.6666666666667,4,2,1,75,0,0
54700,-66.6666666666667,4,2,1,75,0,0
54915,-66.6666666666667,4,2,2,75,0,0
55022,-66.6666666666667,4,2,2,75,0,0
55236,-66.6666666666667,4,2,1,75,0,0
55343,-66.6666666666667,4,2,1,75,0,0
55557,-66.6666666666667,4,2,1,75,0,0
55772,-58.8235294117647,4,2,2,75,0,0
55879,-58.8235294117647,4,2,2,75,0,0
56093,-58.8235294117647,4,2,2,75,0,0
56200,-58.8235294117647,4,2,2,75,0,0
56415,-58.8235294117647,4,2,1,75,0,0
56522,-58.8235294117647,4,2,1,75,0,0
56629,-58.8235294117647,4,2,1,75,0,0
56736,-58.8235294117647,4,2,1,75,0,0
57057,-58.8235294117647,4,2,2,75,0,0
57486,-71.4285714285714,4,2,3,85,0,1
57700,-71.4285714285714,4,2,1,85,0,1
59629,-71.4285714285714,4,2,1,85,0,1
67772,-62.5,4,2,1,85,0,1
69486,-62.5,4,2,1,85,0,0
70343,-62.5,4,2,2,85,0,0
70772,-62.5,4,2,2,85,0,1
70825,-62.5,4,2,2,85,0,0
71200,-62.5,4,2,3,85,0,1
71414,-62.5,4,2,1,85,0,1
72486,-62.5,4,2,1,85,0,1
73343,-62.5,4,2,1,85,0,1
76343,-62.5,4,2,1,85,0,1
78486,-76.9230769230769,4,2,1,85,0,1
78915,-62.5,4,2,1,85,0,1
80200,-76.9230769230769,4,2,1,85,0,1
80629,-55.5555555555556,4,2,1,85,0,1
81057,-71.4285714285714,4,2,1,85,0,1
85343,-52.6315789473684,4,2,1,85,0,1
85825,-52.6315789473684,4,2,1,5,0,0
86629,-58.8235294117647,4,2,2,75,0,0
86950,-58.8235294117647,4,2,1,75,0,0
87272,-58.8235294117647,4,2,1,75,0,0
87486,-58.8235294117647,4,2,2,75,0,0
87807,-58.8235294117647,4,2,1,75,0,0
88343,-58.8235294117647,4,2,2,75,0,0
88664,-58.8235294117647,4,2,1,75,0,0
88985,-58.8235294117647,4,2,1,75,0,0
89522,-58.8235294117647,4,2,1,72,0,0
89629,-58.8235294117647,4,2,1,69,0,0
89736,-58.8235294117647,4,2,1,66,0,0
89843,-58.8235294117647,4,2,1,63,0,0
89950,-58.8235294117647,4,2,1,60,0,0
90057,-181.818181818182,4,2,2,60,0,0
91557,-66.6666666666667,4,2,1,60,0,0
91772,-100,4,2,1,60,0,0
95842,-100,4,2,1,60,0,0
97557,-100,4,2,1,60,0,0
99271,-100,4,2,1,60,0,0
100985,-100,4,2,1,60,0,0
101629,-100,4,2,1,60,0,0
102057,-100,4,2,1,60,0,0
102272,-83.3333333333333,4,2,1,60,0,0
103129,-66.6666666666667,4,2,1,60,0,0
103772,-100,4,2,2,60,0,0
107200,-100,4,2,2,60,0,0
109557,-100,4,2,2,60,0,0
110629,-100,4,2,1,60,0,0
111271,-100,4,2,2,60,0,0
111915,-100,4,2,1,60,0,0
112343,-76.9230769230769,4,2,2,65,0,0
112772,-90.9090909090909,4,2,1,65,0,0
114057,-90.9090909090909,4,2,2,60,0,0
114699,-90.9090909090909,4,2,2,60,0,0
115557,-90.9090909090909,4,2,2,60,0,0
117057,-90.9090909090909,4,2,1,60,0,0
117486,-90.9090909090909,4,2,2,50,0,0
124129,-90.9090909090909,4,2,1,50,0,0
124343,-76.9230769230769,4,2,2,65,0,0
124664,-76.9230769230769,4,2,1,65,0,0
124985,-76.9230769230769,4,2,1,65,0,0
125415,-90.9090909090909,4,2,1,50,0,0
126057,-76.9230769230769,4,2,2,65,0,0
126378,-76.9230769230769,4,2,1,65,0,0
126699,-76.9230769230769,4,2,1,65,0,0
126915,-90.9090909090909,4,2,1,65,0,0
127772,-76.9230769230769,4,2,2,65,0,0
128200,-76.9230769230769,4,2,1,55,0,0
128629,-90.9090909090909,4,2,1,55,0,0
128843,-90.9090909090909,4,2,1,61,0,0
129057,-90.9090909090909,4,2,1,63,0,0
129486,-90.9090909090909,4,2,1,70,0,0
129700,-90.9090909090909,4,2,1,65,0,0
130129,-90.9090909090909,4,2,1,67,0,0
130557,-90.9090909090909,4,2,1,69,0,0
131200,-66.6666666666667,4,2,2,75,0,0
131307,-66.6666666666667,4,2,2,75,0,0
131522,-66.6666666666667,4,2,1,75,0,0
131629,-66.6666666666667,4,2,1,75,0,0
132057,-66.6666666666667,4,2,2,75,0,0
132165,-66.6666666666667,4,2,2,75,0,0
132379,-66.6666666666667,4,2,1,75,0,0
132486,-66.6666666666667,4,2,1,75,0,0
132915,-66.6666666666667,4,2,2,75,0,0
133022,-66.6666666666667,4,2,2,75,0,0
133236,-66.6666666666667,4,2,2,75,0,0
133343,-66.6666666666667,4,2,2,75,0,0
133557,-66.6666666666667,4,2,1,75,0,0
133665,-66.6666666666667,4,2,1,75,0,0
133772,-66.6666666666667,4,2,1,75,0,0
133879,-66.6666666666667,4,2,1,75,0,0
134200,-66.6666666666667,4,2,2,75,0,0
134629,-76.9230769230769,4,2,3,85,0,1
134843,-76.9230769230769,4,2,1,85,0,1
136772,-76.9230769230769,4,2,1,85,0,1
141486,-62.5,4,2,1,85,0,1
141915,-76.9230769230769,4,2,1,85,0,1
142772,-76.9230769230769,4,2,1,85,0,1
144915,-62.5,4,2,1,85,0,1
145343,-76.9230769230769,4,2,1,85,0,1
146629,-76.9230769230769,4,2,1,85,0,0
147486,-76.9230769230769,4,2,2,85,0,0
147915,-76.9230769230769,4,2,2,85,0,1
147968,-76.9230769230769,4,2,2,85,0,0
148343,-76.9230769230769,4,2,3,85,0,1
148557,-76.9230769230769,4,2,1,85,0,1
150486,-76.9230769230769,4,2,1,85,0,1
153915,-76.9230769230769,4,2,1,85,0,1
156057,-58.8235294117647,4,2,1,85,0,1
156915,-71.4285714285714,4,2,1,85,0,1
157772,-62.5,4,2,1,85,0,1
158415,-71.4285714285714,4,2,1,85,0,1
159111,-76.9230769230769,4,2,1,85,0,1
159165,-76.9230769230769,4,2,1,85,0,1
159218,-76.9230769230769,4,2,1,85,0,1
159272,-76.9230769230769,4,2,1,85,0,1
159325,-76.9230769230769,4,2,1,85,0,1
159379,-76.9230769230769,4,2,1,85,0,1
159432,-76.9230769230769,4,2,1,85,0,1
159486,-76.9230769230769,4,2,1,85,0,1
159540,-76.9230769230769,4,2,1,5,0,0
160343,-76.9230769230769,4,2,2,70,0,0
173415,-76.9230769230769,4,2,2,60,0,0
173843,-76.9230769230769,4,2,1,60,0,0
174057,-100,4,2,2,60,0,0
176629,-200,4,2,2,60,0,0
177486,-100,4,2,2,60,0,0
180057,-100,4,2,1,60,0,0
180915,-71.4285714285714,4,2,2,70,0,0
181129,-71.4285714285714,4,2,99,70,0,0
181236,-71.4285714285714,4,2,1,70,0,0
181450,-71.4285714285714,4,2,99,70,0,0
181557,-71.4285714285714,4,2,1,70,0,0
182200,-100,4,2,1,70,0,0
182629,-66.6666666666667,4,2,2,70,0,0
182843,-66.6666666666667,4,2,99,70,0,0
182950,-66.6666666666667,4,2,1,70,0,0
183164,-66.6666666666667,4,2,99,70,0,0
183271,-66.6666666666667,4,2,1,70,0,0
184343,-100,4,2,2,70,0,0
184772,-100,4,2,1,55,0,0
185415,-100,4,2,1,61,0,0
185629,-100,4,2,1,63,0,0
186057,-76.9230769230769,4,2,1,70,0,0
186272,-76.9230769230769,4,2,1,65,0,0
186700,-76.9230769230769,4,2,1,67,0,0
187129,-76.9230769230769,4,2,1,69,0,0
187772,-58.8235294117647,4,2,2,75,0,0
187879,-58.8235294117647,4,2,2,75,0,0
188093,-58.8235294117647,4,2,1,75,0,0
188200,-58.8235294117647,4,2,1,75,0,0
188415,-76.9230769230769,4,2,1,75,0,0
188629,-58.8235294117647,4,2,2,75,0,0
188736,-58.8235294117647,4,2,2,75,0,0
188950,-58.8235294117647,4,2,1,75,0,0
189057,-58.8235294117647,4,2,1,75,0,0
189272,-76.9230769230769,4,2,1,75,0,0
189486,-76.9230769230769,4,2,2,75,0,0
189593,-76.9230769230769,4,2,2,75,0,0
189807,-76.9230769230769,4,2,1,75,0,0
189915,-76.9230769230769,4,2,1,75,0,0
190129,-76.9230769230769,4,2,1,75,0,0
190237,-76.9230769230769,4,2,1,75,0,0
190343,-76.9230769230769,4,2,2,75,0,0
190450,-76.9230769230769,4,2,2,75,0,0
190665,-76.9230769230769,4,2,1,75,0,0
190772,-76.9230769230769,4,2,1,75,0,0
190986,-76.9230769230769,4,2,1,75,0,0
191093,-76.9230769230769,4,2,1,75,0,0
191200,-76.9230769230769,4,2,2,75,0,0
191307,-76.9230769230769,4,2,2,75,0,0
191522,-76.9230769230769,4,2,2,75,0,0
191629,-76.9230769230769,4,2,2,75,0,0
191843,-76.9230769230769,4,2,1,75,0,0
191950,-76.9230769230769,4,2,1,75,0,0
192057,-333.333333333333,4,2,1,75,0,0
192165,-333.333333333333,4,2,1,75,0,0
192486,-333.333333333333,4,2,2,75,0,0
192915,-100,4,2,2,75,0,0
193022,-100,4,2,1,75,0,0
193343,-100,4,2,2,75,0,0
193985,-100,4,2,2,60,0,0
194415,-100,4,2,1,60,0,0
195486,-333.333333333333,4,2,1,50,0,0
196343,-100,4,2,1,50,0,0
196772,-76.9230769230769,4,2,2,80,0,0
197200,-76.9230769230769,4,2,1,80,0,0
199343,-333.333333333333,4,2,2,80,0,0
199772,-100,4,2,2,60,0,0
200200,-100,4,2,1,60,0,0
201486,-100,4,2,1,65,0,0
203200,-83.3333333333333,4,2,1,70,0,0
204915,-83.3333333333333,4,2,4,75,0,0
205557,-83.3333333333333,4,2,4,75,0,0
205772,-66.6666666666667,4,2,2,75,0,0
206200,-66.6666666666667,4,2,2,75,0,1
206254,-66.6666666666667,4,2,2,75,0,0
206629,-76.9230769230769,4,2,3,85,0,1
206843,-76.9230769230769,4,2,1,85,0,1
207915,-76.9230769230769,4,2,1,85,0,1
208772,-76.9230769230769,4,2,1,85,0,1
212200,-76.9230769230769,4,2,1,85,0,1
214343,-62.5,4,2,1,85,0,1
215629,-76.9230769230769,4,2,1,85,0,1
216057,-55.5555555555556,4,2,1,85,0,1
216486,-76.9230769230769,4,2,1,85,0,1
216915,-62.5,4,2,1,85,0,1
217772,-76.9230769230769,4,2,1,85,0,1
219057,-76.9230769230769,4,2,1,85,0,1
221200,-76.9230769230769,4,2,1,85,0,0
221629,-62.5,4,2,2,85,0,1
222057,-62.5,4,2,2,80,0,0
222165,-62.5,4,2,2,80,0,0
222379,-62.5,4,2,1,80,0,0
222486,-62.5,4,2,1,80,0,0
222915,-62.5,4,2,2,80,0,0
223022,-62.5,4,2,2,80,0,0
223236,-62.5,4,2,1,80,0,0
223343,-62.5,4,2,1,80,0,0
223772,-62.5,4,2,2,80,0,0
223879,-62.5,4,2,2,80,0,0
224093,-62.5,4,2,1,80,0,0
224200,-62.5,4,2,1,80,0,0
224629,-62.5,4,2,2,80,0,0
224736,-62.5,4,2,2,80,0,0
224950,-62.5,4,2,1,80,0,0
225057,-62.5,4,2,1,80,0,0
225486,-62.5,4,2,2,80,0,0
225593,-62.5,4,2,2,80,0,0
225807,-62.5,4,2,1,80,0,0
225915,-62.5,4,2,1,80,0,0
226129,-100,4,2,1,80,0,0
226343,-285.714285714284,4,2,2,80,0,0
226450,-285.714285714284,4,2,2,5,0,0
228700,-285.714285714284,4,2,2,50,0,0
228985,-285.714285714284,4,2,3,60,0,0
230629,-285.714285714284,4,2,3,50,0,0
232343,-285.714285714284,4,2,3,40,0,0
234057,-285.714285714284,4,2,3,30,0,0
235772,-285.714285714284,4,2,3,20,0,0
237486,-285.714285714284,4,2,99,5,0,0

[Colours]
Combo1 : 255,0,255
Combo2 : 255,191,191
Combo3 : 222,191,255
Combo4 : 223,223,223
Combo5 : 255,113,255

[HitObjects]
0,0,915,5,2,2:0:0:0:
0,0,1557,2,0,P|31:38|31:96,2,90.1200000000001,0|2|0,2:0|2:0|2:0,0:0:0:0:
132,88,2200,2,0,P|149:42|199:13,1,90.1200000000001,0|0,2:0|2:0,0:0:0:0:
322,0,2629,6,0,B|311:54|347:96|370:67|400:104|398:167,1,180.24,2|0,2:0|2:0,0:0:0:0:
397,151,3272,1,0,2:0:0:0:
483,306,3486,2,0,P|441:253|423:340,1,180.24,2|0,2:0|0:0,0:0:0:0:
404,326,4129,1,0,2:0:0:0:
311,259,4343,6,0,P|251:259|212:289,1,90.1200000000001,2|0,2:0|2:0,0:0:0:0:
150,360,4772,2,0,P|109:378|65:374,1,90.1200000000001,0|0,2:0|2:0,0:0:0:0:
65,374,5200,37,2,2:0:0:0:
128,223,5629,5,4,2:0:0:0:
0,0,6057,6,0,P|38:31|166:20,1,162.215995056153,6|6,1:2|1:2,2:0:0:0:
146,32,6700,37,0,1:0:0:0:
161,26,6807,1,0,1:0:0:0:
176,22,6915,2,0,P|255:25|315:77,1,162.215995056153,6|6,1:2|1:2,2:0:0:0:
446,0,7450,5,8,1:2:0:0:
437,10,7557,2,0,P|425:34|421:60,1,54.0719983520509,8|0,1:3|0:0,0:0:0:0:
454,254,7772,6,0,B|490:232|490:232|505:113,1,162.215995056153,6|6,1:2|1:2,2:0:0:0:
512,60,8200,2,0,L|504:129,1,54.0719983520509,0|0,1:0|1:0,0:0:0:0:
380,136,8415,2,0,L|388:205,1,54.0719983520509,8|8,1:2|1:2,0:0:0:0:
393,363,8629,38,0,B|443:334|443:334|465:288|465:288|512:262,1,162.215995056153,6|6,2:0|1:2,2:0:0:0:
378,374,9165,5,8,1:2:0:0:
362,383,9272,2,0,L|308:295,1,54.0719983520509,8|0,1:3|0:0,0:0:0:0:
246,216,9486,6,0,B|226:237|195:244|195:244|145:240|145:240|115:247|99:268,1,162.215995056153,6|6,1:2|1:2,2:0:0:0:
105,381,10022,1,8,1:2:0:0:
123,370,10129,2,0,L|210:320,1,54.0719983520509,8|0,1:3|0:0,0:0:0:0:
7,239,10343,38,0,B|-14:201|2:152|26:175|46:125|27:85,1,162.215995056153,6|6,1:2|1:2,2:0:0:0:
149,6,10879,5,8,1:2:0:0:
155,21,10986,2,0,P|173:40|197:52,1,54.0719983520509,8|0,1:3|0:0,0:0:0:0:
368,0,11200,6,0,B|376:86|376:86|383:91|383:91|395:206,2,189.251994232178,6|6|6,1:2|1:2|1:2,2:0:0:0:
368,0,12057,1,6,1:2:0:0:
425,138,12272,2,0,L|428:182,1,45.06,8|8,2:0|2:0,0:0:0:0:
359,316,12486,1,8,2:0:0:0:
375,286,12593,1,8,2:0:0:0:
405,273,12700,1,8,2:0:0:0:
437,279,12807,1,8,2:0:0:0:
459,304,12915,38,0,B|466:338|466:338|485:356|485:356|490:385,1,90.1200000000001,4|10,1:2|2:0,0:0:0:0:
359,316,13343,2,0,P|311:307|259:336,1,90.1200000000001,2|10,1:2|2:0,2:0:0:0:
181,369,13772,2,0,P|139:384|95:374,1,90.1200000000001,2|10,1:2|2:0,2:0:0:0:
54,226,14200,1,2,1:2:0:0:
0,318,14415,1,10,2:0:0:0:
156,192,14629,6,0,B|179:214|179:214|185:285,2,90.1200000000001,2|10|2,1:2|2:0|1:2,2:0:0:0:
8,108,15272,1,10,2:0:0:0:
18,124,15379,2,0,P|76:132|115:104,1,90.1200000000001,2|0,2:0|0:0,0:0:0:0:
129,81,15700,2,0,B|171:74|171:74|175:76|175:76|238:67,2,90.1200000000001,8|0|8,2:0|1:0|2:0,0:0:0:0:
256,192,16343,5,0,1:0:0:0:
222,98,16557,1,10,2:0:0:0:
382,196,16772,2,0,P|457:196|479:177,1,90.1200000000001,2|8,1:2|0:0,2:0:0:0:
466,189,17093,1,2,2:0:0:0:
466,189,17200,2,0,P|428:253|433:282,1,90.1200000000001,2|10,1:2|2:0,0:0:0:0:
512,363,17629,1,2,1:2:0:0:
436,288,17843,1,10,2:0:0:0:
264,369,18057,38,0,B|205:361|205:361|188:368|188:368|129:359,2,135.18,2|2|10,1:2|2:0|2:0,2:0:0:0:
325,270,18915,1,2,1:2:0:0:
141,242,19129,2,0,L|229:256,2,90.1200000000001,8|0|10,2:0|1:0|2:0,0:0:0:0:
19,93,19772,6,0,B|5:130|21:168|37:147|51:190|37:223,2,135.18,2|2|10,1:2|2:0|2:0,2:0:0:0:
25,325,20629,1,2,1:2:0:0:
229,256,20843,2,0,L|140:241,2,90.1200000000001,8|0|10,0:2|1:0|2:0,0:0:0:0:
379,136,21486,6,0,B|391:105|377:62|361:83|345:45|359:8,2,135.18,2|2|10,1:2|2:0|2:0,2:0:0:0:
325,270,22343,1,2,1:2:0:0:
479,278,22557,2,0,P|457:239|415:227,2,90.1200000000001,8|0|10,0:2|1:2|2:0,0:0:0:0:
283,229,23200,38,0,B|276:285|276:285|289:302|289:302|283:357,2,135.18,2|2|10,1:2|2:0|2:0,2:0:0:0:
119,370,24057,2,0,B|63:377|63:377|9:325|51:233,1,180.24,2|2,1:2|1:2,2:0:0:0:
145,367,24700,1,8,0:2:0:0:
39,262,24915,6,0,P|48:201|33:168,2,90.1200000000001,2|8|0,1:2|2:0|1:0,0:0:0:0:
121,147,25557,1,10,2:0:0:0:
120,147,25665,2,0,P|134:129|152:115,1,45.06,0|2,1:0|1:2,0:0:0:0:
180,21,25879,1,0,1:0:0:0:
179,21,25986,2,0,P|201:23|222:32,1,45.48,8|0,2:0|0:0,0:0:0:0:
316,145,26200,2,0,B|311:105|311:105|320:93|320:93|316:58,1,90.1200000000001,0|8,1:0|2:0,0:0:0:0:
453,250,26629,5,4,1:2:0:0:
453,250,26843,2,0,P|405:239|359:295,2,90.1200000000001,10|0|8,2:0|1:0|2:0,2:0:0:0:
321,352,27486,2,0,B|275:356|275:356|264:352|264:352|209:358,1,90.1200000000001,2|10,1:2|2:0,2:0:0:0:
139,273,27915,1,2,1:2:0:0:
92,382,28129,1,10,2:0:0:0:
39,216,28343,38,0,B|73:212|73:212|147:275,2,90.1200000000001,2|10|2,1:2|2:0|1:2,0:0:0:0:
0,92,28986,1,10,2:0:0:0:
18,90,29093,2,0,B|52:85|52:85|63:90|63:90|115:82,1,90.1200000000001,2|0,2:0|0:0,0:0:0:0:
129,63,29415,2,0,P|186:43|227:65,2,90.1200000000001,8|2|10,2:0|1:2|2:0,0:0:0:0:
277,143,30057,5,0,1:0:0:0:
379,62,30272,2,0,P|370:105|390:144,2,90.1200000000001,10|0|10,2:0|1:0|2:0,2:0:0:0:
484,208,30915,2,0,B|441:215|441:215|439:222|439:222|386:232,1,90.1200000000001,2|10,1:2|2:0,2:0:0:0:
348,344,31343,1,2,1:2:0:0:
468,326,31557,1,10,2:0:0:0:
264,355,31772,6,0,B|255:323|270:286|285:305|294:261|274:224,2,135.18,2|2|10,1:2|2:0|2:0,2:0:0:0:
200,165,32629,1,2,1:2:0:0:
119,314,32843,2,0,P|113:255|137:217,2,90.1200000000001,8|0|8,2:0|1:0|2:0,0:0:0:0:
0,98,33486,38,0,B|57:93|57:93|80:107|80:107|130:101,2,135.18,6|2|10,1:2|2:0|2:0,2:0:0:0:
194,16,34343,2,0,P|227:9|253:15,1,45.06,2|0,1:2|0:0,2:0:0:0:
315,85,34557,2,0,P|337:85|358:79,1,45.06,8|0,2:0|0:0,0:0:0:0:
494,30,34772,1,0,1:0:0:0:
472,0,34879,1,8,1:2:0:0:
438,12,34986,1,10,2:3:0:0:
438,48,35093,1,0,1:0:0:0:
472,59,35200,6,0,P|499:128|453:240,1,162.215995056153,6|8,1:2|1:2,0:0:0:0:
479,210,35629,2,0,P|451:140|497:28,1,162.215995056153,6|8,1:2|1:2,0:0:0:0:
494,30,36057,2,0,P|440:17|408:37,1,54.0719983520509,6|0,1:2|1:0,0:0:0:0:
364,73,36272,2,0,P|353:97|354:124,1,54.0719983520509,8|8,1:2|1:2,0:0:0:0:
479,210,36486,1,0,1:0:0:0:
454,198,36593,1,8,1:2:0:0:
428,201,36700,1,10,1:2:0:0:
406,217,36807,1,8,2:0:0:0:
396,241,36915,6,0,P|423:317|400:378,2,135.18,6|2|10,1:2|2:0|2:0,2:0:0:0:
242,340,37772,2,0,B|189:330|189:330|157:342|157:342|82:328,2,135.18,2|2|10,1:2|0:0|2:0,2:0:0:0:
413,369,38629,1,0,1:0:0:0:
310,265,38843,1,8,2:0:0:0:
110,333,39057,1,0,1:0:0:0:
105,311,39165,1,8,1:2:0:0:
107,288,39272,1,8,1:2:0:0:
116,268,39379,1,0,1:0:0:0:
130,251,39486,38,0,P|147:217|144:174,1,54.0719983520509,2|0,1:2|2:0,2:0:0:0:
69,123,39700,2,0,P|106:120|142:96,1,54.0719983520509,2|0,1:2|2:0,2:0:0:0:
256,0,39915,1,8,1:3:0:0:
242,23,40022,1,10,1:2:0:0:
236,49,40129,1,8,1:3:0:0:
239,76,40236,1,0,1:0:0:0:
249,100,40343,6,0,B|306:85|306:85|342:108|342:108|410:94,2,162.215995056153,6|2|2,1:2|2:0|2:0,2:0:0:0:
403,70,41093,1,2,0:0:0:0:
403,70,41200,2,0,B|474:55|474:55|501:77,3,108.143996704102,2|2|2|2,1:2|2:0|1:2|2:0,0:0:0:0:
388,242,42057,6,0,P|462:245|485:228,1,90.1200000000001,2|0,1:2|0:0,2:0:0:0:
472,239,42379,1,2,2:0:0:0:
472,239,42486,2,0,P|430:300|434:330,1,89.7000000000001,2|0,1:2|2:0,0:0:0:0:
352,384,42807,1,2,0:0:0:0:
352,384,42915,2,0,P|319:317|291:305,3,108.143996704102,2|2|2|2,1:2|2:0|1:2|2:0,0:0:0:0:
73,384,43772,38,0,B|40:348|40:348|57:209,1,162.215995056153,2|0,1:2|0:0,0:0:0:0:
58,209,44200,2,0,P|125:202|166:246,1,90.1200000000001,2|2,1:2|2:0,2:0:0:0:
188,120,44629,1,2,1:2:0:0:
188,120,44736,2,0,P|156:89|149:46,1,90.1200000000001,2|0,2:0|2:0,0:0:0:0:
224,132,45057,1,2,1:2:0:0:
276,22,45272,1,2,2:0:0:0:
330,202,45486,6,0,P|363:174|374:131,1,90.1200000000001,2|0,1:2|0:0,2:0:0:0:
374,130,45807,1,2,2:0:0:0:
374,130,45915,2,0,P|381:173|412:204,1,90.1200000000001,2|0,1:2|2:0,0:0:0:0:
512,13,46343,2,0,B|492:36|492:36|501:131,1,90.1200000000001,2|0,1:2|1:0,0:0:0:0:
503,125,46665,1,8,1:2:0:0:
503,125,46772,2,0,P|475:124|447:142,1,45.06,0|0,1:0|1:0,0:0:0:0:
413,204,46986,2,0,P|412:232|430:260,1,45.06,8|0,1:3|0:0,0:0:0:0:
512,375,47200,6,0,B|450:383|450:383|407:343|407:343|353:349,2,175.733991966248,6|6|6,1:2|1:2|1:2,2:0:0:0:
272,230,48272,37,8,1:2:0:0:
290,233,48379,2,0,P|323:255|341:292,1,45.06,8|0,1:2|0:0,0:0:0:0:
150,205,48593,1,8,1:2:0:0:
161,190,48700,2,0,P|196:172|237:175,1,45.06,8|0,1:3|0:0,0:0:0:0:
99,372,48915,6,0,B|91:327|91:327|151:271|151:271|144:212,2,175.733991966248,4|4|4,1:2|1:2|1:2,2:0:0:0:
159,137,49986,6,0,P|130:136|103:146,1,58.5779973220827,2|0,1:2|2:0,2:0:0:0:
0,30,50200,1,10,1:2:0:0:
21,32,50307,1,0,1:0:0:0:
43,30,50415,1,10,1:3:0:0:
64,24,50522,1,0,1:0:0:0:
84,14,50629,38,0,P|155:-3|237:80,1,175.733991966248,14|0,1:2|0:0,0:0:0:0:
257,46,51057,2,0,B|307:37|307:37|329:45|329:45|397:31,1,117.155994644165,8|8,1:3|1:3,2:0:0:0:
512,160,51486,2,0,B|462:151|462:151|440:159|440:159|372:145,1,117.155994644165,8|8,1:3|1:3,2:0:0:0:
289,280,51915,1,8,1:3:0:0:
390,170,52129,1,8,1:3:0:0:
490,351,52343,6,0,P|497:310|448:222,1,117.155994644165,12|8,1:2|1:3,0:0:0:0:
252,144,52772,1,8,1:3:0:0:
384,265,52986,1,8,1:3:0:0:
384,23,53200,1,8,1:3:0:0:
252,144,53415,1,8,1:3:0:0:
29,73,53629,5,8,1:3:0:0:
53,38,53736,1,8,1:3:0:0:
93,48,53843,1,8,1:3:0:0:
95,90,53950,1,8,1:3:0:0:
53,105,54057,38,0,P|22:185|75:273,1,135.180005149842,14|0,1:2|2:0,2:0:0:0:
152,184,54379,2,0,P|101:226|35:230,1,135.180005149842,6|0,1:2|1:0,2:0:0:0:
21,366,54700,1,8,1:3:0:0:
54,361,54807,1,8,1:2:0:0:
86,370,54915,6,0,B|139:358|139:358|159:373|159:373|258:352,1,135.180005149842,14|0,1:2|2:0,2:0:0:0:
338,325,55236,2,0,B|284:336|284:336|264:321|264:321|210:333,1,135.180005149842,6|8,1:2|1:2,2:0:0:0:
366,318,55557,2,0,B|381:297|381:297|374:255,1,67.5900025749209,8|0,1:3|0:0,0:0:0:0:
255,33,55772,6,14,P|245:114|326:189,1,153.204002918243,14|0,1:2|0:2,1:2:0:0:
427,138,56093,2,0,P|436:56|355:-18,1,153.204002918243,14|0,1:2|0:0,0:0:0:0:
348,98,56415,2,0,P|338:73|342:99,1,76.6020014591218,14|0,1:2|0:0,0:0:0:0:
368,221,56629,1,14,1:2:0:0:
512,355,56843,37,10,1:2:0:0:
508,367,56950,1,10,1:2:0:0:
505,384,57057,5,12,1:2:0:0:
447,378,57165,1,8,1:2:0:0:
390,373,57272,1,8,1:2:0:0:
333,367,57379,1,8,1:2:0:0:
275,357,57486,6,0,P|262:301|200:266,1,126.167996154785,6|8,1:2|2:0,2:0:0:0:
55,156,57915,2,0,L|84:292,1,126.167996154785,2|8,1:2|2:0,2:0:0:0:
99,371,58236,1,2,2:0:0:0:
99,371,58343,38,0,L|164:358,1,63.0839980773927,2|0,1:2|2:0,2:0:0:0:
284,280,58557,2,0,L|222:267,1,63.0839980773927,10|0,2:0|2:0,2:0:0:0:
90,360,58772,6,0,L|155:347,1,63.0839980773927,2|0,1:2|2:0,2:0:0:0:
213,256,58986,2,0,L|274:268,1,63.0839980773927,10|0,2:0|2:0,2:0:0:0:
55,156,59200,6,0,B|47:107|47:107|110:36|208:99,1,189.251994232178,2|0,1:2|2:0,2:0:0:0:
252,157,59629,2,0,B|302:118|302:118|380:135,1,126.167996154785,2|8,1:2|2:0,2:0:0:0:
477,116,59950,1,2,2:0:0:0:
477,116,60057,38,0,L|466:178,1,63.0839980773927,2|0,1:2|2:0,2:0:0:0:
379,285,60272,2,0,L|367:223,1,63.0839980773927,10|0,2:0|2:0,2:0:0:0:
494,127,60486,6,0,L|482:188,1,63.0839980773927,2|0,1:2|2:0,2:0:0:0:
383,233,60700,2,0,L|394:294,1,63.6719980773927,10|0,2:0|2:0,2:0:0:0:
512,379,60915,6,0,B|464:400|396:358|440:352|394:310|334:335,1,189.251994232178,6|0,1:2|2:0,0:0:0:0:
220,384,61343,2,0,P|213:327|267:270,1,126.167996154785,2|10,1:2|2:0,0:0:0:0:
164,182,61665,1,2,2:0:0:0:
164,182,61772,38,0,P|210:189|238:182,1,63.0839980773927,2|0,1:2|2:0,2:0:0:0:
323,115,61986,2,0,P|326:146|319:177,1,63.0839980773927,10|0,2:0|2:0,2:0:0:0:
162,194,62200,6,0,P|208:201|236:194,1,63.0839980773927,2|0,1:2|2:0,2:0:0:0:
328,179,62415,2,0,P|336:149|333:118,1,62.4959980773927,10|0,2:0|2:0,2:0:0:0:
512,14,62629,54,0,P|452:82|487:191,1,189.251994232178,2|0,1:2|2:0,2:0:0:0:
432,266,63057,2,0,P|402:255|308:287,1,126.167996154785,2|8,1:2|2:0,2:0:0:0:
211,354,63379,1,2,2:0:0:0:
227,357,63486,2,0,L|306:371,1,63.0839980773927,2|0,1:2|2:0,2:0:0:0:
452,384,63700,21,10,2:0:0:0:
452,384,63807,1,2,2:0:0:0:
452,384,63915,2,0,P|428:355|395:356,3,62.9999980773926,2|2|10|2,1:2|2:0|2:0|2:0,2:0:0:0:
512,284,64343,2,0,P|492:189|485:122,1,125.999996154785,6|10,1:2|2:2,0:0:0:0:
489,137,64665,1,2,2:2:0:0:
489,137,64772,2,0,P|458:144|427:148,1,62.9999980773926,2|2,1:2|2:2,0:0:0:0:
313,20,64986,1,10,2:2:0:0:
313,20,65093,1,2,2:2:0:0:
313,20,65200,54,0,P|272:7|218:19,1,63.0839980773927,2|2,1:2|2:2,0:0:0:0:
196,137,65415,2,0,P|186:94|149:54,1,63.0839980773927,10|2,2:2|2:2,0:0:0:0:
36,94,65629,2,0,P|67:64|84:12,1,63.0839980773927,2|2,1:2|2:2,0:0:0:0:
210,155,65843,1,10,2:2:0:0:
221,173,65950,1,2,2:2:0:0:
228,196,66057,54,0,B|185:207|185:207|163:234|163:234|107:249,2,126.167996154785,2|10|2,1:2|2:0|1:2,0:0:0:0:
402,256,66700,2,0,B|434:257|434:257|362:284,1,63.0839980773927,10|2,2:0|2:2,0:0:0:0:
347,354,66915,6,0,L|286:368,2,63.0839980773927,2|2|10,1:2|2:2|2:2,0:0:0:0:
434,257,67236,2,0,L|515:275,2,63.0839980773927,2|2|2,2:2|1:2|2:2,0:0:0:0:
353,371,67557,2,0,L|272:389,1,63.0839980773927,10|0,2:0|2:0,2:0:0:0:
162,244,67772,6,0,B|154:304|154:304|164:324|164:324|150:421,1,144.192,6|8,1:2|2:0,2:0:0:0:
237,147,68200,1,2,1:2:0:0:
210,122,68307,1,2,2:2:0:0:
176,111,68415,1,10,2:2:0:0:
141,115,68522,1,2,2:2:0:0:
109,134,68629,38,0,P|77:147|42:145,1,72.0960000000001,2|0,1:2|2:0,2:0:0:0:
237,147,68843,2,0,P|284:162|338:140,1,72.0960000000001,10|0,2:0|2:0,2:0:0:0:
379,42,69057,5,2,1:2:0:0:
385,88,69165,1,2,2:0:0:0:
391,135,69272,1,10,2:0:0:0:
398,182,69379,1,2,2:0:0:0:
408,228,69486,6,0,B|436:179|436:179|413:10,2,216.288,8|8|8,1:3|1:3|1:3,0:0:0:0:
408,228,70343,1,4,1:2:0:0:
512,384,70772,38,2,P|505:370|476:355,1,36.384,10|2,1:2|0:0,0:0:0:0:
502,344,70879,2,2,P|488:335|456:336,1,36.384,10|2,0:0|0:0,0:0:0:0:
473,314,70986,2,2,P|457:313|429:330,1,36.384,10|2,1:2|0:0,0:0:0:0:
432,302,71093,2,2,P|418:308|403:337,1,36.384,10|2,0:0|0:0,0:0:0:0:
390,312,71200,6,0,B|370:335|366:361|366:361|327:336|270:358|301:371|258:386|205:371,1,216.288,6|0,1:2|2:0,2:0:0:0:
108,222,71629,2,0,P|156:214|210:289,1,144.192,2|8,1:2|2:0,2:0:0:0:
85,234,71950,1,2,2:0:0:0:
85,234,72057,6,0,P|91:185|112:154,1,72.0960000000001,2|0,1:2|0:0,2:0:0:0:
138,64,72272,2,0,P|102:66|70:83,1,72.0960000000001,10|0,0:0|2:0,0:0:0:0:
73,231,72486,54,0,P|79:182|100:151,1,72.0960000000001,2|0,1:2|2:0,2:0:0:0:
66,72,72700,2,0,P|98:55|134:53,1,72.7680000000001,10|0,2:0|2:0,2:0:0:0:
317,0,72915,54,0,B|264:16|248:54|248:54|297:210,1,216.288,2|0,1:2|2:0,2:0:0:0:
410,240,73343,2,0,P|394:313|329:363,1,144.192,2|8,1:2|2:0,2:0:0:0:
250,320,73665,5,2,2:0:0:0:
250,320,73772,2,0,P|254:284|239:252,1,72.0960000000001,2|0,1:2|2:0,2:0:0:0:
147,185,73986,2,0,P|111:181|79:196,1,72.0960000000001,10|0,2:0|2:0,2:0:0:0:
22,355,74200,54,0,P|7:323|11:288,1,72.0960000000001,2|0,1:2|2:0,2:0:0:0:
79,184,74415,2,0,P|111:169|147:174,1,72.0960000000001,10|0,2:0|2:0,2:0:0:0:
250,384,74629,6,0,B|244:301|244:301|268:267|268:267|261:176,1,216.288,6|0,1:2|2:0,0:0:0:0:
318,51,75057,2,0,P|377:15|470:68,1,144.192,2|10,1:2|2:0,0:0:0:0:
461,128,75379,1,2,2:0:0:0:
461,128,75486,6,0,B|456:92|456:92|459:82|459:82|453:37,1,72.0960000000001,2|0,1:2|2:0,2:0:0:0:
359,263,75700,2,0,B|364:227|364:227|361:217|361:217|367:172,1,72.0960000000001,10|0,2:0|2:0,2:0:0:0:
467,58,75915,38,0,B|470:82|470:82|467:92|467:92|472:128,1,72.0960000000001,2|0,1:2|0:0,2:0:0:0:
356,191,76129,2,0,B|352:215|352:215|355:225|355:225|350:261,1,72.0960000000001,10|0,0:0|2:0,0:0:0:0:
512,371,76343,6,0,B|445:383|445:383|374:351|374:351|294:366,1,216.288,2|0,1:2|0:0,0:0:0:0:
223,271,76772,2,0,B|182:278|182:278|132:256|132:256|85:264,1,144.192,2|8,1:2|2:0,2:0:0:0:
108,369,77093,1,2,2:0:0:0:
105,356,77200,6,0,L|89:270,1,72.0960000000001,2|0,1:2|2:0,2:0:0:0:
198,184,77415,2,0,L|214:98,1,72.0960000000001,10|0,2:0|2:0,2:0:0:0:
1,46,77629,37,2,1:2:0:0:
28,83,77736,1,2,2:0:0:0:
72,69,77843,1,10,2:0:0:0:
72,23,77950,1,2,2:0:0:0:
34,0,78057,2,0,P|2:42|1:83,1,72.0960000000001,6|2,1:2|2:2,0:0:0:0:
47,185,78272,5,10,2:2:0:0:
59,173,78379,1,2,2:2:0:0:
78,169,78486,2,0,P|121:177|141:216,1,58.4999973220826,2|2,1:2|2:2,0:0:0:0:
191,135,78700,2,0,P|215:171|202:212,1,58.4999973220826,10|2,2:2|2:2,0:0:0:0:
128,339,78915,2,0,P|192:307|258:278,1,144,2|10,1:2|2:2,0:0:0:0:
388,184,79343,53,2,1:2:0:0:
421,172,79450,1,2,2:2:0:0:
458,174,79557,1,10,2:2:0:0:
489,198,79665,1,2,2:2:0:0:
498,242,79772,2,0,P|460:289|468:345,1,72.0960000000001,2|2,1:2|2:2,0:0:0:0:
222,344,79986,5,10,2:2:0:0:
270,348,80093,1,2,2:2:0:0:
318,354,80200,2,0,L|428:370,1,58.4999973220826,2|0,1:2|2:0,2:0:0:0:
223,247,80415,2,0,L|113:263,1,58.4999973220826,10|0,2:0|2:0,2:0:0:0:
28,352,80629,6,0,B|38:277|38:277|25:256|25:256|34:195,1,161.999995056153,2|8,1:2|0:0,0:0:0:0:
13,30,81057,1,2,1:2:0:0:
13,30,81165,1,2,0:0:0:0:
13,30,81272,2,0,P|47:50|52:82,1,62.9999980773926,10|0,2:0|2:0,0:0:0:0:
128,174,81486,2,0,P|188:157|250:143,1,125.999996154785,4|10,1:2|2:2,0:0:0:0:
327,25,81915,37,2,1:2:0:0:
309,0,82022,1,2,2:2:0:0:
279,9,82129,1,10,2:2:0:0:
279,41,82236,1,2,2:2:0:0:
309,51,82343,6,0,P|365:32|406:59,3,62.9999980773926,2|2|10|2,1:2|0:2|0:2|0:2,0:2:0:0:
407,116,82772,2,0,P|396:145|400:175,1,62.4959980773927,2|2,1:2|2:2,0:0:0:0:
504,186,82986,2,0,P|515:156|512:125,1,63.0839980773927,10|2,2:2|2:2,0:0:0:0:
445,253,83200,2,0,L|437:315,3,62.9999980773926,2|2|10|2,1:2|0:0|0:2|0:0,0:0:0:0:
434,342,83629,54,0,P|448:370|497:384,1,62.9999980773926,2|2,1:2|2:0,0:0:0:0:
316,276,83843,2,0,P|347:277|383:242,1,62.9999980773926,10|2,2:0|2:0,0:0:0:0:
199,345,84057,2,0,P|216:318|203:269,3,62.9999980773926,2|2|10|2,1:2|0:0|2:0|2:0,0:0:0:0:
118,216,84486,5,2,1:2:0:0:
93,216,84593,1,2,2:0:0:0:
65,202,84700,1,10,2:0:0:0:
51,181,84807,1,2,2:0:0:0:
51,153,84915,6,0,P|40:123|16:103,1,63.0839980773927,2|0,1:2|0:0,0:0:0:0:
82,5,85129,2,0,P|112:10|142:0,1,63.0839980773927,10|8,1:2|1:2,0:0:0:0:
209,192,85343,2,2,P|189:183|175:166,1,43.2059988584519,10|2,1:3|0:0,0:0:0:0:
193,162,85450,2,2,P|181:144|177:123,1,43.2059988584519,10|2,1:3|0:0,0:0:0:0:
196,129,85557,2,2,P|194:107|201:87,1,44.0039988584519,10|2,1:2|0:0,0:0:0:0:
213,101,85665,2,2,P|222:81|238:68,1,43.2059988584519,2|2,0:0|0:0,0:0:0:0:
244,87,85772,2,2,P|261:75|282:72,1,43.2059988584519,10|2,1:2|0:0,0:0:0:0:
487,47,86629,54,0,B|494:118|494:118|505:132|505:132|515:240,1,153.204002918243,6|0,1:2|2:0,2:0:0:0:
443,317,86950,2,0,B|435:245|435:245|424:231|424:231|414:123,1,153.204002918243,6|0,1:2|2:0,2:0:0:0:
314,212,87272,1,8,1:3:0:0:
283,208,87379,1,8,1:2:0:0:
256,220,87486,54,0,P|199:292|223:377,1,153.204002918243,6|0,1:2|2:0,2:0:0:0:
103,370,87807,2,0,P|69:284|-16:262,1,153.204002918243,6|8,1:2|1:3,0:0:0:0:
17,261,88129,2,0,P|13:239|19:262,1,76.6020014591218,8|0,1:2|0:0,0:0:0:0:
72,50,88343,6,0,B|172:38|172:38|197:66|197:66|321:51,2,229.806004377365,6|6|6,1:2|1:2|1:2,2:0:0:0:
313,52,89200,1,6,1:2:0:0:
484,84,89415,5,8,2:0:0:0:
471,93,89522,1,8,2:0:0:0:
462,110,89629,37,8,2:0:0:0:
494,149,89736,1,8,2:0:0:0:
509,197,89843,1,8,2:0:0:0:
505,248,89950,1,8,2:0:0:0:
484,295,90057,6,0,B|428:251|335:312|414:324|325:391|256:342,1,247.599007553101,4|0,1:2|0:0,0:0:0:0:
229,228,91343,1,8,1:2:0:0:
229,228,91450,1,8,1:2:0:0:
229,228,91557,2,0,P|215:258|191:282,1,67.5900025749209,10|0,1:3|0:0,0:0:0:0:
69,384,91772,6,0,L|87:278,2,90.1200000000001,2|10|2,1:2|2:0|1:2,0:0:0:0:
10,246,92415,1,10,2:0:0:0:
0,233,92522,2,0,P|-2:200|18:155,1,45.06,2|0,2:0|1:0,0:0:0:0:
54,108,92736,1,2,0:0:0:0:
67,98,92843,2,0,P|99:95|145:116,1,45.06,8|0,2:0|0:0,0:0:0:0:
220,207,93057,2,0,L|213:88,2,90.1200000000001,0|8|0,1:0|2:0|1:0,2:0:0:0:
297,41,93700,37,10,2:0:0:0:
297,41,93915,2,0,P|356:26|406:52,1,90.1200000000001,2|10,1:2|2:0,2:0:0:0:
512,119,94343,2,0,P|453:134|403:108,1,90.1200000000001,2|10,1:2|2:0,0:0:0:0:
297,41,94772,1,2,1:2:0:0:
294,133,94986,1,10,2:0:0:0:
414,259,95200,6,0,B|417:196|417:196|423:185|423:185|426:107,2,135.18,2|2|10,1:2|2:0|2:0,2:0:0:0:
341,384,96057,1,2,1:2:0:0:
341,384,96272,2,0,P|285:361|239:386,2,90.1200000000001,8|0|10,2:0|1:0|2:0,0:0:0:0:
187,254,96915,6,0,B|180:308|180:308|168:322|168:322|160:384,2,135.18,2|2|10,1:2|2:0|2:0,2:0:0:0:
14,253,97772,1,2,1:2:0:0:
14,253,97986,2,0,P|72:248|101:266,2,90.1200000000001,8|0|10,2:0|1:0|2:0,0:0:0:0:
214,124,98629,38,0,B|207:178|207:178|195:192|195:192|187:254,2,135.18,2|2|10,1:2|2:0|2:0,2:0:0:0:
230,28,99486,1,2,1:2:0:0:
230,27,99700,2,0,B|273:17|273:17|316:41,1,90.1200000000001,8|0,2:0|1:0,0:0:0:0:
453,0,100129,1,10,2:0:0:0:
416,204,100343,6,0,B|389:159|389:159|406:55,2,135.18,2|2|10,1:2|2:0|2:0,2:0:0:0:
512,318,101200,2,0,P|445:328|431:410,1,135.18,2|0,1:2|2:0,2:0:0:0:
422,384,101629,2,0,P|393:364|348:368,1,45.06,2|0,1:2|0:0,2:0:0:0:
314,302,101843,2,0,P|282:317|263:358,1,45.06,8|0,0:0|2:0,0:0:0:0:
174,384,102057,6,0,P|180:367|176:385,1,45.06,2|0,1:2|0:0,2:0:0:0:
183,261,102272,2,0,L|186:204,1,53.9999983520508,10|2,0:0|0:0,0:0:0:0:
79,307,102486,2,0,L|32:273,1,53.9999983520508,2|2,1:2|0:0,0:0:0:0:
83,182,102700,1,10,0:2:0:0:
83,182,102807,1,2,1:2:0:0:
83,182,102915,1,2,1:2:0:0:
184,384,103129,54,0,B|239:373|239:373|248:382|248:382|313:367,2,135.180005149842,10|10|10,1:2|1:2|1:2,2:0:0:0:
147,363,103772,6,0,P|203:335|248:361,1,90.1200000000001,4|10,1:2|2:0,0:0:0:0:
328,378,104200,2,0,P|371:383|407:357,1,90.1200000000001,2|10,1:2|2:0,2:0:0:0:
502,255,104629,2,0,L|514:361,1,90.1200000000001,2|10,1:2|2:0,2:0:0:0:
351,279,105057,2,0,L|361:189,1,90.1200000000001,2|10,1:2|2:0,0:0:0:0:
483,67,105486,38,0,P|467:122|499:152,2,90.1200000000001,2|10|2,1:2|2:0|1:2,2:0:0:0:
357,4,106129,1,10,2:0:0:0:
374,9,106236,2,0,P|395:12|417:6,1,45.06,2|0,2:0|1:0,0:0:0:0:
369,110,106450,1,2,0:0:0:0:
352,115,106557,2,0,P|330:118|308:112,1,45.06,8|0,2:0|0:0,0:0:0:0:
209,19,106772,6,0,B|193:45|193:45|203:113,2,90.1200000000001,0|10|2,1:0|2:0|1:2,0:0:0:0:
223,196,107415,1,10,2:0:0:0:
54,187,107629,2,0,P|91:164|135:170,1,90.1200000000001,2|10,1:2|2:0,2:0:0:0:
245,219,108057,2,0,P|288:225|326:202,1,90.1200000000001,2|10,1:2|2:0,0:0:0:0:
366,45,108486,1,2,1:2:0:0:
491,75,108700,1,10,2:0:0:0:
335,196,108915,6,0,P|319:258|336:359,2,135.18,2|2|10,1:2|2:0|2:0,2:0:0:0:
458,291,109772,1,2,1:2:0:0:
458,291,109879,1,2,0:2:0:0:
458,291,109986,2,0,P|425:303|410:340,1,45.06,10|0,2:0|0:0,0:0:0:0:
324,328,110200,1,2,1:2:0:0:
324,328,110307,1,2,0:2:0:0:
325,328,110415,2,0,P|307:313|285:309,1,44.64,10|0,2:0|0:0,0:0:0:0:
142,365,110629,38,0,B|135:307|135:307|151:286|151:286|144:214,2,135.18,6|2|10,1:2|2:0|2:0,2:0:0:0:
6,165,111486,2,0,B|-4:71|-4:71|22:41,1,135.18,2|0,1:2|0:0,2:0:0:0:
41,27,111915,2,0,L|119:17,1,45.06,8|8,1:3|1:2,0:0:0:0:
128,123,112129,2,0,L|206:133,1,45.06,10|8,1:2|1:3,0:0:0:0:
258,20,112343,6,0,B|297:-9|342:-9|342:-9|380:19|398:63,1,175.733991966248,6|8,1:2|1:2,2:0:0:0:
512,89,112772,2,0,B|479:64|439:63|439:63|406:85|396:117,1,148.69800453186,6|8,1:2|1:2,2:0:0:0:
309,153,113200,2,0,B|330:136|356:136|356:136|379:150|385:171,1,99.1320030212404,6|8,1:2|1:2,2:0:0:0:
385,172,113522,1,8,1:2:0:0:
385,172,113629,2,0,P|373:212|387:249,1,49.5660015106203,6|0,1:2|0:0,0:0:0:0:
510,267,113843,1,10,1:2:0:0:
510,267,113950,1,8,1:2:0:0:
510,267,114057,6,0,P|467:273|447:366,2,148.69800453186,6|2|10,1:2|2:0|2:0,2:0:0:0:
317,384,114915,2,0,P|294:316|225:310,2,148.69800453186,2|2|10,1:2|2:0|2:0,2:0:0:0:
49,384,115772,38,0,B|40:341|40:341|46:321|46:321|33:261,1,99.1320030212404,2|8,1:2|2:0,0:0:0:0:
236,214,116200,2,0,B|228:247|228:247|234:267|234:267|225:310,1,99.1320030212404,0|8,1:0|0:0,0:0:0:0:
33,270,116629,6,0,L|23:212,1,49.5660015106203,2|0,1:2|2:0,2:0:0:0:
131,249,116843,2,0,L|122:200,1,49.5660015106203,2|0,1:2|2:0,2:0:0:0:
25,69,117057,5,8,1:3:0:0:
42,64,117165,1,10,1:2:0:0:
62,67,117272,2,0,P|91:69|131:55,1,49.5660015106203,8|0,1:3|0:0,0:0:0:0:
278,0,117486,38,0,B|258:15|228:19|228:19|206:69|241:121,2,148.69800453186,6|2|2,1:2|2:0|2:0,2:0:0:0:
241,122,118236,1,2,0:0:0:0:
241,122,118343,2,0,P|281:112|337:166,3,99.1320030212404,2|2|2|2,1:2|2:0|1:2|2:0,0:0:0:0:
394,65,119093,1,2,0:0:0:0:
394,65,119200,6,0,P|362:133|350:206,1,148.69800453186,2|2,1:2|2:0,2:0:0:0:
350,232,119629,2,0,P|389:214|424:216,1,49.5660015106203,2|0,1:2|0:0,0:0:0:0:
494,334,119843,1,2,2:0:0:0:
494,334,119950,1,2,0:0:0:0:
494,334,120057,2,0,P|460:306|379:340,3,99.1320030212404,0|2|2|2,1:0|2:0|1:2|2:0,0:0:0:0:
205,384,120915,6,0,B|185:241|185:241|129:191,1,198.264006042481,2|0,1:2|1:0,0:0:0:0:
41,62,121557,1,2,2:0:0:0:
41,62,121665,1,2,2:0:0:0:
41,62,121772,2,0,B|54:160,1,99.1320030212404,2|0,1:2|0:0,2:0:0:0:
184,241,122200,2,0,B|197:142,1,99.1320030212404,2|0,1:2|2:0,0:0:0:0:
381,68,122629,38,0,B|357:76|329:66|308:40|329:32|317:2|281:-6|249:1,2,148.69800453186,2|0|0,1:2|0:0|2:0,2:0:0:0:
512,194,123486,2,0,P|464:190|432:226,1,99.1320030212404,2|0,1:2|1:0,0:0:0:0:
348,238,123807,1,8,1:2:0:0:
348,238,123915,2,0,P|364:279|380:294,1,49.5660015106203,0|0,1:0|1:0,0:0:0:0:
457,323,124129,1,8,1:3:0:0:
457,323,124343,6,0,P|338:319|270:336,2,175.733991966248,6|6|6,1:2|1:2|1:2,2:0:0:0:
457,323,125415,2,0,P|439:343|431:376,1,49.5660015106203,2|0,1:2|1:0,0:0:0:0:
306,373,125629,1,8,1:3:0:0:
306,373,125736,1,2,1:2:0:0:
306,373,125843,2,0,P|297:347|273:323,1,49.5660015106203,0|0,1:0|0:0,0:0:0:0:
98,286,126057,6,0,B|179:297|179:297|190:310|190:310|277:321,2,175.733991966248,4|4|4,1:2|1:2|1:2,2:0:0:0:
72,282,126807,1,2,0:0:0:0:
72,282,126915,2,0,P|70:253|85:221,1,49.5660015106203,0|0,1:0|0:0,0:0:0:0:
31,106,127129,1,2,1:2:0:0:
54,113,127236,1,0,1:0:0:0:
79,114,127343,1,10,1:2:0:0:
103,110,127450,1,8,1:3:0:0:
126,101,127557,2,0,P|155:83|178:80,1,49.5660015106203,10|0,1:3|1:0,0:0:0:0:
390,192,127772,38,0,B|359:185|334:204|334:204|263:127|326:35,1,234.311989288331,14|8,1:2|1:3,0:0:0:0:
407,197,128415,1,8,1:3:0:0:
480,70,128629,2,0,P|496:134|480:186,1,99.1320030212404,8|8,1:3|1:3,2:0:0:0:
395,307,129057,1,8,1:3:0:0:
325,199,129272,1,8,1:3:0:0:
175,354,129486,6,0,B|218:370|218:370|303:346,1,99.1320030212404,12|8,1:2|1:3,0:0:0:0:
151,227,129915,1,8,1:3:0:0:
151,227,130129,1,8,1:3:0:0:
0,305,130343,1,8,1:3:0:0:
17,138,130557,1,8,1:3:0:0:
240,6,130772,5,8,1:3:0:0:
275,30,130879,1,8,1:3:0:0:
265,70,130986,1,8,1:3:0:0:
223,72,131093,1,8,1:3:0:0:
207,31,131200,38,0,P|127:0|39:53,1,135.810005149842,14|0,1:2|2:0,2:0:0:0:
128,129,131522,2,0,P|86:78|82:12,1,135.180005149842,6|0,1:2|1:0,2:0:0:0:
150,142,131843,1,8,1:3:0:0:
169,148,131950,1,8,1:2:0:0:
189,147,132057,6,0,B|254:133|254:133|263:137|263:137|341:120,1,135.180005149842,14|0,1:2|2:0,2:0:0:0:
443,79,132379,2,0,B|378:93|378:93|369:89|369:89|291:106,1,135.180005149842,6|8,1:2|1:2,2:0:0:0:
279,215,132700,1,8,1:3:0:0:
282,234,132807,1,0,1:0:0:0:
285,254,132915,6,0,P|200:246|147:298,1,135.180005149842,14|0,1:2|2:2,0:0:0:0:
84,384,133236,2,0,P|133:314|114:242,1,135.180005149842,14|0,1:2|0:0,0:0:0:0:
47,176,133557,2,0,B|73:197|73:197|55:158,1,67.5900025749209,14|0,1:2|0:0,0:0:0:0:
220,347,133772,1,14,1:2:0:0:
298,261,133986,37,10,1:2:0:0:
303,274,134093,1,10,1:2:0:0:
309,288,134200,5,12,1:2:0:0:
318,238,134307,1,8,1:2:0:0:
328,188,134415,1,8,1:2:0:0:
338,138,134522,1,8,1:2:0:0:
347,89,134629,6,0,P|383:34|452:33,1,117.155994644165,6|8,1:2|2:0,2:0:0:0:
233,127,135057,2,0,P|197:71|128:70,1,117.155994644165,2|8,1:2|2:0,2:0:0:0:
67,102,135379,1,2,2:0:0:0:
67,102,135486,38,0,L|77:173,1,58.5779973220827,2|0,1:2|2:0,2:0:0:0:
164,278,135700,2,0,L|173:221,1,58.5779973220827,10|0,2:0|2:0,2:0:0:0:
55,103,135915,6,0,L|63:160,1,58.5779973220827,2|0,1:2|2:0,2:0:0:0:
185,222,136129,2,0,L|176:279,1,58.5779973220827,10|0,2:0|2:0,2:0:0:0:
30,322,136343,6,0,B|131:309|84:381|197:372,1,175.733991966248,2|0,1:2|2:0,2:0:0:0:
285,331,136772,2,0,P|281:266|359:225,1,117.155994644165,2|8,1:2|2:0,2:0:0:0:
408,222,137093,1,2,2:0:0:0:
408,222,137200,38,0,L|480:236,1,58.5779973220827,2|0,1:2|2:0,2:0:0:0:
328,119,137415,2,0,L|256:133,1,58.5779973220827,10|0,2:0|2:0,2:0:0:0:
469,221,137629,6,0,L|411:209,1,58.5779973220827,2|0,1:2|2:0,2:0:0:0:
324,105,137843,2,0,L|266:116,1,59.1239973220827,10|0,2:0|2:0,2:0:0:0:
123,237,138057,6,0,B|77:225|77:225|30:146|114:77,1,194.999991073609,6|0,1:2|0:0,0:0:0:0:
166,35,138486,2,0,B|219:25|219:25|233:30|233:30|286:20,1,117.155994644165,2|10,1:2|2:0,0:0:0:0:
357,113,138807,1,2,2:0:0:0:
357,113,138915,38,0,L|414:122,1,58.5779973220827,2|0,1:2|2:0,2:0:0:0:
275,211,139129,2,0,L|217:220,1,58.5779973220827,10|0,2:0|2:0,2:0:0:0:
416,133,139343,6,0,L|358:123,1,58.5779973220827,2|0,1:2|2:0,2:0:0:0:
277,226,139557,2,0,L|220:236,1,58.5779973220827,10|0,2:0|2:0,2:0:0:0:
457,305,139772,6,0,B|351:300|406:376|299:374,1,175.733991966248,2|0,1:2|2:0,2:0:0:0:
226,313,140200,2,0,P|202:245|150:232,1,117.155994644165,2|8,1:2|2:0,2:0:0:0:
79,221,140522,1,2,2:0:0:0:
79,221,140629,38,0,L|62:141,1,58.5779973220827,2|0,1:2|2:0,2:0:0:0:
175,72,140843,1,10,2:0:0:0:
175,72,140950,1,2,2:0:0:0:
175,72,141057,2,2,L|158:152,3,58.5779973220827,2|2|10|2,1:2|2:0|2:0|2:0,2:0:0:0:
294,17,141486,6,0,B|338:9|338:9|443:78,1,144,6|10,1:2|2:2,0:0:0:0:
443,82,141807,1,2,2:2:0:0:
443,82,141915,2,0,P|484:98|515:84,1,58.4999973220826,2|2,1:2|2:2,0:0:0:0:
357,167,142129,1,10,2:2:0:0:
357,167,142236,1,2,2:2:0:0:
357,167,142343,6,0,P|372:191|372:220,1,58.4999973220826,2|2,1:2|2:2,0:0:0:0:
262,320,142557,2,0,P|275:294|300:280,1,58.4999973220826,10|2,2:2|2:2,0:0:0:0:
443,326,142772,2,0,P|414:327|389:312,1,58.4999973220826,2|2,1:2|2:2,0:0:0:0:
140,300,142986,1,10,2:2:0:0:
174,305,143093,1,2,2:2:0:0:
204,310,143200,54,0,L|261:319,1,58.5779973220827,2|0,1:2|0:0,0:0:0:0:
143,203,143415,2,0,L|85:212,1,58.5779973220827,10|0,2:2|0:0,0:0:0:0:
234,126,143629,2,0,L|386:152,1,117.155994644165,2|10,1:2|2:2,0:0:0:0:
433,162,143950,1,2,2:2:0:0:
433,162,144057,54,0,P|442:126|440:99,2,58.5779973220827,2|2|10,1:2|2:2|2:2,0:0:0:0:
324,112,144379,2,0,P|333:76|331:49,2,58.5779973220827,2|2|2,2:2|1:2|2:2,0:0:0:0:
215,62,144700,2,0,P|224:26|222:-1,1,58.5779973220827,10|0,2:0|2:0,2:0:0:0:
72,15,144915,6,0,B|23:45|23:45|40:151,1,144,6|8,1:2|2:0,2:0:0:0:
56,213,145236,1,2,2:2:0:0:
56,213,145343,2,0,L|126:198,1,58.5779973220827,2|2,1:2|2:2,0:0:0:0:
239,320,145557,1,10,2:2:0:0:
213,313,145665,1,2,2:2:0:0:
186,307,145772,54,0,L|128:294,1,58.5779973220827,2|0,1:2|2:0,2:0:0:0:
248,224,145986,2,0,L|216:174,1,58.5779973220827,10|0,2:2|2:0,2:0:0:0:
351,372,146200,1,2,1:2:0:0:
337,334,146307,1,2,2:0:0:0:
345,289,146415,1,10,2:0:0:0:
373,257,146522,1,2,2:0:0:0:
409,231,146629,22,0,P|442:173|411:50,2,175.733991966248,8|8|8,1:3|1:3|1:3,0:0:0:0:
409,231,147486,1,4,1:2:0:0:
487,355,147915,38,2,L|517:338,1,29.5619986610413,10|2,1:2|0:2,0:2:0:0:
466,335,148022,2,2,L|483:305,1,29.5619986610413,10|2,0:2|0:2,0:2:0:0:
437,329,148129,2,2,L|437:294,1,29.5619986610413,10|2,1:2|0:2,0:2:0:0:
409,337,148236,2,2,L|392:306,1,29.5619986610413,10|2,0:2|0:2,0:2:0:0:
390,355,148343,22,0,B|345:328|285:342|325:389|257:402|210:368,1,175.733991966248,6|0,1:2|2:0,2:0:0:0:
120,258,148772,2,0,P|176:244|223:276,1,117.155994644165,2|8,1:2|2:0,2:0:0:0:
102,334,149093,1,2,2:0:0:0:
102,334,149200,54,0,L|113:261,1,58.5779973220827,2|0,1:2|2:0,2:0:0:0:
12,148,149415,2,0,L|23:221,1,58.5779973220827,10|0,2:0|2:0,2:0:0:0:
90,335,149629,6,0,L|101:262,1,58.5779973220827,2|0,1:2|2:0,2:0:0:0:
8,206,149843,2,0,L|0:149,1,59.1239973220827,10|0,2:0|2:0,2:0:0:0:
119,37,150057,38,0,B|188:27|188:27|221:50|221:50|303:40,1,175.733991966248,2|0,1:2|2:0,2:0:0:0:
398,101,150486,2,0,B|431:115|431:115|333:128,1,117.155994644165,2|8,1:2|2:0,2:0:0:0:
244,145,150807,1,2,2:0:0:0:
244,145,150915,6,0,P|244:186|264:225,1,58.5779973220827,2|0,1:2|2:0,2:0:0:0:
355,284,151129,2,0,P|355:243|335:204,1,58.5779973220827,10|0,2:0|2:0,2:0:0:0:
232,146,151343,6,0,P|232:187|252:226,1,58.5779973220827,2|0,1:2|2:0,2:0:0:0:
337,227,151557,2,0,P|344:255|343:285,1,58.5779973220827,10|0,2:0|2:0,2:0:0:0:
188,384,151772,38,0,B|165:361|132:366|132:366|79:318|118:242,1,175.499991966248,6|0,1:2|2:0,0:0:0:0:
60,176,152200,2,0,P|20:128|20:87,1,58.5779973220827,2|0,1:2|0:0,0:0:0:0:
176,8,152415,1,10,2:0:0:0:
152,9,152522,1,2,2:0:0:0:
131,19,152629,2,0,P|91:67|91:108,1,58.5779973220827,2|0,1:2|2:0,2:0:0:0:
149,179,152843,5,10,2:0:0:0:
171,174,152950,2,0,L|256:157,1,58.5779973220827,2|2,2:0|1:2,0:0:0:0:
267,65,153165,1,2,2:0:0:0:
289,70,153272,2,0,L|374:87,1,58.5779973220827,10|0,2:0|2:0,2:0:0:0:
483,5,153486,6,0,B|438:56|460:118|460:118|504:131|509:175,1,175.733991966248,2|0,1:2|2:0,2:0:0:0:
416,261,153915,2,0,P|469:235|517:280,1,117.155994644165,2|8,1:2|2:0,2:0:0:0:
463,345,154236,1,2,2:0:0:0:
463,345,154343,2,0,P|417:350|400:364,1,58.5779973220827,2|0,1:2|2:0,2:0:0:0:
315,338,154557,2,0,P|305:310|284:290,1,58.5779973220827,10|0,2:0|2:0,2:0:0:0:
122,350,154772,37,2,1:2:0:0:
134,312,154879,1,2,2:2:0:0:
175,312,154986,1,10,2:2:0:0:
188,350,155093,1,2,2:2:0:0:
155,373,155200,2,0,P|126:372|100:358,1,58.4999973220826,6|2,1:2|2:2,0:0:0:0:
48,221,155415,1,10,2:2:0:0:
48,221,155522,1,2,2:2:0:0:
48,221,155629,6,0,L|38:292,1,58.4999973220826,2|2,1:2|2:2,0:0:0:0:
67,114,155843,2,0,L|76:42,1,58.4999973220826,10|2,2:2|2:2,0:0:0:0:
195,178,156057,2,0,B|250:165|279:235|237:217|261:265|317:269,1,153.000002918243,2|8,1:2|2:2,0:0:0:0:
492,384,156486,5,2,1:2:0:0:
450,380,156593,1,2,2:2:0:0:
416,356,156700,1,10,2:2:0:0:
399,318,156807,1,2,2:2:0:0:
403,277,156915,2,0,P|393:247|384:216,1,62.9999980773926,2|2,1:2|2:2,0:0:0:0:
202,138,157129,37,10,2:2:0:0:
243,99,157236,1,2,2:2:0:0:
291,94,157343,2,0,P|321:99|346:118,1,62.9999980773926,2|0,1:2|2:0,2:0:0:0:
185,23,157557,2,0,P|215:18|240:0,1,62.9999980773926,10|0,2:0|2:0,2:0:0:0:
32,111,157772,6,0,P|95:138|129:237,1,144,2|8,1:2|2:0,0:0:0:0:
233,300,158200,1,2,1:2:0:0:
233,300,158307,1,2,2:2:0:0:
233,300,158415,2,0,L|156:282,1,62.9999980773926,10|0,2:0|2:0,2:0:0:0:
314,370,158629,6,0,P|343:359|361:334,1,62.9999980773926,2|0,1:2|2:0,0:0:0:0:
472,285,158843,2,0,P|442:274|424:249,1,62.9999980773926,10|8,1:2|1:2,0:0:0:0:
307,99,159057,2,2,P|309:116|331:137,1,31.4999990386963,10|2,1:3|0:0,0:0:0:0:
312,136,159165,2,2,P|321:150|351:157,1,29.5619986610413,10|2,1:3|0:0,0:0:0:0:
343,160,159272,2,2,P|358:167|387:158,1,29.5619986610413,10|2,1:2|0:0,0:0:0:0:
377,174,159379,2,2,P|394:171|415:149,1,29.5619986610413,2|2,0:0|0:0,0:0:0:0:
414,160,159486,2,2,P|427:149|434:119,1,29.5619986610413,10|2,1:2|0:0,0:0:0:0:
433,138,160343,37,6,1:2:0:0:
32,46,173415,69,0,1:0:0:0:
59,56,173522,1,0,1:0:0:0:
82,72,173629,1,0,1:0:0:0:
98,95,173736,1,0,1:0:0:0:
108,122,173843,1,10,1:3:0:0:
111,151,173950,1,10,1:3:0:0:
106,179,174057,22,0,P|44:211|41:308,2,135.18,6|2|2,1:2|2:0|2:0,2:0:0:0:
105,336,174915,2,0,P|169:322|224:359,2,135.18,10|2|2,1:2|2:0|2:0,2:0:0:0:
321,352,175772,38,0,P|388:345|456:341,2,135.18,2|2|2,1:2|2:0|2:0,0:0:0:0:
344,244,176629,2,0,P|381:239|428:236,2,67.5900000000001,10|0|2,1:2|0:0|2:0,2:0:0:0:
512,73,177486,6,0,P|453:90|417:178,2,135.18,6|2|2,1:2|2:0|2:0,2:0:0:0:
300,121,178343,2,0,P|314:61|256:-13,2,135.18,10|2|2,1:2|2:0|2:0,2:0:0:0:
202,192,179200,6,0,B|157:172|99:198|132:205|84:234|17:207,1,180.24,2|0,1:2|1:0,2:0:0:0:
30,211,179736,2,0,L|16:251,2,22.53,0|0|8,1:2|1:2|1:2,1:2:0:0:
44,337,179950,2,0,P|63:326|85:321,1,45.06,8|8,1:2|1:3,0:0:0:0:
191,355,180165,1,8,2:0:0:0:
205,369,180272,2,0,P|224:379|246:384,1,45.06,8|0,2:0|0:0,0:0:0:0:
407,236,180486,1,0,1:0:0:0:
382,247,180593,1,8,1:3:0:0:
368,273,180700,1,8,1:3:0:0:
366,303,180807,1,8,1:3:0:0:
376,331,180915,38,0,B|415:285|415:285|413:221|413:221|472:141,2,189.251994232178,6|6|6,1:2|1:2|1:2,2:0:0:0:
455,70,181772,1,0,1:0:0:0:
455,70,181879,1,8,1:2:0:0:
455,70,181986,2,0,P|407:80|390:95,1,63.0839980773927,8|8,1:3|1:2,0:0:0:0:
278,11,182200,2,0,P|280:29|277:46,5,30.012,8|8|8|8|8|8,1:2|1:2|1:3|1:3|1:3|1:3,0:0:0:0:
273,55,182629,6,0,B|201:23|149:76|149:76|161:121|130:150,2,202.770007724762,4|4|4,1:2|1:2|1:2,2:0:0:0:
31,94,183486,1,0,1:0:0:0:
42,118,183593,1,8,1:2:0:0:
48,144,183700,1,8,1:3:0:0:
44,170,183807,1,8,2:3:0:0:
33,195,183915,2,0,P|12:277|53:333,1,135.180005149842,12|8,2:0|1:3,0:0:0:0:
258,305,184343,6,0,B|206:323|206:323|195:347|195:347|134:369,1,135.18,4|0,1:2|0:0,0:0:0:0:
115,377,184772,1,8,1:3:0:0:
277,299,184986,1,8,1:3:0:0:
434,384,185200,37,8,1:3:0:0:
396,266,185415,1,8,1:3:0:0:
474,147,185629,1,8,1:3:0:0:
512,29,185843,1,8,1:3:0:0:
336,179,186057,6,0,B|273:151|273:151|244:109|259:10|350:7,1,234.311989288331,12|8,1:2|1:3,0:0:0:0:
349,187,186700,1,8,1:3:0:0:
146,118,186915,1,8,1:3:0:0:
15,286,187129,1,8,1:3:0:0:
218,217,187343,1,8,1:3:0:0:
149,14,187557,2,0,L|75:35,1,58.5779973220827,8|8,1:3|1:3,0:0:0:0:
8,131,187772,6,0,B|41:156|41:216|15:189|8:245|50:280,1,153.204002918243,14|0,1:2|2:0,2:0:0:0:
140,364,188093,2,0,B|106:339|106:279|132:306|139:250|97:215,1,153.204002918243,6|0,1:2|1:0,2:0:0:0:
8,131,188415,2,0,P|41:119|74:125,1,58.5779973220827,8|8,1:3|1:2,0:0:0:0:
152,273,188629,38,0,B|223:259|223:259|229:263|229:263|324:245,1,153.204002918243,14|0,1:2|2:0,2:0:0:0:
445,205,188950,2,0,B|374:219|374:219|368:215|368:215|273:233,1,153.204002918243,6|8,1:2|1:2,2:0:0:0:
315,327,189272,2,0,L|301:249,1,58.5779973220827,8|0,1:3|0:0,0:0:0:0:
398,17,189486,6,0,P|489:19|540:45,1,117.155994644165,6|0,1:2|2:0,2:0:0:0:
373,117,189807,2,0,P|435:182|453:237,1,117.155994644165,6|0,1:2|2:0,2:0:0:0:
285,156,190129,2,0,P|289:184|289:214,1,58.5779973220827,6|0,1:2|2:0,2:0:0:0:
116,29,190343,6,0,L|-3:17,1,117.155994644165,6|0,1:2|2:0,2:0:0:0:
168,167,190665,2,0,L|287:155,1,117.155994644165,6|0,1:2|2:0,2:0:0:0:
79,293,190986,2,0,L|-28:282,1,58.5779973220827,6|0,1:2|2:0,2:0:0:0:
292,264,191200,38,0,B|276:315|276:315|271:318|271:318|254:374,1,117.155994644165,14|2,1:2|2:2,0:0:0:0:
447,150,191522,2,0,B|463:201|463:201|468:204|468:204|486:260,1,117.155994644165,14|0,1:2|0:0,0:0:0:0:
370,24,191843,2,0,B|360:53|360:53|358:55|358:55|348:85,1,58.5779973220827,14|0,1:2|0:0,0:0:0:0:
256,192,192057,6,0,L|216:175,1,40.5539987640381,14|10,1:2|1:2,0:0:0:0:
88,68,192486,1,12,1:2:0:0:
89,78,192593,1,8,1:2:0:0:
87,88,192700,1,8,1:2:0:0:
83,98,192807,1,8,1:2:0:0:
75,105,192915,6,0,P|67:118|62:133,3,22.5,10|8|8|8,1:2|1:2|1:3|1:3,2:0:0:0:
60,336,193343,2,0,B|5:354|-15:304|3:271|62:256|126:277|63:337|136:379|212:344,1,270.36,14|0,1:2|1:0,2:0:0:0:
292,195,194200,1,8,1:2:0:0:
274,206,194307,1,8,1:2:0:0:
264,224,194415,2,0,P|259:281|298:321,1,90.1200000000001,8|0,1:3|2:0,0:0:0:0:
275,306,195486,38,0,L|304:300,1,27.0359991760254,8|0,1:3|1:0,0:0:0:0:
326,300,195807,1,8,2:0:0:0:
326,300,195915,1,8,2:0:0:0:
512,192,196129,1,8,2:0:0:0:
409,6,196343,6,0,P|421:6|440:15,3,30.04,8|8|8|8,1:3|1:3|1:3|1:3,0:0:0:0:
291,116,196772,2,0,B|233:106|233:106|187:135|187:135|122:125,1,175.733991966248,14|0,1:2|2:0,2:0:0:0:
116,13,197200,6,0,P|93:82|120:144,1,117.155994644165,6|0,1:2|2:0,2:0:0:0:
6,175,197522,2,0,P|54:229|121:237,1,117.155994644165,6|0,1:2|2:0,2:0:0:0:
91,351,197843,2,0,P|120:351|148:344,1,58.5779973220827,6|0,1:2|2:0,2:0:0:0:
251,199,198057,22,0,L|234:297,2,78.1949964294436,10|8|8,1:3|1:2|1:3,0:0:0:0:
360,356,198486,2,0,L|373:279,2,78.1949964294436,10|8|8,1:3|1:3|1:2,0:0:0:0:
499,181,198915,53,2,1:2:0:0:
469,176,199057,1,8,1:2:0:0:
445,173,199200,1,8,1:3:0:0:
392,80,199343,2,0,L|438:87,1,40.5539987640381,14|0,1:2|0:0,0:0:0:0:
363,77,199772,22,0,B|308:60|308:60|277:24|277:24|196:29,1,180.24,6|8,1:2|1:3,0:0:0:0:
137,173,200415,1,8,1:3:0:0:
229,115,200629,1,8,1:3:0:0:
86,89,200843,1,8,1:3:0:0:
60,232,201057,1,8,1:3:0:0:
144,169,201272,1,8,1:3:0:0:
225,333,201486,6,0,P|283:266|374:277,1,180,12|8,1:2|1:3,0:0:0:0:
512,384,202129,1,8,1:3:0:0:
375,280,202343,5,8,1:3:0:0:
499,169,202557,1,8,1:3:0:0:
416,8,202772,37,8,1:3:0:0:
491,156,202986,1,8,1:3:0:0:
268,160,203200,6,0,B|201:113|129:125|129:125|97:81|134:36,1,216.287993408203,12|8,1:2|1:3,0:0:0:0:
282,178,203843,1,8,1:3:0:0:
35,359,204057,5,8,1:3:0:0:
106,173,204272,1,8,1:3:0:0:
274,384,204486,1,8,1:3:0:0:
55,364,204700,1,8,1:3:0:0:
282,331,204915,38,0,L|277:366,3,36.0143989013672,14|0|0|0,1:2|1:2|1:2|1:2,1:2:0:0:
364,297,205236,2,0,L|359:261,3,35.9999989013672,2|0|0|0,1:2|1:2|1:2|1:2,1:2:0:0:
437,349,205557,2,0,L|432:384,2,36.2159989013672,14|0|0,1:2|1:2|1:2,1:2:0:0:
490,269,205772,2,0,L|478:186,1,67.5900025749209,6|0,1:2|0:2,1:2:0:0:
498,33,206200,22,2,L|452:32,1,34.1100012874604,10|2,1:2|0:2,0:2:0:0:
453,45,206307,2,2,L|408:52,1,34.1100012874604,10|2,1:2|0:2,0:2:0:0:
408,40,206415,2,2,L|362:39,1,34.1100012874604,10|2,1:2|0:2,0:2:0:0:
364,53,206522,2,2,L|319:60,1,33.4800012874604,10|2,1:2|0:2,0:2:0:0:
318,48,206629,54,0,B|256:42|256:42|215:16|215:16|151:9,1,175.733991966248,6|0,1:2|2:0,2:0:0:0:
80,126,207057,2,0,P|136:142|184:91,1,117.155994644165,2|8,1:2|2:0,2:0:0:0:
60,108,207379,1,2,2:0:0:0:
60,108,207486,6,0,P|39:160|59:204,1,58.5779973220827,2|0,1:2|0:0,2:0:0:0:
46,289,207700,2,0,P|23:270|10:244,1,58.5779973220827,10|0,0:0|2:0,0:0:0:0:
51,102,207915,38,0,P|30:154|50:198,1,58.5779973220827,2|0,1:2|2:0,2:0:0:0:
0,250,208129,2,0,P|12:276|35:294,1,58.5779973220827,10|0,2:0|2:0,2:0:0:0:
207,230,208343,6,0,B|154:243|154:243|124:309|176:372,1,175.733991966248,2|0,1:2|2:0,2:0:0:0:
254,319,208772,2,0,P|316:314|373:360,1,117.155994644165,2|8,1:2|2:0,2:0:0:0:
461,302,209093,1,2,2:0:0:0:
461,302,209200,6,0,P|461:265|474:238,1,58.5779973220827,2|0,1:2|2:0,2:0:0:0:
500,136,209415,2,0,P|471:141|447:157,1,58.5779973220827,10|0,2:0|2:0,2:0:0:0:
451,302,209629,38,0,P|451:265|464:238,1,58.5779973220827,2|0,1:2|2:0,2:0:0:0:
443,148,209843,2,0,P|467:132|496:127,1,59.1239973220827,10|0,2:0|2:0,2:0:0:0:
286,48,210057,6,0,B|236:66|200:32|200:32|156:-6|67:26,1,175.733991966248,6|0,1:2|2:0,0:0:0:0:
30,94,210486,2,0,P|36:138|100:189,1,117.155994644165,2|10,1:2|2:0,0:0:0:0:
216,230,210807,1,2,2:0:0:0:
216,230,210915,6,0,L|134:248,1,58.5779973220827,2|0,1:2|2:0,2:0:0:0:
37,322,211129,2,0,L|94:334,1,58.5779973220827,10|0,2:0|2:0,2:0:0:0:
213,217,211343,54,0,L|131:235,1,58.5779973220827,2|0,1:2|2:0,2:0:0:0:
99,323,211557,2,0,L|42:311,1,58.5779973220827,10|0,2:0|2:0,2:0:0:0:
312,384,211772,54,0,B|387:358|387:358|401:333|401:333|480:307,1,175.733991966248,2|0,1:2|2:0,2:0:0:0:
506,196,212200,2,0,P|450:192|428:141,1,116.999994644165,2|8,1:2|2:0,2:0:0:0:
436,120,212522,1,2,2:0:0:0:
436,120,212629,6,0,L|491:101,1,58.4999973220826,2|0,1:2|2:0,2:0:0:0:
314,55,212843,1,10,2:0:0:0:
314,55,212950,1,2,2:0:0:0:
314,55,213057,2,0,L|295:0,3,58.4999973220826,2|2|10|2,1:2|2:0|2:0|2:0,2:0:0:0:
225,199,213486,2,0,P|169:197|137:125,1,116.999994644165,6|10,1:2|2:2,0:0:0:0:
137,130,213807,1,2,2:2:0:0:
137,130,213915,6,0,L|68:119,1,58.4999973220826,2|2,1:2|2:2,0:0:0:0:
96,0,214129,2,0,L|153:9,1,58.4999973220826,10|2,2:2|2:2,0:0:0:0:
284,131,214343,2,0,P|247:193|226:262,1,144,2|10,1:2|2:2,0:0:0:0:
296,384,214772,37,2,1:2:0:0:
318,350,214879,1,2,2:2:0:0:
353,328,214986,1,10,2:2:0:0:
393,330,215093,1,2,2:2:0:0:
427,350,215200,2,0,P|460:360|494:349,1,72,2|2,1:2|2:2,0:0:0:0:
512,196,215415,5,10,2:2:0:0:
502,150,215522,1,2,2:2:0:0:
492,104,215629,2,0,L|468:8,1,58.4999973220826,2|0,1:2|2:0,2:0:0:0:
393,191,215843,2,0,L|379:247,1,58.4999973220826,10|0,2:0|2:0,2:0:0:0:
255,72,216057,6,0,B|191:57|191:57|179:27|179:27|100:14,1,161.999995056153,2|8,1:2|0:0,0:0:0:0:
55,119,216486,37,2,1:2:0:0:
55,119,216593,1,2,0:0:0:0:
55,119,216700,2,0,B|29:114|29:114|28:111|28:111|0:105,1,58.4999973220826,10|0,2:0|2:0,0:0:0:0:
79,276,216915,2,0,B|150:262|150:262|153:254|153:254|214:241,1,144,6|10,1:2|2:2,0:0:0:0:
317,348,217343,5,2,1:2:0:0:
295,317,217450,1,2,2:2:0:0:
258,329,217557,1,10,2:2:0:0:
258,366,217665,1,2,2:2:0:0:
295,384,217772,6,0,P|335:346|328:299,3,58.5779973220827,2|2|10|2,1:2|0:0|0:0|0:0,0:0:0:0:
367,217,218200,2,0,P|366:245|380:271,1,58.5779973220827,2|2,1:2|2:2,0:0:0:0:
475,362,218415,2,0,P|450:347|421:346,1,58.5779973220827,10|2,2:2|2:2,0:0:0:0:
282,384,218629,54,0,L|272:310,3,58.4999973220826,6|2|10|2,1:2|0:0|0:0|2:0,2:0:0:0:
286,232,219057,1,2,1:2:0:0:
270,203,219164,1,2,2:0:0:0:
242,188,219271,1,10,2:0:0:0:
211,187,219378,1,2,2:0:0:0:
184,204,219486,6,2,P|156:215|127:214,1,58.4999973220826,2|2,1:2|0:0,0:0:0:0:
50,257,219700,2,0,P|26:238|12:212,1,58.4999973220826,10|2,2:0|2:0,0:0:0:0:
95,129,219915,2,0,P|71:110|57:84,3,58.4999973220826,2|2|10|2,1:2|2:0|2:0|2:0,0:0:0:0:
72,0,220343,1,2,1:2:0:0:
286,44,220557,37,10,1:2:0:0:
295,91,220665,1,8,1:2:0:0:
306,140,220772,1,8,1:3:0:0:
316,189,220879,1,8,1:3:0:0:
326,237,220986,2,0,L|383:245,3,38.9999982147218,10|2|2|10,1:2|2:0|2:0|1:2,0:0:0:0:
415,334,221415,6,2,L|463:314,2,38.9999982147218,2|2|2,1:2|0:2|1:2,2:2:0:0:
232,343,221629,2,0,B|176:275|97:322|97:322|109:371|78:401,1,216.288,6|0,1:2|0:0,0:0:0:0:
15,275,222057,54,0,B|27:206|27:206|32:201|32:201|47:114,1,144.192,6|0,1:2|2:0,2:0:0:0:
95,0,222379,2,0,B|83:69|83:69|78:74|78:74|63:161,1,144.192,6|8,1:2|2:0,2:0:0:0:
136,179,222700,2,0,L|52:165,1,72.0960000000001,8|8,1:3|1:2,0:0:0:0:
260,77,222915,6,0,B|295:54|338:66|321:83|365:96|413:69,1,144.192,6|0,1:2|2:0,2:0:0:0:
505,0,223236,2,0,B|470:23|427:11|444:-6|400:-19|352:8,1,144.192,6|8,1:2|1:2,0:0:0:0:
260,77,223557,2,0,P|260:110|296:160,1,72.0960000000001,8|8,1:3|1:2,0:0:0:0:
481,157,223772,6,0,B|429:173|429:173|418:209|418:209|339:235,1,144.192,6|0,1:2|2:0,2:0:0:0:
306,300,224093,2,0,B|358:284|358:284|369:248|369:248|448:222,1,144.192,6|8,1:2|2:0,0:0:0:0:
507,294,224415,2,0,L|424:317,1,72.0960000000001,8|8,1:3|1:2,0:0:0:0:
253,383,224629,38,0,B|220:366|186:359|186:359|169:273|243:229,1,216.288,6|6,1:2|1:2,2:0:0:0:
164,161,225057,53,8,2:0:0:0:
74,165,225200,53,0,1:0:0:0:
28,244,225343,5,8,1:2:0:0:
64,324,225486,6,0,B|76:243|76:243|51:212|51:212|67:95,1,216.288,6|6,1:2|1:2,2:0:0:0:
192,30,226022,1,8,1:2:0:0:
196,59,226129,2,0,L|206:123,1,45.06,8|8,1:3|1:3,0:0:0:0:
321,188,226343,2,0,L|390:177,1,63.0839980773927,6|0,1:2|0:0,0:0:0:0:
383,178,228700,38,0,L|381:166,4,10.5262496795654,2|2|2|2|6,2:0|2:0|2:0|2:0|2:0,0:0:0:0:
256,192,229057,12,0,237486,2:0:0:0:
