osu file format v14

[General]
AudioFilename: audio.mp3
AudioLeadIn: 0
PreviewTime: 57272
Countdown: 0
SampleSet: Soft
StackLeniency: 0.2
Mode: 0
LetterboxInBreaks: 0
WidescreenStoryboard: 0

[Editor]
Bookmarks: 6218,13129,26843,40557,47415,50843,57700,71415,86843,90218,103986,117700,124557,127986,134843,148557,160557,174218,181129,184557,193129,206843,222218
DistanceSpacing: 0.5
BeatDivisor: 4
GridSize: 4
TimelineZoom: 2

[Metadata]
Title:I wanna be a girl
TitleUnicode:女の子になりたい
Artist:mafumafu
ArtistUnicode:まふまふ
Creator:Night Mare
Version:Can I Become One, Please?
Source:
Tags:Onnanoko Onna No Ko Ni Naritai luna want to utaite japanese male vocals jpop j-pop Tanaka Hidekazu 神楽色アーティファクト Kagurairo Artifact MONACA papple104 zelq TheBlank 田中秀和 pop pappl_e_104
BeatmapID:2238336
BeatmapSetID:1069248

[Difficulty]
HPDrainRate:6
CircleSize:3.5
OverallDifficulty:9
ApproachRate:9.2
SliderMultiplier:2.8
SliderTickRate:2

[Events]
//Background and Video events
0,0,"image.jpg",0,0
Video,-200,"video.mp4"
//Break Periods
2,160543,172343
//Storyboard Layer 0 (Background)
//Storyboard Layer 1 (Fail)
//Storyboard Layer 2 (Pass)
//Storyboard Layer 3 (Foreground)
//Storyboard Layer 4 (Overlay)
//Storyboard Sound Samples

[TimingPoints]
915,428.571428571429,4,2,1,50,1,0
6057,-90.9090909090909,4,2,2,75,0,0
6271,-90.9090909090909,4,2,99,5,0,0
6379,-90.9090909090909,4,2,1,75,0,0
6593,-90.9090909090909,4,2,99,5,0,0
6700,-90.9090909090909,4,2,1,75,0,0
6915,-90.9090909090909,4,2,2,75,0,0
7129,-90.9090909090909,4,2,99,5,0,0
7236,-90.9090909090909,4,2,1,75,0,0
7772,-90.9090909090909,4,2,2,75,0,0
7986,-90.9090909090909,4,2,99,5,0,0
8093,-90.9090909090909,4,2,1,75,0,0
8629,-90.9090909090909,4,2,2,75,0,0
8843,-90.9090909090909,4,2,99,5,0,0
8950,-90.9090909090909,4,2,1,75,0,0
9486,-90.9090909090909,4,2,2,75,0,0
9700,-90.9090909090909,4,2,99,5,0,0
9807,-90.9090909090909,4,2,1,75,0,0
10343,-90.9090909090909,4,2,2,75,0,0
10557,-90.9090909090909,4,2,99,5,0,0
10665,-90.9090909090909,4,2,1,75,0,0
11200,-76.9230769230769,4,2,2,75,0,0
11414,-76.9230769230769,4,2,99,5,0,0
11522,-76.9230769230769,4,2,1,75,0,0
11736,-76.9230769230769,4,2,99,5,0,0
11843,-76.9230769230769,4,2,1,75,0,0
12379,-76.9230769230769,4,2,1,72,0,0
12486,-76.9230769230769,4,2,1,69,0,0
12593,-76.9230769230769,4,2,1,66,0,0
12700,-76.9230769230769,4,2,1,63,0,0
12807,-76.9230769230769,4,2,1,60,0,0
12915,-76.9230769230769,4,2,2,60,0,0
13343,-125,4,2,2,60,0,0
17093,-125,4,2,99,5,0,0
17200,-125,4,2,2,60,0,0
18593,-125,4,2,99,5,0,0
18700,-125,4,2,2,60,0,0
20307,-125,4,2,99,5,0,0
20415,-125,4,2,2,60,0,0
22021,-125,4,2,99,5,0,0
22129,-125,4,2,2,60,0,0
23736,-125,4,2,99,5,0,0
23843,-125,4,2,2,60,0,0
24378,-125,4,2,99,5,0,0
24486,-125,4,2,2,60,0,0
24807,-125,4,2,99,5,0,0
24915,-125,4,2,2,60,0,0
26629,-125,4,2,1,60,0,0
26843,-117.647058823529,4,2,1,60,0,0
27164,-117.647058823529,4,2,99,5,0,0
27272,-117.647058823529,4,2,1,60,0,0
30593,-117.647058823529,4,2,99,5,0,0
30700,-117.647058823529,4,2,1,60,0,0
32307,-117.647058823529,4,2,99,5,0,0
32415,-117.647058823529,4,2,1,60,0,0
34021,-117.647058823529,4,2,99,5,0,0
34129,-117.647058823529,4,2,1,60,0,0
34986,-117.647058823529,4,2,2,60,0,0
35200,-117.647058823529,4,2,2,65,0,0
35629,-117.647058823529,4,2,1,65,0,0
36057,-117.647058823529,4,2,2,65,0,0
36915,-117.647058823529,4,2,2,60,0,0
37450,-117.647058823529,4,2,99,5,0,0
37557,-117.647058823529,4,2,2,60,0,0
39486,-100,4,2,2,60,0,0
39915,-100,4,2,1,60,0,0
40343,-166.666666666667,4,2,2,50,0,0
46986,-166.666666666667,4,2,1,50,0,0
47200,-90.9090909090909,4,2,2,65,0,0
47522,-76.9230769230769,4,2,1,65,0,0
47843,-66.6666666666667,4,2,1,65,0,0
48915,-90.9090909090909,4,2,2,65,0,0
49236,-66.6666666666667,4,2,1,65,0,0
49557,-50,4,2,1,65,0,0
49986,-100,4,2,1,65,0,0
50629,-100,4,2,2,65,0,0
51057,-125,4,2,1,55,0,0
51272,-125,4,2,1,57,0,0
51486,-100,4,2,1,59,0,0
51700,-100,4,2,1,61,0,0
51915,-83.3333333333333,4,2,1,63,0,0
52129,-83.3333333333333,4,2,1,65,0,0
52343,-83.3333333333333,4,2,1,70,0,0
52557,-83.3333333333333,4,2,1,65,0,0
52986,-83.3333333333333,4,2,1,67,0,0
53415,-83.3333333333333,4,2,1,69,0,0
54057,-66.6666666666667,4,2,2,75,0,0
54271,-66.6666666666667,4,2,99,5,0,0
54379,-66.6666666666667,4,2,1,75,0,0
54593,-66.6666666666667,4,2,99,5,0,0
54700,-66.6666666666667,4,2,1,75,0,0
54915,-66.6666666666667,4,2,2,75,0,0
55129,-66.6666666666667,4,2,99,5,0,0
55236,-66.6666666666667,4,2,1,75,0,0
55450,-66.6666666666667,4,2,99,5,0,0
55557,-66.6666666666667,4,2,1,75,0,0
55772,-66.6666666666667,4,2,2,75,0,0
56200,-76.9230769230769,4,2,2,75,0,0
56415,-76.9230769230769,4,2,1,75,0,0
57057,-76.9230769230769,4,2,2,75,0,0
57486,-71.4285714285714,4,2,3,85,0,1
57700,-71.4285714285714,4,2,1,85,0,1
59521,-71.4285714285714,4,2,99,5,0,1
59629,-71.4285714285714,4,2,1,85,0,1
67557,-100,4,2,1,85,0,1
67772,-71.4285714285714,4,2,1,85,0,1
69486,-71.4285714285714,4,2,1,85,0,0
70343,-71.4285714285714,4,2,2,85,0,0
70772,-71.4285714285714,4,2,2,85,0,1
70843,-71.4285714285714,4,2,2,85,0,0
71200,-71.4285714285714,4,2,3,85,0,1
71414,-71.4285714285714,4,2,1,85,0,1
72378,-71.4285714285714,4,2,99,5,0,1
72486,-71.4285714285714,4,2,1,85,0,1
73236,-71.4285714285714,4,2,99,5,0,1
73343,-71.4285714285714,4,2,1,85,0,1
76236,-71.4285714285714,4,2,99,5,0,1
76343,-71.4285714285714,4,2,1,85,0,1
85772,-71.4285714285714,4,2,1,85,0,0
86200,-71.4285714285714,4,2,1,55,0,0
86629,-66.6666666666667,4,2,2,75,0,0
86843,-66.6666666666667,4,2,99,5,0,0
86950,-66.6666666666667,4,2,1,75,0,0
87164,-66.6666666666667,4,2,99,5,0,0
87272,-66.6666666666667,4,2,1,75,0,0
87486,-66.6666666666667,4,2,2,75,0,0
87700,-66.6666666666667,4,2,99,5,0,0
87807,-66.6666666666667,4,2,1,75,0,0
88343,-66.6666666666667,4,2,2,75,0,0
88557,-66.6666666666667,4,2,99,5,0,0
88665,-66.6666666666667,4,2,1,75,0,0
88879,-66.6666666666667,4,2,99,5,0,0
88986,-66.6666666666667,4,2,1,75,0,0
89522,-66.6666666666667,4,2,1,72,0,0
89629,-66.6666666666667,4,2,1,69,0,0
89736,-66.6666666666667,4,2,1,66,0,0
89843,-66.6666666666667,4,2,1,63,0,0
89950,-66.6666666666667,4,2,1,60,0,0
90057,-66.6666666666667,4,2,2,60,0,0
91557,-66.6666666666667,4,2,1,60,0,0
92629,-117.647058823529,4,2,1,60,0,0
95736,-117.647058823529,4,2,99,5,0,0
95843,-117.647058823529,4,2,1,60,0,0
97450,-117.647058823529,4,2,99,5,0,0
97557,-117.647058823529,4,2,1,60,0,0
99164,-117.647058823529,4,2,99,5,0,0
99272,-117.647058823529,4,2,1,60,0,0
100879,-117.647058823529,4,2,99,5,0,0
100986,-117.647058823529,4,2,1,60,0,0
101521,-117.647058823529,4,2,99,5,0,0
101629,-117.647058823529,4,2,1,60,0,0
101950,-117.647058823529,4,2,99,5,0,0
102057,-117.647058823529,4,2,1,60,0,0
103129,-68.9655172413793,4,2,1,60,0,0
103343,-80,4,2,1,60,0,0
103557,-95.2380952380952,4,2,1,60,0,0
103772,-95.2380952380952,4,2,2,60,0,0
104200,-111.111111111111,4,2,2,60,0,0
107039,-111.111111111111,4,2,99,5,0,0
107200,-111.111111111111,4,2,2,60,0,0
107253,-111.111111111111,4,2,99,5,0,0
107415,-111.111111111111,4,2,2,60,0,0
109450,-111.111111111111,4,2,99,5,0,0
109557,-111.111111111111,4,2,2,60,0,0
110629,-111.111111111111,4,2,1,60,0,0
111164,-111.111111111111,4,2,99,5,0,0
111272,-111.111111111111,4,2,2,60,0,0
111915,-111.111111111111,4,2,1,60,0,0
112343,-111.111111111111,4,2,2,65,0,0
112772,-111.111111111111,4,2,1,65,0,0
114057,-111.111111111111,4,2,2,60,0,0
114593,-111.111111111111,4,2,99,5,0,0
114700,-111.111111111111,4,2,2,60,0,0
115450,-111.111111111111,4,2,99,5,0,0
115557,-111.111111111111,4,2,2,60,0,0
116629,-99.9999999999999,4,2,2,60,0,0
117057,-99.9999999999999,4,2,1,60,0,0
117486,-166.666666666667,4,2,2,50,0,0
119200,-153.846153846154,4,2,2,50,0,0
124129,-153.846153846154,4,2,1,50,0,0
124343,-90.9090909090909,4,2,2,65,0,0
124557,-90.9090909090909,4,2,99,5,0,0
124665,-76.9230769230769,4,2,1,65,0,0
124879,-76.9230769230769,4,2,99,5,0,0
124986,-66.6666666666667,4,2,1,65,0,0
125200,-66.6666666666667,4,2,99,5,0,0
125415,-66.6666666666667,4,2,1,50,0,0
126057,-71.4285714285714,4,2,2,65,0,0
126271,-71.4285714285714,4,2,99,5,0,0
126379,-55.5555555555556,4,2,1,65,0,0
126593,-55.5555555555556,4,2,99,5,0,0
126700,-55.5555555555556,4,2,1,65,0,0
127129,-111.111111111111,4,2,1,65,0,0
127772,-111.111111111111,4,2,2,65,0,0
128200,-125,4,2,1,55,0,0
128629,-100,4,2,1,55,0,0
128843,-100,4,2,1,61,0,0
129057,-83.3333333333333,4,2,1,63,0,0
129486,-83.3333333333333,4,2,1,70,0,0
129700,-83.3333333333333,4,2,1,65,0,0
130129,-83.3333333333333,4,2,1,67,0,0
130557,-83.3333333333333,4,2,1,69,0,0
131200,-66.6666666666667,4,2,2,75,0,0
131414,-66.6666666666667,4,2,99,5,0,0
131522,-66.6666666666667,4,2,1,75,0,0
132057,-66.6666666666667,4,2,2,75,0,0
132379,-58.8235294117647,4,2,1,75,0,0
132915,-58.8235294117647,4,2,2,75,0,0
133343,-76.9230769230769,4,2,2,75,0,0
133557,-76.9230769230769,4,2,1,75,0,0
134200,-76.9230769230769,4,2,2,75,0,0
134629,-66.6666666666667,4,2,3,85,0,1
134843,-66.6666666666667,4,2,1,85,0,1
136664,-66.6666666666667,4,2,99,5,0,1
136772,-66.6666666666667,4,2,1,85,0,1
144700,-90.9090909090909,4,2,1,85,0,1
144915,-66.6666666666667,4,2,1,85,0,1
146629,-66.6666666666667,4,2,1,85,0,0
147486,-66.6666666666667,4,2,2,85,0,0
147915,-66.6666666666667,4,2,2,85,0,1
147986,-66.6666666666667,4,2,2,85,0,0
148343,-66.6666666666667,4,2,3,85,0,1
148557,-66.6666666666667,4,2,1,85,0,1
150378,-66.6666666666667,4,2,99,5,0,1
150486,-66.6666666666667,4,2,1,85,0,1
153807,-66.6666666666667,4,2,99,5,0,1
153915,-66.6666666666667,4,2,1,85,0,1
159486,-66.6666666666667,4,2,1,85,0,0
159915,-66.6666666666667,4,2,1,55,0,0
160343,-66.6666666666667,4,2,2,70,0,0
173843,-66.6666666666667,4,2,1,60,0,0
174057,-142.857142857143,4,2,2,60,0,0
180057,-142.857142857143,4,2,1,60,0,0
180915,-90.9090909090909,4,2,2,70,0,0
181129,-90.9090909090909,4,2,99,5,0,0
181236,-76.9230769230769,4,2,1,70,0,0
181450,-76.9230769230769,4,2,99,5,0,0
181557,-66.6666666666667,4,2,1,70,0,0
182629,-66.6666666666667,4,2,2,70,0,0
182843,-66.6666666666667,4,2,99,5,0,0
182950,-52.6315789473684,4,2,1,70,0,0
183164,-52.6315789473684,4,2,99,5,0,0
183272,-52.6315789473684,4,2,1,70,0,0
183486,-83.3333333333333,4,2,1,70,0,0
184343,-83.3333333333333,4,2,2,70,0,0
184772,-125,4,2,1,55,0,0
185200,-100,4,2,1,55,0,0
185415,-100,4,2,1,61,0,0
185629,-83.3333333333333,4,2,1,63,0,0
186057,-83.3333333333333,4,2,1,70,0,0
186272,-83.3333333333333,4,2,1,65,0,0
186700,-83.3333333333333,4,2,1,67,0,0
187129,-83.3333333333333,4,2,1,69,0,0
187772,-66.6666666666667,4,2,2,75,0,0
188093,-66.6666666666667,4,2,1,75,0,0
188629,-66.6666666666667,4,2,2,75,0,0
188950,-66.6666666666667,4,2,1,75,0,0
189486,-58.8235294117647,4,2,2,75,0,0
189807,-58.8235294117647,4,2,1,75,0,0
190343,-58.8235294117647,4,2,2,75,0,0
190665,-58.8235294117647,4,2,1,75,0,0
191200,-58.8235294117647,4,2,2,75,0,0
191629,-76.9230769230769,4,2,2,75,0,0
191843,-76.9230769230769,4,2,1,75,0,0
192486,-76.9230769230769,4,2,2,75,0,0
192915,-142.857142857143,4,2,2,75,0,0
193022,-142.857142857143,4,2,1,75,0,0
193343,-1000,4,2,2,75,0,1
193450,-1000,4,2,2,75,0,0
193986,-1000,4,2,2,60,0,0
194200,-142.857142857143,4,2,2,60,0,0
194415,-142.857142857143,4,2,1,60,0,0
195486,-142.857142857143,4,2,1,50,0,0
196772,-66.6666666666667,4,2,2,80,0,1
197200,-62.5,4,2,1,80,0,1
199343,-62.5,4,2,2,80,0,1
199772,-62.5,4,2,2,60,0,0
200200,-62.5,4,2,1,60,0,0
201486,-62.5,4,2,1,65,0,1
201593,-62.5,4,2,1,65,0,0
203200,-62.5,4,2,1,70,0,1
203307,-62.5,4,2,1,70,0,0
204915,-66.6666666666667,4,2,4,75,0,0
205450,-66.6666666666667,4,2,99,5,0,0
205557,-66.6666666666667,4,2,4,75,0,0
205772,-66.6666666666667,4,2,2,75,0,0
206200,-66.6666666666667,4,2,2,75,0,1
206272,-66.6666666666667,4,2,2,75,0,0
206629,-66.6666666666667,4,2,3,85,0,1
206843,-66.6666666666667,4,2,1,85,0,1
207807,-66.6666666666667,4,2,99,5,0,1
207915,-66.6666666666667,4,2,1,85,0,1
208664,-66.6666666666667,4,2,99,5,0,1
208772,-66.6666666666667,4,2,1,85,0,1
212093,-66.6666666666667,4,2,99,5,0,1
212200,-66.6666666666667,4,2,1,85,0,1
218629,-71.4285714285714,4,2,1,85,0,1
218950,-71.4285714285714,4,2,99,5,0,1
219057,-71.4285714285714,4,2,1,85,0,1
221200,-71.4285714285714,4,2,1,85,0,0
221415,-66.6666666666667,4,2,1,85,0,0
221629,-66.6666666666667,4,2,2,85,0,1
222057,-66.6666666666667,4,2,2,80,0,0
222271,-66.6666666666667,4,2,99,5,0,0
222379,-66.6666666666667,4,2,1,80,0,0
222915,-66.6666666666667,4,2,2,80,0,0
223129,-66.6666666666667,4,2,99,5,0,0
223236,-66.6666666666667,4,2,1,80,0,0
223772,-66.6666666666667,4,2,2,80,0,0
223986,-66.6666666666667,4,2,99,5,0,0
224093,-66.6666666666667,4,2,1,80,0,0
224629,-66.6666666666667,4,2,2,80,0,0
224843,-66.6666666666667,4,2,99,5,0,0
224950,-66.6666666666667,4,2,1,80,0,0
225486,-66.6666666666667,4,2,2,80,0,0
225700,-66.6666666666667,4,2,99,5,0,0
225807,-66.6666666666667,4,2,1,80,0,0
226343,-66.6666666666667,4,2,2,80,0,0
228700,-66.6666666666667,4,2,2,50,0,0
228986,-66.6666666666667,4,2,3,60,0,1
229057,-66.6666666666667,4,2,3,60,0,0
230629,-66.6666666666667,4,2,3,50,0,0
232343,-66.6666666666667,4,2,3,40,0,0
234057,-66.6666666666667,4,2,3,30,0,0
235772,-66.6666666666667,4,2,3,20,0,0
237486,-66.6666666666667,4,2,99,5,0,0

[Colours]
Combo1 : 255,0,255
Combo2 : 255,191,191
Combo3 : 222,191,255
Combo4 : 223,223,223
Combo5 : 255,113,255

[HitObjects]
54,193,915,5,2,2:0:0:0:
99,267,1557,1,0,2:0:0:0:
9,292,1772,1,2,2:0:0:0:
0,324,1986,1,0,2:0:0:0:
8,356,2200,1,0,2:0:0:0:
36,379,2415,1,0,2:0:0:0:
222,364,2629,5,2,2:0:0:0:
184,240,3057,1,0,2:0:0:0:
254,200,3272,1,0,2:0:0:0:
203,52,3486,1,2,2:0:0:0:
314,0,4129,1,0,2:0:0:0:
295,86,4343,5,2,2:0:0:0:
306,110,4557,1,0,2:0:0:0:
339,129,4772,1,0,2:0:0:0:
391,119,4986,1,0,2:0:0:0:
438,41,5200,1,2,2:0:0:0:
430,28,5629,1,4,2:0:0:0:
419,12,6057,38,0,P|429:84|445:163,1,154.102671366375,6|0,1:2|2:0,2:0:0:0:
512,260,6379,2,0,P|460:205|386:210,1,154.102671366375,6|0,1:2|2:0,2:0:0:0:
306,320,6700,1,0,1:0:0:0:
224,359,6807,1,0,1:0:0:0:
147,314,6915,6,0,P|126:241|165:175,1,154.102671366375,6|0,1:2|2:0,2:0:0:0:
263,101,7236,1,6,1:2:0:0:
11,60,7450,1,8,1:2:0:0:
102,7,7557,1,8,1:3:0:0:
112,0,7772,6,0,P|120:75|66:144,1,154.102671366375,6|0,1:2|2:0,2:0:0:0:
0,216,8093,1,6,1:2:0:0:
8,203,8200,1,0,1:0:0:0:
36,213,8307,1,0,1:0:0:0:
60,252,8415,1,8,1:2:0:0:
56,313,8522,1,8,1:2:0:0:
1,366,8629,38,0,P|63:325|136:341,1,154.102671366375,6|0,2:0|2:0,2:0:0:0:
240,384,8950,1,6,1:2:0:0:
266,153,9165,1,8,1:2:0:0:
181,236,9272,1,8,1:3:0:0:
172,247,9486,6,0,B|245:274|332:273,1,154.102671366375,6|0,1:2|2:0,2:0:0:0:
430,187,9807,1,6,1:2:0:0:
491,369,10022,1,8,1:2:0:0:
430,285,10129,1,8,1:3:0:0:
449,293,10343,6,0,P|516:249|525:174,1,154.102671366375,6|0,1:2|2:0,2:0:0:0:
452,79,10665,1,6,1:2:0:0:
262,235,10879,1,8,1:2:0:0:
332,151,10986,1,8,1:3:0:0:
253,254,11200,38,0,P|245:164|253:72,1,182.121325002037,6|0,1:2|2:0,2:0:0:0:
0,105,11522,2,0,P|78:142|157:196,1,182.121325002037,6|0,1:2|2:0,2:0:0:0:
179,2,11843,2,0,P|142:30|100:47,1,91.4853291676844,6|0,1:2|2:0,2:0:0:0:
0,233,12057,1,6,1:2:0:0:
10,250,12272,5,8,2:0:0:0:
89,241,12379,1,8,2:0:0:0:
98,301,12486,1,8,2:0:0:0:
145,285,12593,1,8,2:0:0:0:
162,318,12700,1,8,2:0:0:0:
190,312,12807,1,8,2:0:0:0:
193,326,12915,5,4,1:2:0:0:
332,281,13129,1,10,2:0:0:0:
452,371,13343,2,0,P|483:325|478:271,1,112.074666666666,2|10,1:2|2:0,2:0:0:0:
324,97,13772,2,0,P|347:146|397:169,1,112.074666666666,2|10,1:2|2:0,2:0:0:0:
504,58,14200,1,2,1:2:0:0:
509,69,14415,1,10,2:0:0:0:
346,0,14629,38,0,P|292:-4|247:27,1,112.074666666666,2|10,1:2|2:0,2:0:0:0:
205,168,15057,1,2,1:2:0:0:
72,84,15272,1,10,2:0:0:0:
86,71,15379,1,2,2:0:0:0:
100,58,15486,5,0,1:0:0:0:
121,231,15700,1,8,2:0:0:0:
0,384,15915,5,0,1:0:0:0:
206,292,16129,1,8,2:0:0:0:
24,193,16343,37,0,1:0:0:0:
117,364,16557,1,10,2:0:0:0:
213,193,16772,2,0,B|269:189|299:237|299:237|350:211|413:236,1,168.373333333334,2|0,1:2|2:0,2:0:0:0:
383,229,17200,1,2,1:2:0:0:
316,343,17415,1,10,2:0:0:0:
328,118,17629,1,2,1:2:0:0:
337,107,17843,1,10,2:0:0:0:
0,129,18057,6,0,P|43:162|98:162,1,112.074666666666,2|8,1:2|2:0,2:0:0:0:
157,0,18379,2,0,P|106:20|78:68,1,112.074666666666,2|0,2:0|2:0,2:0:0:0:
190,200,18700,1,10,2:0:0:0:
170,97,18915,2,0,P|197:145|190:200,1,112.074666666666,2|8,1:2|2:0,2:0:0:0:
0,350,19343,1,0,1:0:0:0:
99,232,19557,1,10,2:0:0:0:
87,260,19665,1,2,2:0:0:0:
133,301,19772,6,0,P|183:323|236:309,1,112.074666666666,2|8,1:2|2:0,2:0:0:0:
303,226,20093,2,0,P|357:222|403:253,1,112.074666666666,2|0,2:0|2:0,2:0:0:0:
348,371,20415,2,0,P|335:345|332:318,1,56.2986666666668,10|0,2:0|2:0,2:0:0:0:
454,339,20629,2,0,P|506:246|456:151,1,224.298666666667,2|0,1:2|1:0,2:0:0:0:
287,0,21272,1,10,2:0:0:0:
301,16,21379,1,2,2:0:0:0:
239,53,21486,38,0,P|183:61|127:54,1,112.074666666666,2|8,1:2|2:0,2:0:0:0:
0,0,21807,2,0,P|57:-4|111:7,1,112.074666666666,2|0,2:0|2:0,2:0:0:0:
227,152,22129,2,0,P|199:158|168:158,1,56.0746666666667,10|0,2:0|2:0,2:0:0:0:
0,163,22343,2,0,P|111:175|228:167,1,224.298666666667,2|0,1:2|1:2,2:0:0:0:
423,274,22986,1,10,2:0:0:0:
497,94,23200,6,0,P|509:40|481:-9,1,112.074666666666,2|8,1:2|2:0,2:0:0:0:
417,156,23522,2,0,P|457:193|510:197,1,112.074666666666,2|0,2:0|2:0,2:0:0:0:
402,53,23843,2,0,P|375:59|353:76,1,56.2986666666668,10|0,2:0|2:0,2:0:0:0:
346,220,24057,2,0,B|312:273|252:263|252:263|243:232|260:195,1,168.373333333334,2|0,1:2|2:0,2:0:0:0:
170,109,24486,2,0,B|204:56|264:66|264:66|273:97|256:134,1,168.448,2|0,1:2|2:0,2:0:0:0:
96,293,24915,5,2,1:2:0:0:
21,154,25129,1,8,2:0:0:0:
0,384,25343,37,0,1:0:0:0:
135,193,25557,1,10,2:0:0:0:
177,222,25665,1,0,1:0:0:0:
201,272,25772,1,2,1:2:0:0:
194,325,25879,1,0,1:0:0:0:
163,369,25986,1,8,2:0:0:0:
0,258,26200,5,0,1:0:0:0:
26,57,26415,1,8,2:0:0:0:
101,297,26629,5,4,1:2:0:0:
276,207,26843,2,0,B|324:214|352:172|352:172|364:223|415:232,1,178.896670071284,10|0,2:0|2:0,2:0:0:0:
447,145,27272,1,8,2:0:0:0:
265,113,27486,2,0,P|230:65|236:6,1,119.079335603079,2|10,1:2|2:0,2:0:0:0:
512,57,27915,2,0,P|496:113|448:145,1,119.079335603079,2|10,1:2|2:0,2:0:0:0:
382,8,28343,37,2,1:2:0:0:
352,173,28557,1,10,2:0:0:0:
173,190,28772,1,2,1:2:0:0:
107,25,28986,1,10,2:0:0:0:
101,43,29093,1,2,2:0:0:0:
95,61,29200,5,0,1:0:0:0:
0,218,29415,1,8,2:0:0:0:
122,352,29629,37,2,1:2:0:0:
123,362,29700,1,2,2:0:0:0:
125,373,29772,1,2,2:0:0:0:
126,384,29843,1,10,2:0:0:0:
224,204,30057,37,0,1:0:0:0:
492,315,30272,2,0,B|519:334|521:362|521:362|459:408|388:351,1,178.976003404617,10|0,2:0|2:0,2:0:0:0:
324,316,30700,1,10,2:0:0:0:
380,140,30915,2,0,P|397:196|397:255,1,119.079335603079,2|10,1:2|2:0,2:0:0:0:
167,145,31343,1,2,1:2:0:0:
289,0,31557,1,10,2:0:0:0:
512,175,31772,38,0,P|467:212|410:207,1,119.079335603079,2|8,1:2|2:0,2:0:0:0:
362,46,32093,2,0,P|416:65|440:118,1,119.079335603079,2|0,2:0|2:0,2:0:0:0:
326,241,32415,1,10,2:0:0:0:
348,136,32629,2,0,P|315:183|326:241,1,119.079335603079,2|8,1:2|2:0,2:0:0:0:
512,359,33057,1,0,1:0:0:0:
512,166,33272,1,8,2:0:0:0:
320,375,33486,6,0,P|262:379|218:341,1,119.079335603079,6|8,1:2|2:0,2:0:0:0:
88,384,33807,2,0,P|68:329|94:277,1,119.079335603079,2|0,2:0|2:0,2:0:0:0:
18,162,34129,1,10,2:0:0:0:
123,141,34343,2,0,P|66:129|18:162,1,119.079335603079,2|8,1:2|2:0,2:0:0:0:
213,225,34772,1,0,1:0:0:0:
252,136,34879,1,8,1:2:0:0:
195,59,34986,1,10,2:3:0:0:
182,55,35200,5,6,1:2:0:0:
232,24,35307,1,0,1:0:0:0:
291,29,35415,1,8,1:2:0:0:
337,66,35522,1,8,1:2:0:0:
404,0,35629,37,6,1:2:0:0:
437,34,35736,1,0,1:0:0:0:
439,81,35843,1,8,1:2:0:0:
416,123,35950,1,8,1:2:0:0:
493,176,36057,5,6,1:2:0:0:
476,207,36165,1,0,1:0:0:0:
445,226,36272,1,8,1:2:0:0:
409,221,36379,1,8,1:2:0:0:
328,169,36486,5,0,1:0:0:0:
258,112,36593,1,8,1:2:0:0:
178,151,36700,2,0,P|158:172|148:200,1,59.8173344682061,10|0,1:2|2:0,2:0:0:0:
9,327,36915,38,0,P|60:299|118:321,1,119.079335603079,6|8,1:2|2:0,2:0:0:0:
238,350,37236,2,0,P|236:290|246:231,1,119.079335603079,2|0,2:0|2:0,2:0:0:0:
268,105,37557,1,10,2:0:0:0:
47,155,37772,2,0,P|19:104|37:49,1,119.079335603079,2|8,1:2|2:0,2:0:0:0:
188,0,38200,1,0,1:0:0:0:
194,12,38415,1,10,2:0:0:0:
348,169,38629,5,0,1:0:0:0:
406,6,38843,1,8,2:0:0:0:
447,182,39057,5,0,1:0:0:0:
408,260,39165,1,8,1:2:0:0:
322,268,39272,1,8,1:2:0:0:
246,113,39486,38,0,P|233:145|234:180,1,70.3733333333336,2|0,1:2|2:0,2:0:0:0:
242,0,39700,2,0,P|207:4|178:23,1,70.3733333333336,2|0,1:2|2:0,2:0:0:0:
41,81,39915,5,8,1:3:0:0:
80,0,40022,1,10,1:2:0:0:
123,119,40129,1,8,1:3:0:0:
130,111,40343,6,0,P|137:174|132:237,2,126.083996154785,6|2|2,1:2|2:0|2:0,2:0:0:0:
31,227,41200,1,2,1:2:0:0:
60,314,41415,1,2,2:2:0:0:
149,336,41629,1,2,1:2:0:0:
220,277,41843,1,2,2:2:0:0:
337,127,42057,38,0,P|398:120|451:151,2,126.083996154785,2|2|2,1:2|2:0|2:0,2:0:0:0:
314,231,42915,1,2,1:2:0:0:
241,174,43129,1,2,2:2:0:0:
246,81,43343,1,2,1:2:0:0:
317,22,43557,1,2,2:2:0:0:
489,133,43772,5,2,1:2:0:0:
503,148,43879,1,2,2:2:0:0:
512,178,43986,2,0,L|509:218,2,28.0839991455078,2|2|2,2:2|2:0|2:0,2:0:0:0:
475,231,44200,6,0,P|468:250|465:271,1,42.2239987182618,2|0,1:2|2:0,2:0:0:0:
371,337,44415,2,0,P|384:352|401:365,1,42.2239987182618,2|0,2:0|2:0,2:0:0:0:
498,363,44629,1,2,1:2:0:0:
501,358,44736,1,2,2:2:0:0:
373,247,44950,2,0,P|331:251|302:280,1,84.0559974365239,2|0,2:0|2:0,2:0:0:0:
284,362,45272,1,2,2:0:0:0:
155,190,45486,38,0,P|152:127|160:64,2,126.083996154785,2|0|0,1:2|2:0|2:0,2:0:0:0:
172,375,46343,5,2,1:2:0:0:
169,354,46450,1,0,1:0:0:0:
165,333,46557,1,0,1:0:0:0:
81,302,46665,5,8,1:2:0:0:
84,281,46772,1,0,1:0:0:0:
88,260,46879,1,0,1:0:0:0:
160,204,46986,37,8,1:3:0:0:
440,15,47200,6,0,B|464:-12|464:-12|450:53|453:106,1,154.102671366375,6|0,1:2|2:0,2:0:0:0:
300,160,47522,2,0,B|334:137|368:166|302:231|302:231|376:225,1,182.121325002037,6|0,1:2|2:0,2:0:0:0:
470,264,47843,2,0,B|519:250|540:291|502:321|502:321|535:339|521:390|473:380|447:367,1,210.140008010865,6|0,1:2|2:0,2:0:0:0:
294,359,48272,5,8,1:2:0:0:
389,233,48379,1,8,1:2:0:0:
373,384,48593,37,8,1:2:0:0:
302,278,48700,1,8,1:3:0:0:
30,354,48915,6,0,P|-21:368|23:338,1,154.102671366375,4|0,1:2|2:0,2:0:0:0:
169,286,49236,2,0,P|203:359|128:327,1,210.140008010865,4|0,1:2|2:0,2:0:0:0:
30,244,49557,2,0,P|40:136|103:223,1,280.186666666669,4|0,1:2|2:0,2:0:0:0:
372,174,49986,6,0,P|353:144|322:128,1,70.3733333333336,2|0,1:2|2:0,2:0:0:0:
328,33,50200,2,0,P|293:34|263:52,1,70.3733333333336,10|0,1:2|2:0,2:0:0:0:
183,0,50415,2,0,P|167:30|167:65,1,70.3733333333336,10|0,1:3|2:0,2:0:0:0:
264,341,50629,37,14,1:2:0:0:
244,339,51057,6,0,P|223:357|218:394,1,56.2986666666668,8|0,1:3|2:0,2:0:0:0:
407,324,51272,2,0,P|429:339|440:374,1,56.2986666666668,8|0,1:3|2:0,2:0:0:0:
221,248,51486,6,0,P|187:256|167:284,1,70.3733333333336,8|0,1:3|2:0,2:0:0:0:
413,231,51700,2,0,P|447:234|472:257,1,70.3733333333336,8|0,1:3|2:0,2:0:0:0:
183,150,51915,38,0,P|137:153|103:180,1,84.4479974365239,8|0,1:3|2:0,2:0:0:0:
433,128,52129,2,0,P|479:122|517:143,1,84.4479974365239,8|0,1:3|2:0,2:0:0:0:
81,261,52343,5,12,1:2:0:0:
321,240,52557,1,8,1:3:0:0:
300,0,52772,1,8,1:3:0:0:
60,21,52986,1,8,1:3:0:0:
381,114,53200,5,8,1:3:0:0:
0,148,53415,1,8,1:3:0:0:
238,95,53629,37,8,1:3:0:0:
224,178,53736,1,8,1:3:0:0:
141,164,53843,1,8,1:3:0:0:
155,81,53950,1,8,1:3:0:0:
315,169,54057,6,0,P|271:258|172:254,1,210.140008010865,14|0,1:2|2:0,2:0:0:0:
0,262,54379,2,0,P|94:230|161:302,1,210.140008010865,6|0,1:2|1:0,2:0:0:0:
126,384,54700,1,8,1:3:0:0:
72,319,54807,1,8,1:2:0:0:
223,365,54915,6,0,P|322:369|366:280,1,210.140008010865,14|0,1:2|2:0,2:0:0:0:
377,148,55236,2,0,P|324:231|379:314,1,210.140008010865,6|8,1:2|1:2,2:0:0:0:
512,384,55557,1,8,1:3:0:0:
443,49,55772,21,14,1:2:0:0:
440,35,55843,1,2,2:0:0:0:
422,23,55915,1,2,2:0:0:0:
394,23,55986,1,2,2:0:0:0:
362,38,56057,1,2,2:0:0:0:
348,78,56129,1,2,2:0:0:0:
365,122,56200,2,2,P|388:141|417:145,1,61.2733305562342,2|2,2:0|2:0,2:0:0:0:
261,13,56343,53,2,2:0:0:0:
251,5,56415,1,2,1:2:0:0:
233,0,56486,1,2,2:0:0:0:
209,7,56557,1,2,2:0:0:0:
194,33,56629,1,2,1:2:0:0:
163,52,56700,1,2,2:0:0:0:
120,54,56772,1,2,2:0:0:0:
80,25,56843,2,2,L|87:115,1,91.4853291676844,10|10,1:2|1:2,2:0:0:0:
104,376,57057,21,12,1:2:0:0:
111,370,57165,1,8,1:2:0:0:
119,375,57272,1,8,1:2:0:0:
117,384,57379,1,8,1:2:0:0:
9,332,57486,6,0,P|76:265|169:278,1,196.130660685224,6|8,1:2|2:0,2:0:0:0:
230,384,57807,1,2,2:0:0:0:
282,218,57915,2,0,P|306:309|248:383,1,196.130660685224,2|8,1:2|2:0,2:0:0:0:
176,170,58236,1,2,2:0:0:0:
266,107,58343,6,0,P|314:107|354:134,1,98.5226636759446,2|0,1:2|2:0,2:0:0:0:
444,68,58557,2,0,P|467:110|464:158,1,98.5226636759446,10|0,2:0|2:0,2:0:0:0:
230,0,58772,2,0,P|186:22|161:63,1,98.5226636759446,2|0,1:2|2:0,2:0:0:0:
37,49,58986,2,0,P|34:97|57:139,1,98.5226636759446,10|0,2:0|2:0,2:0:0:0:
329,206,59200,38,0,B|252:170|200:238|200:238|146:317|72:275,1,294.653324361166,2|0,1:2|2:0,2:0:0:0:
0,187,59629,2,0,P|88:161|161:232,1,196.130660685224,2|8,1:2|2:0,2:0:0:0:
285,299,59950,1,2,2:0:0:0:
404,285,60057,6,0,P|428:243|424:195,1,98.5226636759446,2|0,1:2|2:0,2:0:0:0:
386,383,60272,2,0,P|434:383|473:355,1,98.5226636759446,10|0,2:0|2:0,2:0:0:0:
512,155,60486,2,0,P|488:112|444:92,1,98.5226636759446,2|0,1:2|2:0,2:0:0:0:
462,0,60700,2,0,P|413:0|374:27,1,98.5226636759446,10|0,2:0|2:0,2:0:0:0:
243,174,60915,5,6,1:2:0:0:
161,208,61022,1,2,2:0:0:0:
86,161,61129,1,10,2:0:0:0:
78,73,61236,1,2,2:0:0:0:
169,12,61343,5,2,1:2:0:0:
185,24,61415,1,2,2:0:0:0:
192,52,61486,38,0,P|186:83|172:113,1,66.1173313395185,2|10,2:0|2:0,2:0:0:0:
156,216,61665,1,2,2:0:0:0:
246,167,61772,54,0,P|294:162|338:182,1,98.261330342611,2|0,1:2|2:0,2:0:0:0:
362,377,61986,2,0,P|313:382|269:362,1,98.261330342611,10|0,2:0|2:0,2:0:0:0:
94,290,62200,2,0,P|129:257|177:249,1,98.261330342611,2|0,1:2|2:0,2:0:0:0:
420,242,62415,2,0,P|383:274|335:283,1,98.261330342611,10|0,2:0|2:0,2:0:0:0:
60,384,62629,6,0,P|-4:317|19:226,1,196.130660685224,2|8,1:2|2:0,2:0:0:0:
151,188,62950,1,2,2:0:0:0:
0,123,63057,2,0,P|48:202|142:203,1,196.130660685224,2|8,1:2|2:0,2:0:0:0:
263,170,63379,1,2,2:0:0:0:
294,287,63486,6,0,P|293:335|284:398,1,98.5226636759446,2|0,1:2|2:0,2:0:0:0:
432,225,63700,2,0,P|440:272|441:336,1,98.5226636759446,10|0,2:0|2:0,2:0:0:0:
251,159,63915,2,0,P|242:110|240:61,1,98.5226636759446,2|0,1:2|2:0,2:0:0:0:
389,97,64129,2,0,P|389:48|395:0,1,98.5226636759446,10|0,2:0|2:0,2:0:0:0:
162,0,64343,37,6,1:2:0:0:
122,0,64450,1,2,2:2:0:0:
81,27,64557,1,10,2:2:0:0:
59,82,64665,1,2,2:2:0:0:
79,147,64772,1,2,1:2:0:0:
147,184,64879,1,2,2:2:0:0:
172,268,64986,1,10,2:2:0:0:
115,347,65093,1,2,2:2:0:0:
9,323,65200,5,2,1:2:0:0:
74,250,65307,1,2,2:2:0:0:
171,264,65415,1,10,2:2:0:0:
211,354,65522,1,2,2:2:0:0:
307,378,65629,1,2,1:2:0:0:
384,318,65736,1,2,2:2:0:0:
387,220,65843,1,10,2:2:0:0:
311,157,65950,1,2,2:2:0:0:
215,177,66057,5,2,1:2:0:0:
512,384,66272,1,10,2:0:0:0:
422,90,66486,1,2,1:2:0:0:
416,80,66593,1,2,2:0:0:0:
411,91,66700,1,10,2:0:0:0:
496,58,66807,37,2,2:2:0:0:
438,3,66915,1,2,1:2:0:0:
379,3,67022,1,2,2:2:0:0:
351,30,67129,1,10,2:2:0:0:
301,112,67236,5,2,2:2:0:0:
240,123,67343,1,2,1:2:0:0:
221,117,67450,1,2,2:2:0:0:
210,110,67557,2,0,P|191:80|191:45,1,70.3733333333336,10|0,2:0|2:0,2:0:0:0:
495,247,67772,6,0,B|514:258|535:254|535:254|523:323|435:331|390:258,1,196.130660685224,6|8,1:2|2:0,2:0:0:0:
301,215,68093,1,2,2:2:0:0:
243,201,68200,1,2,1:2:0:0:
192,231,68307,1,2,2:2:0:0:
177,288,68415,1,10,2:2:0:0:
131,324,68522,1,2,2:2:0:0:
71,330,68629,2,0,P|32:303|16:258,1,98.5226636759446,2|0,1:2|2:0,2:0:0:0:
274,300,68843,2,0,P|270:348|238:384,1,98.5226636759446,10|0,2:0|2:0,2:0:0:0:
100,228,69057,37,2,1:2:0:0:
52,177,69165,1,2,2:0:0:0:
52,88,69272,1,10,2:0:0:0:
134,18,69379,1,2,2:0:0:0:
257,46,69486,5,8,1:3:0:0:
268,62,69807,5,8,1:3:0:0:
274,84,70129,37,8,1:3:0:0:
0,384,70343,1,4,1:2:0:0:
11,372,70772,53,10,1:2:0:0:
3,340,70843,1,2,2:0:0:0:
37,359,70915,53,2,2:0:0:0:
20,330,70986,1,10,1:2:0:0:
58,339,71057,5,2,2:0:0:0:
34,316,71129,1,2,2:0:0:0:
73,314,71200,22,0,P|147:257|236:289,1,196.130660685224,6|8,1:2|2:0,2:0:0:0:
237,384,71522,1,0,2:0:0:0:
321,231,71629,2,0,P|333:323|261:384,1,196.130660685224,2|8,1:2|2:0,2:0:0:0:
230,165,71950,1,0,2:0:0:0:
333,122,72057,6,0,B|383:119|413:135|398:182|427:213|494:218|541:197|559:133|519:73,1,294.653324361166,2|0,1:2|2:0,2:0:0:0:
340,14,72486,2,0,P|291:12|252:40,1,98.5226636759446,2|0,1:2|2:0,2:0:0:0:
153,0,72700,2,0,P|139:46|156:91,1,98.5226636759446,10|0,2:0|2:0,2:0:0:0:
199,258,72915,38,0,B|235:181|167:129|167:129|88:75|130:1,1,294.653324361166,2|0,1:2|2:0,2:0:0:0:
67,247,73343,2,0,P|81:340|165:383,1,196.130660685224,2|8,1:2|2:0,2:0:0:0:
328,179,73665,1,2,2:0:0:0:
413,288,73772,6,0,P|422:336|420:384,1,98.5226636759446,2|0,1:2|2:0,2:0:0:0:
488,201,73986,2,0,P|509:244|520:292,1,98.5226636759446,10|0,2:0|2:0,2:0:0:0:
311,185,74200,2,0,P|301:233|303:281,1,98.5226636759446,2|0,1:2|2:0,2:0:0:0:
236,98,74415,2,0,P|214:141|203:189,1,98.5226636759446,10|0,2:0|2:0,2:0:0:0:
155,358,74629,5,6,1:2:0:0:
70,384,74736,1,2,2:0:0:0:
0,329,74843,1,10,2:0:0:0:
5,241,74950,1,2,2:0:0:0:
91,188,75057,5,2,1:2:0:0:
103,202,75129,1,2,2:0:0:0:
108,223,75200,38,0,P|110:255|95:283,1,66.1173313395185,2|10,2:0|2:0,2:0:0:0:
59,384,75379,1,2,2:0:0:0:
168,370,75486,54,0,P|204:334|214:286,1,98.5226636759446,2|0,1:2|2:0,2:0:0:0:
262,132,75700,2,0,P|249:83|212:50,1,98.5226636759446,10|0,2:0|2:0,2:0:0:0:
46,65,75915,2,0,B|-4:61|-26:116|-26:116|16:187|103:171|146:138,1,294.653324361166,2|0,1:2|2:0,2:0:0:0:
301,0,76343,5,2,1:2:0:0:
130,27,76557,1,8,2:0:0:0:
352,234,76772,2,0,P|443:255|512:190,1,196.130660685224,2|8,1:2|2:0,2:0:0:0:
512,29,77093,1,2,2:0:0:0:
414,63,77200,6,0,P|404:110|418:157,1,98.5226636759446,2|0,1:2|2:0,2:0:0:0:
230,258,77415,2,0,P|255:217|259:169,1,98.5226636759446,10|0,2:0|2:0,2:0:0:0:
406,45,77629,2,0,P|384:88|385:136,1,98.5226636759446,2|0,1:2|2:0,2:0:0:0:
269,236,77843,2,0,P|283:189|273:142,1,98.5226636759446,10|0,2:0|2:0,2:0:0:0:
68,0,78057,37,6,1:2:0:0:
38,0,78165,1,2,2:2:0:0:
8,25,78272,1,10,2:2:0:0:
1,73,78379,1,2,2:2:0:0:
39,116,78486,1,2,1:2:0:0:
105,131,78593,1,2,2:2:0:0:
151,193,78700,1,10,2:2:0:0:
124,276,78807,1,2,2:2:0:0:
26,290,78915,1,2,1:2:0:0:
288,378,79129,1,10,2:2:0:0:
343,358,79236,1,2,2:2:0:0:
406,384,79343,5,2,1:2:0:0:
351,301,79450,1,2,2:2:0:0:
414,224,79557,1,10,2:2:0:0:
505,259,79665,1,2,2:2:0:0:
500,357,79772,5,2,1:2:0:0:
434,313,79879,1,2,2:2:0:0:
418,236,79986,1,10,2:2:0:0:
469,176,80093,1,2,2:2:0:0:
470,97,80200,2,0,P|450:52|410:26,1,98.5226636759446,2|0,1:2|2:0,2:0:0:0:
254,148,80415,2,0,P|301:153|345:131,1,98.5226636759446,10|0,2:0|2:0,2:0:0:0:
79,32,80629,37,2,1:2:0:0:
0,119,80736,1,2,2:0:0:0:
59,221,80843,1,10,2:0:0:0:
174,196,80950,1,2,2:0:0:0:
186,79,81057,5,2,1:2:0:0:
146,135,81165,1,2,2:2:0:0:
181,193,81272,2,0,P|202:235|193:283,1,98.5226636759446,10|0,2:0|2:0,2:0:0:0:
0,313,81486,5,6,1:2:0:0:
33,293,81593,1,2,2:2:0:0:
71,291,81700,1,10,2:2:0:0:
107,305,81807,1,2,2:2:0:0:
129,348,81915,1,2,1:2:0:0:
178,379,82022,1,2,2:2:0:0:
245,365,82129,1,10,2:2:0:0:
293,303,82236,1,2,2:2:0:0:
270,217,82343,1,2,1:2:0:0:
422,60,82557,37,10,2:2:0:0:
375,135,82665,1,2,2:2:0:0:
406,206,82772,1,2,1:2:0:0:
472,223,82879,1,2,2:2:0:0:
511,266,82986,1,10,2:2:0:0:
512,314,83093,1,2,2:2:0:0:
491,347,83200,6,0,B|421:395|358:337|358:337|291:269|225:323,1,294.653324361166,6|0,1:2|2:0,2:0:0:0:
84,384,83629,1,2,1:2:0:0:
53,345,83736,1,2,2:0:0:0:
101,312,83843,1,10,2:0:0:0:
47,268,83950,1,2,2:0:0:0:
113,226,84057,1,2,1:2:0:0:
0,69,84272,5,10,2:0:0:0:
49,21,84379,1,2,2:0:0:0:
85,66,84486,1,2,1:2:0:0:
120,32,84593,1,2,2:0:0:0:
145,61,84700,1,10,2:0:0:0:
164,38,84807,1,2,2:0:0:0:
177,52,84915,1,2,1:2:0:0:
312,144,85129,37,10,1:2:0:0:
397,166,85236,1,8,1:2:0:0:
438,88,85343,53,2,1:2:0:0:
422,116,85415,1,10,1:3:0:0:
418,148,85486,1,2,2:0:0:0:
427,178,85557,1,10,1:3:0:0:
449,202,85629,1,10,1:3:0:0:
478,215,85700,1,2,0:0:0:0:
512,213,85772,1,10,1:2:0:0:
498,137,86200,21,0,2:0:0:0:
280,23,86629,6,0,P|191:67|195:166,1,210.140008010865,6|0,1:2|2:0,2:0:0:0:
289,292,86950,2,0,P|295:192|207:146,1,210.140008010865,6|0,1:2|2:0,2:0:0:0:
118,249,87272,1,8,1:3:0:0:
213,239,87379,1,8,1:2:0:0:
99,157,87486,38,0,P|24:223|53:318,1,210.140008010865,6|0,1:2|2:0,2:0:0:0:
174,326,87807,1,6,1:2:0:0:
411,376,88022,1,8,1:3:0:0:
382,256,88129,1,8,1:2:0:0:
425,384,88343,6,0,P|491:305|495:202,1,210.140008010865,6|0,1:2|2:0,2:0:0:0:
288,92,88665,2,0,P|323:188|410:243,1,210.140008010865,6|0,1:2|2:0,2:0:0:0:
512,113,88986,2,0,P|460:119|417:148,1,105.560004005432,6|0,1:2|2:0,2:0:0:0:
255,384,89200,1,6,1:2:0:0:
267,375,89415,5,8,2:0:0:0:
214,304,89522,1,8,2:0:0:0:
267,262,89629,1,8,2:0:0:0:
225,226,89736,1,8,2:0:0:0:
247,192,89843,1,8,2:0:0:0:
226,169,89950,1,8,2:0:0:0:
238,158,90057,37,4,1:2:0:0:
461,0,91343,1,8,1:2:0:0:
512,83,91450,1,8,1:2:0:0:
376,44,91557,1,10,1:3:0:0:
366,35,91772,5,2,1:2:0:0:
262,149,91986,1,10,2:0:0:0:
427,259,92200,1,2,1:2:0:0:
323,373,92415,1,10,2:0:0:0:
293,384,92522,1,2,2:0:0:0:
261,384,92629,2,0,B|182:370|182:370|159:338,1,119.079335603079,0|8,1:0|2:0,2:0:0:0:
0,257,93057,2,0,B|79:243|79:243|102:211,1,119.079335603079,0|8,1:0|2:0,2:0:0:0:
170,28,93486,1,0,1:0:0:0:
14,140,93700,5,10,2:0:0:0:
197,250,93915,2,0,L|313:228,1,119.079335603079,2|10,1:2|2:0,2:0:0:0:
482,197,94343,1,2,1:2:0:0:
512,31,94557,1,10,2:0:0:0:
324,53,94772,1,2,1:2:0:0:
294,219,94986,1,10,2:0:0:0:
512,341,95200,38,0,B|464:376|464:376|407:359,1,119.079335603079,2|8,1:2|2:0,2:0:0:0:
379,196,95522,2,0,B|433:220|433:220|447:277,1,119.079335603079,2|0,2:0|2:0,2:0:0:0:
320,384,95843,1,10,2:0:0:0:
356,284,96057,2,0,B|313:324|313:324|320:384,1,119.079335603079,2|8,1:2|2:0,2:0:0:0:
510,184,96486,1,0,1:0:0:0:
304,132,96700,5,10,2:0:0:0:
223,245,96915,2,0,B|236:166|236:166|268:143,1,119.079335603079,2|8,1:2|2:0,2:0:0:0:
169,59,97236,2,0,B|234:13|234:13|272:19,1,119.079335603079,2|0,2:0|2:0,2:0:0:0:
381,85,97557,1,10,2:0:0:0:
346,242,97772,2,0,B|332:320|332:320|300:343,1,119.079335603079,2|8,1:2|2:0,2:0:0:0:
156,253,98200,1,0,1:0:0:0:
0,384,98415,5,10,2:0:0:0:
16,253,98629,2,0,B|38:284|38:284|24:363,1,119.079335603079,2|8,1:2|2:0,2:0:0:0:
153,384,98950,2,0,L|173:266,1,119.079335603079,2|0,2:0|2:0,2:0:0:0:
199,134,99272,1,10,2:0:0:0:
31,254,99486,2,0,B|8:222|8:222|22:143,1,119.079335603079,2|8,1:2|2:0,2:0:0:0:
107,0,99915,1,0,1:0:0:0:
211,125,100129,1,10,2:0:0:0:
403,27,100343,38,0,B|355:-8|355:-8|298:9,1,119.079335603079,2|8,1:2|2:0,2:0:0:0:
425,119,100665,2,0,B|479:94|479:94|493:37,1,119.079335603079,2|0,2:0|2:0,2:0:0:0:
332,98,100986,2,0,B|321:125|321:125|336:151,1,59.8173344682061,10|0,2:0|2:0,2:0:0:0:
486,251,101200,2,0,B|523:276|523:276|391:300,1,178.896670071284,2|0,1:2|2:0,2:0:0:0:
276,353,101629,2,0,L|451:322,1,178.896670071284,2|0,1:2|2:0,2:0:0:0:
271,234,102057,6,0,B|211:244|211:244|170:284|170:284|107:295,1,178.896670071284,2|0,1:2|2:0,2:0:0:0:
73,207,102486,38,2,L|112:200,2,39.9046674232483,2|2|2,1:2|2:0|2:0,2:0:0:0:
17,292,102700,37,10,2:0:0:0:
24,335,102807,1,2,1:2:0:0:
24,291,102915,1,2,2:0:0:0:
117,12,103129,38,0,P|166:22|193:64,1,102.041336430866,10|0,1:2|2:0,2:0:0:0:
303,33,103343,2,0,P|315:73|296:111,1,87.9666666666672,10|0,1:2|2:0,2:0:0:0:
369,186,103557,2,0,P|344:212|309:214,1,73.8919977569585,10|0,1:2|2:0,2:0:0:0:
231,384,103772,5,4,1:2:0:0:
218,159,103986,1,10,2:0:0:0:
72,280,104200,2,0,P|74:341|118:384,1,126.083996154785,2|10,1:2|2:0,2:0:0:0:
297,306,104629,2,0,P|242:277|183:293,1,126.083996154785,2|10,1:2|2:0,2:0:0:0:
0,373,105057,1,2,1:2:0:0:
6,384,105272,1,10,2:0:0:0:
3,199,105486,6,0,P|56:168|116:182,1,126.083996154785,2|10,1:2|2:0,2:0:0:0:
177,313,105915,1,2,1:2:0:0:
365,374,106129,1,10,2:0:0:0:
379,368,106236,1,2,2:0:0:0:
393,362,106343,37,0,1:0:0:0:
486,206,106557,1,8,2:0:0:0:
354,59,106772,1,0,1:0:0:0:
371,235,106986,6,0,L|365:266,1,31.6679990386963,10|0,2:0|2:0,2:0:0:0:
235,141,107200,6,0,L|229:109,1,31.6679990386963,2|0,1:2|2:0,2:0:0:0:
201,335,107415,37,10,2:0:0:0:
19,384,107629,2,0,P|-11:330|0:269,1,126.083996154785,2|10,1:2|2:0,2:0:0:0:
88,134,108057,1,2,1:2:0:0:
96,119,108272,1,10,2:0:0:0:
96,311,108486,1,2,1:2:0:0:
285,384,108700,1,10,2:0:0:0:
272,165,108915,6,0,P|333:155|386:186,1,126.083996154785,2|8,1:2|2:0,2:0:0:0:
512,252,109236,2,0,P|473:204|473:142,1,126.083996154785,2|0,2:0|2:0,2:0:0:0:
468,0,109557,1,10,2:0:0:0:
392,88,109772,2,0,P|445:57|467:0,1,126.083996154785,2|8,1:2|2:0,2:0:0:0:
272,81,110200,1,0,1:0:0:0:
320,230,110415,1,10,2:0:0:0:
75,276,110629,6,0,P|34:324|36:386,1,126.083996154785,6|8,1:2|2:0,2:0:0:0:
113,162,110950,2,0,P|50:150|-2:183,1,126.083996154785,2|0,2:0|2:0,2:0:0:0:
230,137,111272,1,10,2:0:0:0:
155,48,111486,2,0,P|209:78|230:137,1,126.083996154785,2|8,1:2|2:0,2:0:0:0:
173,314,111915,1,8,1:3:0:0:
236,384,112022,1,8,1:2:0:0:
322,345,112129,1,10,1:2:0:0:
312,251,112236,1,8,1:3:0:0:
220,232,112343,38,0,L|282:221,1,63.335998077393,6|0,1:2|2:0,2:0:0:0:
442,283,112557,1,8,1:2:0:0:
512,256,112665,1,8,1:2:0:0:
455,207,112772,6,0,L|391:195,1,63.335998077393,6|0,1:2|2:0,2:0:0:0:
274,61,112986,1,8,1:2:0:0:
227,43,113093,1,8,1:2:0:0:
265,11,113200,6,0,L|328:0,1,63.335998077393,6|0,1:2|2:0,2:0:0:0:
488,65,113415,1,8,1:2:0:0:
512,56,113522,1,8,1:2:0:0:
492,39,113629,1,6,1:2:0:0:
217,176,113843,1,10,1:2:0:0:
298,162,113950,1,8,1:2:0:0:
165,113,114057,38,0,P|135:167|152:226,1,126.083996154785,6|8,1:2|2:0,2:0:0:0:
259,280,114379,2,0,P|196:273|133:277,1,126.083996154785,2|0,2:0|2:0,2:0:0:0:
48,361,114700,2,0,P|79:365|110:364,1,63.335998077393,10|0,2:0|2:0,2:0:0:0:
324,346,114915,6,0,P|353:291|336:232,1,126.083996154785,2|8,1:2|2:0,2:0:0:0:
215,113,115236,2,0,P|198:53|227:0,1,126.083996154785,2|0,2:0|2:0,2:0:0:0:
314,78,115557,2,0,P|324:109|318:139,1,63.335998077393,10|0,2:0|2:0,2:0:0:0:
130,206,115772,5,0,1:0:0:0:
13,46,115986,1,8,2:0:0:0:
0,261,116200,37,0,1:0:0:0:
42,183,116307,1,8,1:2:0:0:
35,171,116629,6,0,P|22:203|28:237,1,70.3733333333336,2|0,1:2|2:0,2:0:0:0:
0,360,116843,2,0,P|28:380|62:383,1,70.3733333333336,2|0,1:2|2:0,2:0:0:0:
257,271,117057,1,8,1:3:0:0:
134,280,117165,1,10,1:2:0:0:
208,342,117272,1,8,1:3:0:0:
201,336,117486,6,0,P|257:311|318:325,1,126.279996154785,6|2,1:2|2:0,2:0:0:0:
329,339,118129,2,0,P|321:256|334:173,1,168.111994873047,2|2,2:0|2:0,2:0:0:0:
413,86,118772,1,2,1:2:0:0:
347,0,118986,1,2,2:0:0:0:
213,75,119200,38,0,P|147:88|90:53,1,136.80332708486,2|2,1:2|2:0,2:0:0:0:
94,34,119843,2,0,P|143:107|107:186,1,182.121325002036,2|2,2:0|2:0,2:0:0:0:
3,248,120486,1,2,1:2:0:0:
31,357,120700,1,2,2:0:0:0:
154,303,120915,5,2,1:2:0:0:
172,294,121022,1,2,2:2:0:0:
194,295,121129,2,2,L|226:305,2,30.4243319447837,2|2|2,2:2|2:2|2:2,2:2:0:0:
235,338,121343,6,0,P|256:346|278:347,1,45.7426645838422,2|0,1:2|2:0,2:0:0:0:
382,346,121557,2,0,P|378:323|368:303,1,45.7426645838422,2|0,2:2|2:0,2:0:0:0:
285,248,121772,2,0,P|338:206|404:211,2,136.590993751527,2|0|0,1:2|2:0|2:0,2:0:0:0:
175,276,122629,38,0,P|166:231|183:190,1,91.0606625010178,2|0,1:2|2:0,2:0:0:0:
105,118,123057,2,0,P|139:88|183:82,1,91.0606625010178,0|0,1:0|2:0,2:0:0:0:
297,126,123486,5,2,1:2:0:0:
318,123,123593,1,0,1:0:0:0:
339,119,123700,1,0,1:0:0:0:
370,35,123807,5,8,1:2:0:0:
391,38,123915,1,0,1:0:0:0:
412,42,124022,1,0,1:0:0:0:
468,114,124129,38,0,L|512:106,1,45.7426645838422,8|0,1:3|1:0,2:0:0:0:
158,34,124343,6,0,B|176:3|176:3|174:69|186:121,1,154.102671366375,6|0,1:2|2:0,2:0:0:0:
19,126,124665,2,0,B|56:109|84:143|8:196|8:196|82:203,1,182.121325002037,6|0,1:2|2:0,2:0:0:0:
152,275,124986,2,0,B|197:252|225:289|193:325|193:325|229:337|224:390|175:388|147:380,1,210.140008010865,6|0,1:2|2:0,2:0:0:0:
309,222,125415,5,2,1:2:0:0:
321,224,125522,1,0,1:0:0:0:
326,234,125629,1,8,1:3:0:0:
331,285,125736,37,2,1:2:0:0:
370,307,125843,1,0,1:0:0:0:
512,117,126057,6,0,P|443:49|348:36,1,196.130660685224,4|0,1:2|2:0,2:0:0:0:
195,63,126379,2,0,P|263:-13|285:87,1,252.167992309571,4|0,1:2|2:0,2:0:0:0:
238,217,126700,37,4,1:2:0:0:
243,241,126772,1,0,1:0:0:0:
247,266,126843,1,0,1:0:0:0:
274,288,126915,53,0,1:0:0:0:
269,312,126986,1,0,1:0:0:0:
265,337,127057,1,0,1:0:0:0:
229,366,127129,54,0,L|150:352,1,63.335998077393,2|0,1:2|1:0,2:0:0:0:
76,384,127343,37,10,1:2:0:0:
64,325,127450,1,8,1:3:0:0:
0,276,127557,5,10,1:3:0:0:
22,256,127665,1,0,1:0:0:0:
133,197,127772,5,14,1:2:0:0:
150,202,128200,38,0,P|158:228|155:256,1,56.2986666666668,8|0,1:3|2:0,2:0:0:0:
240,100,128415,2,0,P|231:73|234:45,1,56.2986666666668,8|0,1:3|2:0,2:0:0:0:
64,147,128629,6,0,P|40:172|7:182,1,70.3733333333336,8|0,1:3|2:0,2:0:0:0:
326,155,128843,2,0,P|349:129|382:119,1,70.3733333333336,8|0,1:3|2:0,2:0:0:0:
71,43,129057,6,0,P|30:34|5:2,1,84.4479974365239,8|0,1:3|2:0,2:0:0:0:
319,259,129272,2,0,P|359:267|384:299,1,84.4479974365239,8|0,1:3|2:0,2:0:0:0:
512,69,129486,37,12,1:2:0:0:
488,339,129700,1,8,1:3:0:0:
217,315,129915,1,8,1:3:0:0:
241,45,130129,1,8,1:3:0:0:
347,384,130343,5,8,1:3:0:0:
382,0,130557,1,8,1:3:0:0:
323,241,130772,5,8,1:3:0:0:
414,232,130879,1,8,1:3:0:0:
406,141,130986,1,8,1:3:0:0:
315,150,131093,1,8,1:3:0:0:
394,323,131200,38,0,P|487:290|495:191,1,210.140008010865,14|0,1:2|2:0,2:0:0:0:
506,0,131522,2,0,B|481:52|512:102|512:102|457:92|423:136,1,210.140008010865,6|0,1:2|1:0,2:0:0:0:
304,64,131843,1,8,1:3:0:0:
400,29,131950,1,8,1:2:0:0:
328,150,132057,6,0,B|272:169|233:124|233:124|195:81|131:101,1,210.140008010865,14|0,1:2|2:0,2:0:0:0:
134,237,132379,2,0,P|150:145|203:222,1,238.158671206159,6|8,1:2|1:2,2:0:0:0:
216,369,132700,1,8,1:3:0:0:
270,289,132807,1,0,1:0:0:0:
128,333,132915,37,6,1:2:0:0:
128,348,132986,1,2,2:2:0:0:
117,369,133057,1,2,2:2:0:0:
88,384,133129,1,2,2:2:0:0:
48,384,133200,1,2,2:2:0:0:
12,352,133272,1,2,2:2:0:0:
5,298,133343,2,2,P|9:268|26:243,1,61.2733305562342,2|2,2:2|2:2,2:2:0:0:
165,125,133486,53,2,2:2:0:0:
160,109,133557,1,6,1:2:0:0:
140,94,133629,1,2,2:2:0:0:
108,94,133700,1,2,2:2:0:0:
78,121,133772,1,6,1:2:0:0:
30,117,133843,1,2,2:2:0:0:
2,69,133915,1,2,2:2:0:0:
11,8,133986,2,2,P|47:-15|91:-8,1,91.4853291676844,10|10,1:2|1:2,2:2:0:0:
402,89,134200,53,12,1:2:0:0:
404,80,134307,1,8,1:2:0:0:
396,75,134415,1,8,1:2:0:0:
389,81,134522,1,8,1:2:0:0:
474,1,134629,38,0,P|515:92|459:176,1,210.140008010865,6|8,1:2|2:0,2:0:0:0:
355,169,134950,1,2,2:0:0:0:
490,287,135057,2,0,P|390:276|345:186,1,210.140008010865,2|8,1:2|2:0,2:0:0:0:
292,53,135379,1,2,2:0:0:0:
203,113,135486,6,0,P|185:161|197:211,1,105.560004005432,2|0,1:2|2:0,2:0:0:0:
204,3,135700,2,0,P|153:11|115:47,1,105.560004005432,10|0,2:0|2:0,2:0:0:0:
1,232,135915,2,0,P|19:280|7:330,1,105.560004005432,2|0,1:2|2:0,2:0:0:0:
0,122,136129,2,0,P|51:130|89:166,1,105.560004005432,10|0,2:0|2:0,2:0:0:0:
160,358,136343,6,0,B|250:376|304:317|304:317|348:388|445:382,1,315.700012016297,2|0,1:2|2:0,2:0:0:0:
487,247,136772,2,0,P|404:286|382:197,1,210.140008010865,2|8,1:2|2:0,2:0:0:0:
406,100,137093,1,2,2:0:0:0:
301,125,137200,38,0,P|270:165|268:218,1,105.560004005432,2|0,1:2|2:0,2:0:0:0:
173,338,137415,2,0,P|223:344|269:319,1,105.560004005432,10|0,2:0|2:0,2:0:0:0:
75,184,137629,2,0,P|24:177|-21:202,1,105.560004005432,2|0,1:2|2:0,2:0:0:0:
18,384,137843,2,0,P|48:343|50:290,1,105.560004005432,10|0,2:0|2:0,2:0:0:0:
0,75,138057,5,6,1:2:0:0:
64,4,138165,1,2,2:0:0:0:
156,20,138272,1,10,2:0:0:0:
191,107,138379,1,2,2:0:0:0:
134,193,138486,21,2,1:2:0:0:
113,190,138557,1,2,2:0:0:0:
100,173,138629,54,0,P|87:140|93:106,1,70.8400026702884,2|10,2:0|2:0,2:0:0:0:
201,90,138807,1,2,2:0:0:0:
263,167,138915,38,0,P|256:218|225:259,1,105.280004005432,2|0,1:2|2:0,2:0:0:0:
315,59,139129,2,0,P|356:90|376:137,1,105.280004005432,10|0,2:0|2:0,2:0:0:0:
512,329,139343,2,0,P|464:349|413:342,1,105.280004005432,2|0,1:2|2:0,2:0:0:0:
493,136,139557,2,0,P|486:188|453:229,1,105.280004005432,10|0,2:0|2:0,2:0:0:0:
126,290,139772,6,0,P|199:357|296:332,1,210.140008010865,2|8,1:2|2:0,2:0:0:0:
347,208,140093,1,2,2:0:0:0:
422,384,140200,2,0,P|334:333|329:233,1,210.140008010865,2|8,1:2|2:0,2:0:0:0:
455,138,140522,1,2,2:0:0:0:
350,82,140629,6,0,P|300:69|253:89,1,105.560004005432,2|0,1:2|2:0,2:0:0:0:
173,0,140843,2,0,P|136:36|131:87,1,105.560004005432,10|0,2:0|2:0,2:0:0:0:
29,304,141057,2,0,P|78:316|125:296,1,105.560004005432,2|0,1:2|2:0,2:0:0:0:
13,111,141272,2,0,P|26:160|68:191,1,105.560004005432,10|0,2:0|2:0,2:0:0:0:
255,233,141486,37,6,1:2:0:0:
278,252,141593,1,2,2:2:0:0:
319,254,141700,1,10,2:2:0:0:
356,217,141807,1,2,2:2:0:0:
413,190,141915,1,2,1:2:0:0:
480,217,142022,1,2,2:2:0:0:
512,294,142129,1,10,2:2:0:0:
468,377,142236,1,2,2:2:0:0:
363,384,142343,5,2,1:2:0:0:
413,291,142450,1,2,2:2:0:0:
361,211,142557,1,10,2:2:0:0:
407,128,142665,1,2,2:2:0:0:
373,51,142772,5,2,1:2:0:0:
356,24,142879,1,2,2:2:0:0:
307,4,142986,1,10,2:2:0:0:
236,25,143093,1,2,2:2:0:0:
144,0,143200,37,2,1:2:0:0:
150,333,143415,1,10,2:2:0:0:
281,103,143629,1,2,1:2:0:0:
292,111,143736,1,2,2:2:0:0:
294,98,143843,1,10,2:2:0:0:
349,178,143950,5,2,2:2:0:0:
266,195,144057,1,2,1:2:0:0:
214,168,144165,1,2,2:2:0:0:
199,140,144272,1,10,2:2:0:0:
207,39,144379,5,2,2:2:0:0:
157,0,144486,1,2,1:2:0:0:
125,3,144593,1,2,2:2:0:0:
117,9,144700,2,0,P|87:37|72:77,1,77.4106690165206,10|0,2:0|2:0,2:0:0:0:
125,327,144915,38,0,B|89:404|3:376|3:376|-13:335|18:304,1,210.140008010865,6|8,1:2|2:0,2:0:0:0:
109,215,145236,1,2,2:2:0:0:
171,211,145343,1,2,1:2:0:0:
223,245,145450,1,2,2:2:0:0:
241,305,145557,1,10,2:2:0:0:
296,335,145665,1,2,2:2:0:0:
357,320,145772,2,0,P|382:274|374:223,1,105.560004005432,2|0,1:2|2:0,2:0:0:0:
198,42,145986,2,0,P|224:86|272:105,1,105.560004005432,10|0,2:2|2:0,2:0:0:0:
440,51,146200,5,2,1:2:0:0:
477,100,146307,1,2,2:0:0:0:
506,179,146415,1,10,2:0:0:0:
497,282,146522,1,2,2:0:0:0:
423,384,146629,5,8,1:3:0:0:
411,376,146950,37,8,1:3:0:0:
405,360,147272,5,8,1:3:0:0:
505,0,147486,1,4,1:2:0:0:
510,18,147915,37,10,1:2:0:0:
479,26,147986,1,2,2:0:0:0:
512,36,148057,53,2,2:0:0:0:
479,37,148129,1,10,1:2:0:0:
509,54,148200,5,2,2:0:0:0:
478,47,148272,1,2,2:0:0:0:
500,71,148343,6,0,P|428:139|334:104,1,210.140008010865,6|8,1:2|2:0,2:0:0:0:
321,0,148665,1,2,2:0:0:0:
250,163,148772,2,0,P|227:66|304:2,1,210.140008010865,2|8,1:2|2:0,2:0:0:0:
341,226,149093,1,2,2:0:0:0:
240,276,149200,6,0,P|192:261|149:213,1,105.560004005432,2|0,1:2|2:0,2:0:0:0:
58,271,149415,2,0,P|46:223|66:161,1,105.560004005432,10|0,2:0|2:0,2:0:0:0:
237,382,149629,2,0,P|287:369|325:334,1,105.560004005432,2|0,1:2|2:0,2:0:0:0:
425,384,149843,2,0,P|439:334|428:283,1,105.560004005432,10|0,2:0|2:0,2:0:0:0:
258,164,150057,6,0,B|309:103|399:109|440:168|440:168|411:94|484:43,1,315.700012016297,2|0,1:2|2:0,2:0:0:0:
345,233,150486,2,0,P|254:277|165:228,1,210.140008010865,2|8,1:2|2:0,2:0:0:0:
161,103,150807,1,2,2:0:0:0:
48,132,150915,38,0,P|16:173|0:223,1,105.560004005432,2|0,1:2|2:0,2:0:0:0:
78,25,151129,2,0,P|26:18|-25:28,1,105.560004005432,10|0,2:0|2:0,2:0:0:0:
277,101,151343,2,0,P|318:132|346:176,1,105.560004005432,2|0,1:2|2:0,2:0:0:0:
220,6,151557,2,0,P|268:-14|330:-1,1,105.000004005432,10|0,2:0|2:0,2:0:0:0:
10,243,151772,5,6,1:2:0:0:
20,336,151879,1,2,2:0:0:0:
106,376,151986,1,10,2:0:0:0:
185,325,152093,1,2,2:0:0:0:
190,227,152200,21,2,1:2:0:0:
171,222,152272,1,2,2:0:0:0:
147,225,152343,54,0,P|116:242|98:271,1,70.8400026702884,2|10,2:0|2:0,2:0:0:0:
18,348,152522,1,2,2:0:0:0:
0,227,152629,38,0,P|18:179|61:151,1,105.560004005432,2|0,1:2|2:0,2:0:0:0:
34,29,152843,2,0,P|84:20|130:43,1,105.560004005432,10|0,2:0|2:0,2:0:0:0:
314,142,153057,2,0,P|363:154|411:135,1,105.560004005432,2|0,1:2|2:0,2:0:0:0:
488,225,153272,2,0,P|522:188|530:137,1,105.560004005432,10|0,2:0|2:0,2:0:0:0:
196,144,153486,6,0,B|196:91|244:68|244:68|312:127|283:231|200:310,1,315.700012016297,2|0,1:2|2:0,2:0:0:0:
110,361,153915,2,0,P|186:296|279:333,1,210.140008010865,2|8,1:2|2:0,2:0:0:0:
385,384,154236,1,2,2:0:0:0:
476,315,154343,6,0,P|501:270|495:219,1,105.560004005432,2|0,1:2|2:0,2:0:0:0:
303,119,154557,2,0,P|277:163|283:214,1,105.560004005432,10|0,2:0|2:0,2:0:0:0:
463,294,154772,2,0,P|475:244|456:196,1,105.560004005432,2|0,1:2|2:0,2:0:0:0:
316,139,154986,2,0,P|303:188|322:236,1,105.560004005432,10|0,2:0|2:0,2:0:0:0:
512,45,155200,37,6,1:2:0:0:
489,66,155307,1,2,2:2:0:0:
452,87,155415,1,10,2:2:0:0:
400,78,155522,1,2,2:2:0:0:
348,42,155629,1,2,1:2:0:0:
274,42,155736,1,2,2:2:0:0:
210,96,155843,1,10,2:2:0:0:
117,114,155950,1,2,2:2:0:0:
33,49,156057,1,2,1:2:0:0:
166,251,156272,1,10,2:2:0:0:
185,299,156379,1,2,2:2:0:0:
151,352,156486,5,2,1:2:0:0:
241,324,156593,1,2,2:2:0:0:
313,384,156700,1,10,2:2:0:0:
406,369,156807,1,2,2:2:0:0:
446,282,156915,5,2,1:2:0:0:
380,315,157022,1,2,2:2:0:0:
315,279,157129,1,10,2:2:0:0:
307,205,157236,1,2,2:2:0:0:
364,158,157343,38,0,P|352:207|376:253,1,105.560004005432,2|0,1:2|2:0,2:0:0:0:
148,95,157557,2,0,P|159:45|136:0,1,105.560004005432,10|0,2:0|2:0,2:0:0:0:
0,290,157772,5,2,1:2:0:0:
85,384,157879,1,2,2:0:0:0:
200,333,157986,1,10,2:0:0:0:
187,208,158093,1,2,2:0:0:0:
63,181,158200,5,2,1:2:0:0:
116,232,158307,1,2,2:2:0:0:
183,201,158415,2,0,P|228:177|278:188,1,105.560004005432,10|0,2:0|2:0,2:0:0:0:
501,384,158629,37,2,1:2:0:0:
461,370,158736,1,0,1:0:0:0:
437,322,158843,1,10,1:2:0:0:
450,260,158950,1,8,1:2:0:0:
512,203,159057,53,10,1:2:0:0:
483,221,159128,1,2,0:0:0:0:
451,224,159200,1,10,1:3:0:0:
420,215,159271,1,10,1:3:0:0:
398,193,159343,1,2,2:0:0:0:
385,163,159414,1,2,1:3:0:0:
385,131,159486,1,10,1:2:0:0:
459,147,159915,5,0,2:0:0:0:
0,0,160343,5,6,1:2:0:0:
404,161,173843,5,8,1:3:0:0:
495,189,173950,1,8,1:3:0:0:
384,254,174057,38,0,P|322:218|306:148,2,147.097995513916,6|2|2,1:2|2:0|2:0,2:0:0:0:
179,121,174915,2,0,P|229:70|226:0,2,147.097995513916,10|2|2,1:2|2:0|2:0,2:0:0:0:
0,137,175772,1,2,1:2:0:0:
142,34,176093,1,2,2:0:0:0:
74,270,176415,1,2,2:0:0:0:
174,374,176629,2,0,B|266:415|267:296|371:354,1,196.130660685223,10|0,1:2|1:0,2:0:0:0:
512,384,177272,1,2,2:0:0:0:
342,224,177486,6,0,P|269:218|208:256,2,147.097995513916,6|2|2,1:2|2:0|2:0,2:0:0:0:
376,83,178343,2,0,P|437:120|509:115,2,147.097995513916,10|2|2,1:2|2:0|2:0,2:0:0:0:
220,13,179200,2,0,P|126:-3|47:60,1,196.130660685223,2|0,1:2|1:0,2:0:0:0:
57,84,179700,37,8,2:0:0:0:
54,99,179772,1,8,2:0:0:0:
51,115,179843,2,0,L|39:178,1,49.2613318379723,8|8,2:0|1:2,2:0:0:0:
137,253,180057,5,8,1:3:0:0:
100,306,180165,1,8,2:0:0:0:
36,309,180272,1,8,2:0:0:0:
170,122,180486,5,0,1:0:0:0:
232,134,180593,1,8,1:3:0:0:
273,182,180700,1,8,1:3:0:0:
284,244,180807,1,8,1:3:0:0:
263,304,180915,6,0,B|249:247|256:186|256:186|215:232,1,154.102671366375,6|0,1:2|2:0,2:0:0:0:
372,81,181236,2,0,B|406:58|440:87|374:152|374:152|448:146,1,182.121325002037,6|0,1:2|2:0,2:0:0:0:
472,273,181557,2,0,B|517:250|545:287|513:323|513:323|549:335|544:388|495:386|467:378,1,210.140008010865,6|0,1:2|1:0,2:0:0:0:
354,318,181879,37,8,1:2:0:0:
301,384,181986,1,8,1:3:0:0:
217,372,182093,1,8,1:2:0:0:
169,302,182200,53,8,1:2:0:0:
140,307,182272,1,8,1:2:0:0:
112,311,182343,1,8,1:3:0:0:
85,316,182415,1,8,1:3:0:0:
56,321,182486,1,8,1:3:0:0:
29,326,182557,1,8,1:3:0:0:
4,331,182629,22,0,P|95:320|71:231,1,210.140008010865,4|0,1:2|2:0,2:0:0:0:
18,77,182950,2,0,P|5:190|116:165,1,266.177326230369,4|0,1:2|2:0,2:0:0:0:
212,17,183272,21,4,1:2:0:0:
246,12,183343,1,0,1:0:0:0:
279,25,183415,1,0,1:0:0:0:
300,52,183486,2,0,P|306:93|287:131,1,84.4479974365239,0|8,1:0|1:2,2:0:0:0:
247,276,183700,21,8,1:3:0:0:
356,266,183807,1,8,2:3:0:0:
212,189,183915,1,12,2:0:0:0:
484,80,184129,5,8,1:3:0:0:
390,122,184236,1,8,1:3:0:0:
512,181,184343,1,4,1:2:0:0:
509,190,184772,6,0,P|483:207|457:208,1,56.2986666666668,8|0,1:3|2:0,2:0:0:0:
243,201,184986,2,0,P|268:183|294:182,1,56.2986666666668,8|0,1:3|2:0,2:0:0:0:
467,53,185200,38,0,P|469:89|451:117,1,70.3733333333336,8|0,1:3|2:0,2:0:0:0:
285,338,185415,2,0,P|282:301|300:273,1,70.3733333333336,8|0,1:3|2:0,2:0:0:0:
313,7,185629,6,0,P|351:25|367:64,1,84.4479974365239,8|0,1:3|2:0,2:0:0:0:
439,384,185843,2,0,P|400:365|384:326,1,84.4479974365239,8|0,1:3|2:0,2:0:0:0:
115,0,186057,5,12,1:2:0:0:
89,286,186272,1,8,1:3:0:0:
376,312,186486,1,8,1:3:0:0:
401,25,186700,1,8,1:3:0:0:
22,136,186915,37,8,1:3:0:0:
469,175,187129,1,8,1:3:0:0:
195,130,187343,5,8,1:3:0:0:
203,236,187450,1,8,1:3:0:0:
309,227,187557,1,8,1:3:0:0:
301,121,187665,1,8,1:3:0:0:
108,228,187772,6,0,P|149:318|248:322,1,210.140008010865,14|0,1:2|2:0,2:0:0:0:
413,368,188093,2,0,P|314:377|261:293,1,210.140008010865,6|0,1:2|1:0,2:0:0:0:
376,185,188415,1,8,1:3:0:0:
356,289,188522,1,8,1:2:0:0:
454,239,188629,38,0,P|463:140|379:87,1,210.140008010865,14|0,1:2|2:0,2:0:0:0:
205,48,188950,2,0,P|285:105|373:59,1,210.140008010865,6|8,1:2|1:2,2:0:0:0:
490,0,189272,1,8,1:3:0:0:
110,18,189486,6,0,P|30:71|126:81,1,238.158671206159,6|0,1:2|2:0,2:0:0:0:
231,276,189807,2,0,P|224:180|167:258,1,238.158671206159,6|0,1:2|2:0,2:0:0:0:
0,235,190129,2,0,P|43:256|23:211,1,119.634668936413,6|0,1:2|2:0,2:0:0:0:
300,349,190343,6,0,B|319:396|391:379|391:379|403:383|403:383|397:373|397:373|401:298|351:287,1,238.158671206159,6|0,1:2|2:0,2:0:0:0:
413,86,190665,2,0,B|362:78|341:149|341:149|332:158|332:158|343:158|343:158|406:198|441:161,1,238.158671206159,6|0,1:2|2:0,2:0:0:0:
512,293,190986,2,0,B|528:272|502:246|502:246|501:239|501:239|498:244|498:244|465:261|472:286,1,119.634668936413,6|0,1:2|2:0,2:0:0:0:
144,357,191200,5,6,1:2:0:0:
133,371,191272,1,2,2:2:0:0:
112,384,191343,1,2,2:2:0:0:
81,384,191415,1,2,2:2:0:0:
53,360,191486,1,2,2:2:0:0:
46,318,191557,1,2,2:2:0:0:
71,277,191629,2,2,P|100:268|129:274,1,61.2733305562342,2|2,2:2|2:2,2:2:0:0:
284,234,191772,5,2,2:2:0:0:
302,219,191843,1,6,1:2:0:0:
312,190,191915,1,2,2:2:0:0:
301,155,191986,1,2,2:2:0:0:
263,136,192057,1,6,1:2:0:0:
229,100,192129,1,2,2:2:0:0:
235,46,192200,1,2,2:2:0:0:
281,5,192272,2,2,P|325:4|359:33,1,91.4853291676844,10|10,1:2|1:2,2:2:0:0:
503,384,192486,5,12,1:2:0:0:
512,371,192593,1,8,1:2:0:0:
498,376,192700,1,8,1:2:0:0:
512,380,192807,1,8,1:2:0:0:
503,368,192915,6,0,L|493:345,3,24.6306659189862,10|8|8|8,1:2|1:2|1:3|1:3,2:0:0:0:
125,125,193343,6,0,P|125:106|128:89,1,35.0560000000002,14|0,1:2|2:0,2:0:0:0:
198,188,193986,5,0,1:0:0:0:
197,200,194057,1,0,1:0:0:0:
196,214,194129,1,0,1:0:0:0:
195,227,194200,2,0,L|190:282,1,49.2613318379723,8|8,1:2|1:2,2:0:0:0:
32,293,194415,21,8,1:3:0:0:
114,384,194629,1,2,2:0:0:0:
507,121,195486,53,8,1:3:0:0:
500,120,195557,1,0,1:0:0:0:
493,119,195629,1,0,1:0:0:0:
486,118,195700,6,0,L|437:112,1,49.2613318379723,0|8,1:0|2:0,2:0:0:0:
379,0,195915,2,0,L|349:39,1,49.2613318379723,8|0,2:0|1:0,2:0:0:0:
269,116,196129,53,8,2:0:0:0:
274,127,196200,1,0,1:0:0:0:
279,138,196272,1,0,1:0:0:0:
315,166,196343,53,8,1:3:0:0:
308,202,196415,1,8,1:3:0:0:
301,238,196486,1,8,1:3:0:0:
294,275,196557,1,8,1:3:0:0:
291,280,196772,22,0,P|364:184|371:305,1,315.700012016297,14|0,1:2|2:0,2:0:0:0:
33,384,197200,6,0,P|-9:283|15:175,1,224.149333333335,6|0,1:2|2:0,2:0:0:0:
261,103,197522,2,0,P|194:189|89:223,1,224.149333333335,6|0,1:2|2:0,2:0:0:0:
0,92,197843,2,0,P|54:99|95:136,1,112.597333333332,6|0,1:2|2:0,2:0:0:0:
325,372,198057,21,10,1:3:0:0:
355,135,198200,1,8,1:2:0:0:
500,324,198343,1,8,1:3:0:0:
277,195,198486,5,10,1:3:0:0:
422,384,198629,1,8,1:3:0:0:
453,148,198772,1,8,1:2:0:0:
264,292,198915,53,2,1:2:0:0:
512,226,199057,1,8,1:2:0:0:
355,135,199200,1,8,1:3:0:0:
422,384,199343,1,14,1:2:0:0:
512,0,199772,21,6,1:2:0:0:
505,17,200200,5,8,1:3:0:0:
475,101,200415,1,8,1:3:0:0:
386,113,200629,1,8,1:3:0:0:
320,52,200843,1,8,1:3:0:0:
230,51,201057,1,8,1:3:0:0:
169,117,201272,1,8,1:3:0:0:
474,272,201486,5,12,1:2:0:0:
381,209,201700,1,8,1:3:0:0:
271,233,201915,1,8,1:3:0:0:
226,335,202129,1,8,1:3:0:0:
123,379,202343,37,8,1:3:0:0:
0,323,202557,1,8,1:3:0:0:
0,188,202772,1,8,1:3:0:0:
116,120,202986,1,8,1:3:0:0:
420,203,203200,5,12,1:2:0:0:
387,0,203415,1,8,1:3:0:0:
184,32,203629,1,8,1:3:0:0:
217,235,203843,1,8,1:3:0:0:
0,320,204057,5,8,1:3:0:0:
33,88,204272,1,8,1:3:0:0:
265,122,204486,1,8,1:3:0:0:
231,353,204700,1,8,1:3:0:0:
379,130,204915,38,0,P|342:36|244:8,1,210.140008010865,14|0,1:2|2:0,2:0:0:0:
104,186,205236,2,0,P|204:201|277:130,1,210.140008010865,14|0,1:2|2:0,2:0:0:0:
138,0,205557,2,0,P|138:51|169:92,1,105.560004005432,14|0,1:2|2:0,2:0:0:0:
498,162,205772,1,6,1:2:0:0:
492,155,206200,53,10,1:2:0:0:
512,120,206272,1,2,2:0:0:0:
478,151,206343,53,2,2:0:0:0:
489,112,206415,1,10,1:2:0:0:
465,150,206486,5,2,2:0:0:0:
465,110,206557,1,2,2:0:0:0:
451,154,206629,6,0,P|352:176|334:278,1,210.140008010865,6|8,1:2|2:0,2:0:0:0:
409,334,206950,1,2,2:0:0:0:
236,305,207057,2,0,P|302:378|397:349,1,210.140008010865,2|8,1:2|2:0,2:0:0:0:
228,204,207379,1,2,2:0:0:0:
138,279,207486,6,0,B|122:324|150:373|150:373|47:412|-5:309|40:224,1,315.700012016297,2|0,1:2|2:0,2:0:0:0:
117,151,207915,2,0,P|169:148|212:177,1,105.560004005432,2|0,1:2|2:0,2:0:0:0:
0,102,208129,2,0,P|22:55|69:32,1,105.560004005432,10|0,2:0|2:0,2:0:0:0:
296,5,208343,6,0,B|237:66|151:22|151:22|75:-21|8:41,1,315.700012016297,2|0,1:2|2:0,2:0:0:0:
202,186,208772,2,0,P|308:179|390:112,1,210.140008010865,2|8,1:2|2:0,2:0:0:0:
468,0,209093,1,2,2:0:0:0:
512,114,209200,38,0,P|498:164|462:201,1,105.560004005432,2|0,1:2|2:0,2:0:0:0:
511,302,209415,2,0,P|461:315|411:302,1,105.560004005432,10|0,2:0|2:0,2:0:0:0:
272,180,209629,2,0,P|276:232|305:275,1,105.560004005432,2|0,1:2|2:0,2:0:0:0:
239,362,209843,2,0,P|286:383|338:378,1,105.560004005432,10|0,2:0|2:0,2:0:0:0:
175,134,210057,5,6,1:2:0:0:
164,40,210165,1,2,2:0:0:0:
79,0,210272,1,10,2:0:0:0:
0,51,210379,1,2,2:0:0:0:
2,158,210486,21,2,1:2:0:0:
20,165,210557,1,2,2:0:0:0:
38,161,210629,54,0,P|64:138|80:107,1,70.8400026702884,2|10,2:0|2:0,2:0:0:0:
171,34,210807,1,2,2:0:0:0:
188,147,210915,38,0,P|193:200|208:263,1,105.560004005432,2|0,1:2|2:0,2:0:0:0:
127,368,211129,2,0,P|106:319|94:268,1,105.560004005432,10|0,2:0|2:0,2:0:0:0:
329,156,211343,2,0,P|314:207|289:266,1,105.560004005432,2|0,1:2|2:0,2:0:0:0:
350,384,211557,2,0,P|379:339|399:291,1,105.560004005432,10|0,2:0|2:0,2:0:0:0:
480,76,211772,6,0,B|505:64|529:69|529:69|532:-18|414:-31|370:42|371:117|459:160,1,315.700012016297,2|0,1:2|2:0,2:0:0:0:
504,384,212200,2,0,P|521:280|513:176,1,210.140008010865,2|8,1:2|2:0,2:0:0:0:
417,140,212522,1,2,2:0:0:0:
310,166,212629,6,0,P|265:194|213:182,1,105.560004005432,2|0,1:2|2:0,2:0:0:0:
117,25,212843,2,0,P|161:-3|213:8,1,105.560004005432,10|0,2:0|2:0,2:0:0:0:
288,162,213057,2,0,P|237:177|190:153,1,105.560004005432,2|0,1:2|2:0,2:0:0:0:
139,29,213272,2,0,P|189:13|236:37,1,105.560004005432,10|0,2:0|2:0,2:0:0:0:
9,233,213486,37,6,1:2:0:0:
0,262,213593,1,2,2:2:0:0:
11,303,213700,1,10,2:2:0:0:
52,333,213807,1,2,2:2:0:0:
115,328,213915,1,2,1:2:0:0:
164,272,214022,1,2,2:2:0:0:
242,243,214129,1,10,2:2:0:0:
326,284,214236,1,2,2:2:0:0:
355,384,214343,1,2,1:2:0:0:
110,162,214557,1,10,2:2:0:0:
116,109,214665,1,2,2:2:0:0:
71,64,214772,5,2,1:2:0:0:
158,99,214879,1,2,2:2:0:0:
224,32,214986,1,10,2:2:0:0:
318,35,215093,1,2,2:2:0:0:
371,112,215200,5,2,1:2:0:0:
299,97,215307,1,2,2:2:0:0:
237,137,215415,1,10,2:2:0:0:
225,209,215522,1,2,2:2:0:0:
259,273,215629,2,0,P|303:298|353:287,1,105.560004005432,2|0,1:2|2:0,2:0:0:0:
512,145,215843,2,0,P|467:170|452:219,1,105.560004005432,10|0,2:0|2:0,2:0:0:0:
138,384,216057,37,2,1:2:0:0:
14,357,216165,1,2,2:0:0:0:
0,232,216272,1,10,2:0:0:0:
115,181,216379,1,2,2:0:0:0:
200,274,216486,5,2,1:2:0:0:
130,254,216593,1,2,2:2:0:0:
105,184,216700,2,0,P|106:133|141:95,1,105.560004005432,10|0,2:0|2:0,2:0:0:0:
351,20,216915,5,6,1:2:0:0:
392,24,217022,1,2,2:2:0:0:
424,50,217129,1,10,2:2:0:0:
441,87,217236,1,2,2:2:0:0:
435,139,217343,1,2,1:2:0:0:
393,186,217450,1,2,2:2:0:0:
370,255,217557,1,10,2:2:0:0:
409,329,217665,1,2,2:2:0:0:
502,341,217772,1,2,1:2:0:0:
352,105,217986,37,10,2:2:0:0:
262,75,218093,1,2,2:2:0:0:
208,139,218200,1,2,1:2:0:0:
234,207,218307,1,2,2:2:0:0:
214,267,218415,1,10,2:2:0:0:
170,295,218522,1,2,2:2:0:0:
130,291,218629,2,0,P|261:259|311:384,1,294.653324361166,6|0,1:2|2:0,2:0:0:0:
37,357,219057,5,2,1:2:0:0:
0,311,219165,1,2,2:0:0:0:
48,262,219272,1,10,2:0:0:0:
4,196,219379,1,2,2:0:0:0:
78,149,219486,1,2,1:2:0:0:
343,54,219700,5,10,2:0:0:0:
273,0,219807,1,2,2:0:0:0:
219,58,219915,1,2,1:2:0:0:
177,3,220022,1,2,2:0:0:0:
135,44,220129,1,10,2:0:0:0:
95,15,220236,1,2,2:0:0:0:
62,36,220343,1,2,1:2:0:0:
168,239,220557,37,10,1:2:0:0:
165,337,220665,1,8,1:2:0:0:
258,369,220772,53,2,1:2:0:0:
289,360,220844,1,10,1:3:0:0:
314,341,220915,1,2,2:0:0:0:
329,313,220986,1,10,1:3:0:0:
331,280,221058,1,10,1:3:0:0:
319,250,221129,1,2,0:0:0:0:
294,228,221201,1,10,1:2:0:0:
237,288,221415,22,0,P|277:319|331:313,1,105.560004005432,2|0,1:2|1:0,2:0:0:0:
496,180,221629,37,6,1:2:0:0:
512,149,221700,1,2,2:0:0:0:
502,114,221772,1,2,2:0:0:0:
472,94,221843,1,2,2:0:0:0:
454,63,221915,1,2,2:0:0:0:
457,28,221986,1,2,2:0:0:0:
477,0,222057,38,0,P|419:82|319:78,1,210.140008010865,6|0,1:2|2:0,2:0:0:0:
144,0,222379,2,0,P|244:8|290:97,1,210.140008010865,6|8,1:2|2:0,2:0:0:0:
239,185,222700,1,8,1:3:0:0:
186,91,222807,1,8,1:2:0:0:
340,174,222915,38,0,P|308:269|210:288,1,210.140008010865,6|0,1:2|2:0,2:0:0:0:
89,147,223236,1,6,1:2:0:0:
59,231,223343,1,8,1:2:0:0:
1,142,223450,1,8,1:2:0:0:
67,61,223557,1,8,1:3:0:0:
165,98,223665,1,8,1:2:0:0:
159,203,223772,6,0,P|189:297|289:300,1,210.140008010865,6|0,1:2|2:0,2:0:0:0:
481,118,224093,1,6,1:2:0:0:
474,24,224200,1,0,1:0:0:0:
390,86,224307,1,8,2:0:0:0:
411,189,224415,1,8,1:3:0:0:
512,213,224522,1,8,1:2:0:0:
510,317,224629,6,0,P|437:383|328:344,1,210.140008010865,6|0,1:2|2:0,2:0:0:0:
244,227,224950,1,6,1:2:0:0:
255,215,225057,5,8,2:0:0:0:
414,280,225200,1,0,1:0:0:0:
213,384,225343,1,8,1:2:0:0:
325,120,225486,22,0,P|228:91|152:158,1,210.140008010865,6|0,1:2|2:0,2:0:0:0:
49,280,225807,2,0,P|121:210|101:111,1,210.140008010865,6|8,1:2|1:2,2:0:0:0:
0,65,226129,1,8,1:3:0:0:
17,178,226236,1,8,1:3:0:0:
86,0,226343,5,6,1:2:0:0:
320,190,228700,37,2,2:0:0:0:
322,203,228772,1,2,2:0:0:0:
324,216,228843,1,2,2:0:0:0:
326,229,228915,1,2,2:0:0:0:
309,266,228986,1,6,2:0:0:0:
256,192,229057,12,0,237486,2:0:0:0:
