osu file format v14

[General]
AudioFilename: audio.mp3
AudioLeadIn: 0
PreviewTime: 57432
Countdown: 0
SampleSet: Normal
StackLeniency: 0.7
Mode: 1
LetterboxInBreaks: 0
WidescreenStoryboard: 1

[Editor]
DistanceSpacing: 4.5
BeatDivisor: 3
GridSize: 32
TimelineZoom: 2

[Metadata]
Title:I wanna be a girl
TitleUnicode:女の子になりたい
Artist:mafumafu
ArtistUnicode:まふまふ
Creator:Hivie
Version:please!
Source:
Tags:jerry kagura iro onna no ko onnanoko ni naritai 神楽色アーティファクト Kagurairo Artifact japanese pop j-pop jpop 田中秀和 Tanaka Hidekazu monaca trans transgender rights
BeatmapID:4077538
BeatmapSetID:1966382

[Difficulty]
HPDrainRate:6
CircleSize:2
OverallDifficulty:6
ApproachRate:10
SliderMultiplier:1.4
SliderTickRate:1

[Events]
//Background and Video events
0,0,"cute.jpg",0,180
//Break Periods
//Storyboard Layer 0 (Background)
//Storyboard Layer 1 (Fail)
//Storyboard Layer 2 (Pass)
//Storyboard Layer 3 (Foreground)
//Storyboard Layer 4 (Overlay)
//Storyboard Sound Samples

[TimingPoints]
915,428.571428571429,4,1,0,90,1,0
915,-111.111111111111,4,1,0,90,0,0
5200,-133.333333333333,4,1,0,90,0,0
6057,-80,4,1,0,100,0,1
12269,-86.2152163422873,4,1,0,100,0,1
12376,-87.7250409165303,4,1,0,100,0,1
12483,-89.2886889888389,4,1,0,100,0,1
12590,-90.9090909090909,4,1,0,100,0,1
12697,-92.5893936776645,4,1,0,100,0,1
12804,-94.332981344597,4,1,0,100,0,1
12915,-96.1607463222103,4,1,0,100,0,0
13126,-100,4,1,0,100,0,0
35197,-83.3333333333333,4,1,0,100,0,0
35412,-84.9106435425654,4,1,0,100,0,0
35519,-85.7180945609669,4,1,0,100,0,0
35626,-86.5410497981158,4,1,0,100,0,0
35840,-88.2352941176471,4,1,0,100,0,0
35947,-89.1075388026608,4,1,0,100,0,0
36054,-89.9972007091537,4,1,0,100,0,0
36269,-91.8396495905542,4,1,0,100,0,0
36483,-93.75,4,1,0,100,0,0
36590,-94.7352912287595,4,1,0,100,0,0
36697,-95.7415128052412,4,1,0,100,0,0
36804,-96.7693388180997,4,1,0,100,0,0
36912,-97.829394461913,4,1,0,100,0,0
37126,-100,4,1,0,100,0,0
39483,-98.0410106188209,4,1,0,100,0,0
39590,-97.0900190372586,4,1,0,100,0,0
39697,-96.1572993356078,4,1,0,100,0,0
39804,-95.2423299244108,4,1,0,100,0,0
39912,-94.336298775654,4,1,0,100,0,0
40019,-93.455497382199,4,1,0,100,0,0
40126,-92.5909916140745,4,1,0,100,0,0
40340,-90.9090909090909,4,1,0,100,0,0
40557,-100,4,1,0,100,0,0
47200,-80,4,1,0,100,0,1
48057,-100,4,1,0,100,0,0
48915,-80,4,1,0,100,0,1
49772,-100,4,1,0,100,0,1
49986,-95.2380952380952,4,1,0,100,0,0
50090,-95.998805613616,4,1,0,100,0,0
50197,-96.7717661223568,4,1,0,100,0,0
50304,-97.557275072068,4,1,0,100,0,0
50412,-98.3631635306716,4,1,0,100,0,0
50626,-80,4,1,0,100,0,0
51054,-111.111111111111,4,1,0,100,0,0
51269,-108.51871947911,4,1,0,100,0,0
51376,-107.27311735679,4,1,0,100,0,0
51483,-106.05578534309,4,1,0,100,0,0
51697,-103.702167375298,4,1,0,100,0,0
51912,-101.440454453236,4,1,0,100,0,0
52126,-99.2851469420175,4,1,0,100,0,0
52233,-98.2414775518224,4,1,0,100,0,0
52340,-97.2195216799533,4,1,0,100,0,0
52554,-95.2380952380952,4,1,0,100,0,0
52769,-93.3271115258983,4,1,0,100,0,0
52983,-91.4996797511209,4,1,0,100,0,0
53090,-90.6125407756434,4,1,0,100,0,0
53197,-89.7424391994974,4,1,0,100,0,0
53304,-88.8888888888889,4,1,0,100,0,0
53412,-88.0436696601514,4,1,0,100,0,0
53519,-87.2219799389446,4,1,0,100,0,0
53626,-86.4154856550294,4,1,0,100,0,0
53733,-85.6237691583184,4,1,0,100,0,0
53840,-84.8464279653827,4,1,0,100,0,0
54054,-83.3333333333333,4,1,0,100,0,0
55983,-90.0900900900901,4,1,0,100,0,0
56090,-89.5530702915001,4,1,0,100,0,0
56197,-89.0224148195323,4,1,0,100,0,0
56304,-88.4980112033252,4,1,0,100,0,0
56412,-87.9749346686916,4,1,0,100,0,0
56483,-87.6344159295654,4,1,0,100,0,0
56554,-87.2965230731634,4,1,0,100,0,0
56626,-86.9565217391304,4,1,0,100,0,0
56843,-86.0215053763441,4,1,0,100,0,0
56950,-85.5614973262032,4,1,0,100,0,0
57057,-85.1063829787234,4,1,0,100,0,0
57165,-84.6560846560847,4,1,0,100,0,0
57272,-84.2105263157895,4,1,0,100,0,0
57379,-83.7696335078534,4,1,0,100,0,0
57486,-83.3333333333333,4,1,0,100,0,1
69804,-76.1980972703832,4,1,0,100,0,1
70126,-70.1711291247032,4,1,0,100,0,1
70343,-66.6666666666667,4,1,0,100,0,0
70769,-76.9299820466786,4,1,0,100,0,0
70876,-78.4367563609738,4,1,0,100,0,0
70983,-80.0037341299477,4,1,0,100,0,0
71090,-81.6345970661078,4,1,0,100,0,0
71200,-83.3333333333333,4,1,0,100,0,1
85772,-83.3333333333333,4,1,0,100,0,0
86200,-100,4,1,0,100,0,0
86629,-80,4,1,0,100,0,1
89412,-86.2152163422873,4,1,0,100,0,1
89519,-87.7250409165303,4,1,0,100,0,1
89626,-89.2886889888389,4,1,0,100,0,1
89733,-90.9090909090909,4,1,0,100,0,1
89840,-92.5893936776645,4,1,0,100,0,1
89947,-94.332981344597,4,1,0,100,0,1
90057,-96.1607463222103,4,1,0,100,0,0
90266,-111.111111111111,4,1,0,100,0,0
91769,-100,4,1,0,100,0,0
112337,-83.3333333333333,4,1,0,100,0,0
112552,-84.9106435425654,4,1,0,100,0,0
112659,-85.7180945609669,4,1,0,100,0,0
112766,-86.5410497981158,4,1,0,100,0,0
112980,-88.2352941176471,4,1,0,100,0,0
113087,-89.1075388026608,4,1,0,100,0,0
113194,-89.9972007091537,4,1,0,100,0,0
113409,-91.8396495905542,4,1,0,100,0,0
113519,-92.5925925925926,4,1,0,100,0,0
113623,-93.75,4,1,0,100,0,0
113730,-94.7352912287595,4,1,0,100,0,0
113837,-95.7415128052412,4,1,0,100,0,0
113944,-96.7693388180997,4,1,0,100,0,0
114052,-97.829394461913,4,1,0,100,0,0
114266,-100,4,1,0,100,0,0
116623,-98.0410106188209,4,1,0,100,0,0
116730,-97.0900190372586,4,1,0,100,0,0
116837,-96.1572993356078,4,1,0,100,0,0
116944,-95.2423299244108,4,1,0,100,0,0
117052,-94.336298775654,4,1,0,100,0,0
117159,-93.455497382199,4,1,0,100,0,0
117266,-92.5909916140745,4,1,0,100,0,0
117480,-90.9090909090909,4,1,0,100,0,0
117697,-100,4,1,0,100,0,0
124343,-80,4,1,0,100,0,1
125200,-100,4,1,0,100,0,0
126057,-80,4,1,0,100,0,1
126912,-100,4,1,0,100,0,1
127129,-95.2380952380952,4,1,0,100,0,0
127230,-95.998805613616,4,1,0,100,0,0
127337,-96.7717661223568,4,1,0,100,0,0
127444,-97.557275072068,4,1,0,100,0,0
127552,-98.3631635306716,4,1,0,100,0,0
127766,-80,4,1,0,100,0,0
128194,-111.111111111111,4,1,0,100,0,0
128409,-108.51871947911,4,1,0,100,0,0
128516,-107.27311735679,4,1,0,100,0,0
128623,-106.05578534309,4,1,0,100,0,0
128837,-103.702167375298,4,1,0,100,0,0
129052,-101.440454453236,4,1,0,100,0,0
129266,-99.2851469420175,4,1,0,100,0,0
129373,-98.2414775518224,4,1,0,100,0,0
129480,-97.2195216799533,4,1,0,100,0,0
129694,-95.2380952380952,4,1,0,100,0,0
129909,-93.3271115258983,4,1,0,100,0,0
130123,-91.4996797511209,4,1,0,100,0,0
130230,-90.6125407756434,4,1,0,100,0,0
130337,-89.7424391994974,4,1,0,100,0,0
130444,-88.8888888888889,4,1,0,100,0,0
130552,-88.0436696601514,4,1,0,100,0,0
130659,-87.2219799389446,4,1,0,100,0,0
130766,-86.4154856550294,4,1,0,100,0,0
130873,-85.6237691583184,4,1,0,100,0,0
130980,-84.8464279653827,4,1,0,100,0,0
131194,-83.3333333333333,4,1,0,100,0,0
133126,-90.0900900900901,4,1,0,100,0,0
133233,-89.5530702915001,4,1,0,100,0,0
133340,-89.0224148195323,4,1,0,100,0,0
133447,-88.4980112033252,4,1,0,100,0,0
133555,-87.9749346686916,4,1,0,100,0,0
133626,-87.6344159295654,4,1,0,100,0,0
133697,-87.2965230731634,4,1,0,100,0,0
133769,-86.9565217391304,4,1,0,100,0,0
133983,-86.0215053763441,4,1,0,100,0,0
134090,-85.5614973262032,4,1,0,100,0,0
134197,-85.1063829787234,4,1,0,100,0,0
134305,-84.6560846560847,4,1,0,100,0,0
134412,-84.2105263157895,4,1,0,100,0,0
134519,-83.7696335078534,4,1,0,100,0,0
134629,-83.3333333333333,4,1,0,100,0,1
146947,-76.1980972703832,4,1,0,100,0,1
147269,-70.1711291247032,4,1,0,100,0,1
147486,-66.6666666666667,4,1,0,100,0,0
147912,-76.9299820466786,4,1,0,100,0,0
148019,-78.4367563609738,4,1,0,100,0,0
148126,-80.0037341299477,4,1,0,100,0,0
148233,-81.6345970661078,4,1,0,100,0,0
148343,-83.3333333333333,4,1,0,100,0,1
159486,-83.3333333333333,4,1,0,100,0,0
159915,-100,4,1,0,100,0,0
179840,-96.0059723777529,4,1,0,100,0,0
179947,-94.1262580054895,4,1,0,100,0,0
180054,-92.3187365398421,4,1,0,100,0,0
180162,-90.5633802816901,4,1,0,100,0,0
180269,-88.8888888888889,4,1,0,100,0,0
180376,-87.2751951136749,4,1,0,100,0,0
180483,-85.7190468255291,4,1,0,100,0,0
180590,-84.2174197773412,4,1,0,100,0,0
180697,-82.7674979887369,4,1,0,100,0,0
180804,-81.3666561214805,4,1,0,100,0,0
180879,-80,4,1,0,100,0,0
180915,-80,4,1,0,100,0,1
181772,-100,4,1,0,100,0,0
181983,-95.2380952380952,4,1,0,100,0,0
182090,-96.3828353179061,4,1,0,100,0,0
182197,-97.5554292211484,4,1,0,100,0,0
182269,-98.3606557377049,4,1,0,100,0,0
182340,-99.1678224687933,4,1,0,100,0,0
182412,-100,4,1,0,100,0,0
182629,-80,4,1,0,100,0,1
183593,-95.2380952380952,4,1,0,100,0,1
183700,-95.8895352553858,4,1,0,100,0,0
183912,-97.2258231786362,4,1,0,100,0,0
184019,-97.904836498923,4,1,0,100,0,0
184126,-98.5934008150388,4,1,0,100,0,0
184340,-80,4,1,0,100,0,0
184769,-111.111111111111,4,1,0,100,0,0
184983,-108.530497069677,4,1,0,100,0,0
185090,-107.284626113078,4,1,0,100,0,0
185197,-106.067034365719,4,1,0,100,0,0
185412,-103.702167375298,4,1,0,100,0,0
185626,-101.450745662981,4,1,0,100,0,0
185840,-99.2950054612253,4,1,0,100,0,0
186054,-97.2289742343218,4,1,0,100,0,0
186269,-95.2380952380952,4,1,0,100,0,0
186483,-93.3358222885944,4,1,0,100,0,0
186697,-91.5080527086384,4,1,0,100,0,0
186804,-90.6207521522429,4,1,0,100,0,0
186912,-89.7424391994974,4,1,0,100,0,0
187019,-88.8888888888889,4,1,0,100,0,0
187126,-88.0514220304658,4,1,0,100,0,0
187233,-87.2295882763434,4,1,0,100,0,0
187340,-86.4229539365655,4,1,0,100,0,0
187447,-85.6311012159616,4,1,0,100,0,0
187554,-84.8536274925753,4,1,0,100,0,0
187769,-83.3333333333333,4,1,0,100,0,0
191200,-80,4,1,0,100,0,0
193343,-66.6666666666667,4,1,0,100,0,0
193983,-86.9565217391304,4,1,0,100,0,0
194090,-88.885816975394,4,1,0,100,0,0
194197,-90.9026648759454,4,1,0,100,0,0
194304,-93.0131636048026,4,1,0,100,0,0
194412,-95.2451488668345,4,1,0,100,0,0
194519,-97.5646764281921,4,1,0,100,0,0
194626,-100,4,1,0,100,0,0
196769,-80,4,1,0,100,0,0
197197,-85.7095214273804,4,1,0,100,0,0
197483,-90.0017510068289,4,1,0,100,0,0
197772,-93.8967136150235,4,1,0,100,0,0
198054,-83.3333333333333,4,1,0,100,0,0
198197,-84.9069061138254,4,1,0,100,0,0
198340,-86.5410497981158,4,1,0,100,0,0
198483,-88.2393303142583,4,1,0,100,0,0
198626,-90.0055991041433,4,1,0,100,0,0
198769,-91.8440222825311,4,1,0,100,0,0
198912,-93.7591134441528,4,1,0,100,0,0
199054,-95.7415128052412,4,1,0,100,0,0
199197,-97.8244332876921,4,1,0,100,0,0
199340,-76.9230769230769,4,1,0,100,0,0
199772,-66.6666666666667,4,1,0,100,0,0
200197,-111.111111111111,4,1,0,100,0,0
200412,-109.17510853835,4,1,0,100,0,0
200626,-107.313964471453,4,1,0,100,0,0
200840,-105.515211869622,4,1,0,100,0,0
201054,-103.775765112415,4,1,0,100,0,0
201269,-102.085002273367,4,1,0,100,0,0
201376,-101.263919762035,4,1,0,100,0,0
201483,-100.455940003409,4,1,0,100,0,0
201697,-98.8780538953549,4,1,0,100,0,0
201912,-97.341935483871,4,1,0,100,0,0
202126,-95.8596362823132,4,1,0,100,0,0
202340,-94.4218041273243,4,1,0,100,0,0
202554,-93.0264676577652,4,1,0,100,0,0
202769,-91.6655325932694,4,1,0,100,0,0
202983,-90.3499022726402,4,1,0,100,0,0
203090,-89.7061481530807,4,1,0,100,0,0
203197,-89.0715027864362,4,1,0,100,0,0
203412,-87.8230500582072,4,1,0,100,0,0
203626,-86.6146794889458,4,1,0,100,0,0
203840,-85.439109911118,4,1,0,100,0,0
204054,-84.2950236437261,4,1,0,100,0,0
204269,-83.176036833842,4,1,0,100,0,0
204483,-82.0913712654085,4,1,0,100,0,0
204697,-81.0346309186216,4,1,0,100,0,0
204912,-76.9230769230769,4,1,0,100,0,0
205019,-78.047447748281,4,1,0,100,0,0
205126,-79.2051756007394,4,1,0,100,0,0
205233,-80.397767249871,4,1,0,100,0,0
205340,-81.6268216020573,4,1,0,100,0,0
205447,-82.8940368525415,4,1,0,100,0,0
205554,-84.2012183140106,4,1,0,100,0,0
205662,-85.5630990415335,4,1,0,100,0,0
205769,-86.9565217391304,4,1,0,100,0,0
205983,-86.0225846925972,4,1,0,100,0,0
206090,-85.5630990415336,4,1,0,100,0,0
206197,-85.1084959531258,4,1,0,100,0,0
206304,-84.6586980144226,4,1,0,100,0,0
206412,-84.2094919917461,4,1,0,100,0,0
206519,-83.7691217438053,4,1,0,100,0,0
206629,-83.3333333333333,4,1,0,100,0,1
221629,-83.3333333333333,4,1,0,100,0,0
222057,428.571428571429,4,1,0,100,1,8
222077,428.571428571429,4,1,0,100,1,1
222077,-80,4,1,0,100,0,1
226362,-80,4,1,0,100,0,0
227219,428.571428571429,5,1,0,100,1,8
229041,428.571428571429,4,1,0,100,1,0

[HitObjects]
256,192,915,5,8,0:0:0:0:
256,192,1772,1,0,0:0:0:0:
256,192,2629,1,0,0:0:0:0:
256,192,3486,1,8,0:0:0:0:
256,192,4343,1,0,0:0:0:0:
256,192,5415,1,0,0:0:0:0:
256,192,5522,1,0,0:0:0:0:
256,192,5629,1,8,0:0:0:0:
256,96,6057,1,12,0:0:0:0:
256,96,6379,1,12,0:0:0:0:
256,192,6700,1,8,0:0:0:0:
256,192,6807,1,8,0:0:0:0:
256,96,6915,1,4,0:0:0:0:
256,96,7236,1,12,0:0:0:0:
256,192,7450,1,0,0:0:0:0:
256,192,7557,1,0,0:0:0:0:
256,96,7772,1,12,0:0:0:0:
256,96,8093,1,12,0:0:0:0:
256,192,8415,1,0,0:0:0:0:
256,192,8522,1,0,0:0:0:0:
256,96,8629,1,12,0:0:0:0:
256,96,8950,1,4,0:0:0:0:
256,192,9165,1,8,0:0:0:0:
256,192,9272,1,8,0:0:0:0:
256,96,9486,1,4,0:0:0:0:
256,96,9807,1,12,0:0:0:0:
256,192,10022,1,0,0:0:0:0:
256,192,10129,1,0,0:0:0:0:
256,96,10343,1,12,0:0:0:0:
256,96,10665,1,4,0:0:0:0:
256,192,10879,1,8,0:0:0:0:
256,192,10986,1,0,0:0:0:0:
256,96,11200,1,12,0:0:0:0:
256,96,11522,1,12,0:0:0:0:
256,96,11843,1,12,0:0:0:0:
256,96,12057,1,12,0:0:0:0:
256,192,12272,1,8,0:0:0:0:
256,192,12379,1,8,0:0:0:0:
256,192,12486,1,0,0:0:0:0:
256,192,12593,1,8,0:0:0:0:
256,192,12700,1,8,0:0:0:0:
256,192,12807,1,8,0:0:0:0:
256,192,12915,1,4,0:0:0:0:
256,192,13129,1,8,0:0:0:0:
256,192,13343,1,0,0:0:0:0:
256,192,13557,1,8,0:0:0:0:
256,192,13665,1,0,0:0:0:0:
256,192,13772,1,8,0:0:0:0:
256,192,13986,1,0,0:0:0:0:
256,192,14200,1,8,0:0:0:0:
256,192,14307,1,0,0:0:0:0:
256,192,14415,1,8,0:0:0:0:
256,192,14522,1,8,0:0:0:0:
256,192,14629,1,0,0:0:0:0:
256,192,14843,1,8,0:0:0:0:
256,192,15057,1,0,0:0:0:0:
256,192,15272,1,8,0:0:0:0:
256,192,15379,1,0,0:0:0:0:
256,192,15593,1,0,0:0:0:0:
256,192,15700,1,8,0:0:0:0:
256,192,15915,1,0,0:0:0:0:
256,192,16129,1,8,0:0:0:0:
256,192,16343,1,0,0:0:0:0:
256,192,16557,1,8,0:0:0:0:
256,192,16665,1,8,0:0:0:0:
256,192,16772,1,0,0:0:0:0:
256,192,16986,1,0,0:0:0:0:
256,192,17093,1,0,0:0:0:0:
256,192,17200,1,8,0:0:0:0:
256,192,17307,1,0,0:0:0:0:
256,192,17415,1,8,0:0:0:0:
256,192,17629,1,0,0:0:0:0:
256,192,17843,1,8,0:0:0:0:
256,192,17950,1,8,0:0:0:0:
256,192,18057,1,0,0:0:0:0:
256,192,18272,1,0,0:0:0:0:
256,192,18379,1,8,0:0:0:0:
256,192,18593,1,0,0:0:0:0:
256,192,18700,1,8,0:0:0:0:
256,192,18807,1,8,0:0:0:0:
256,192,18915,1,0,0:0:0:0:
256,192,19129,1,8,0:0:0:0:
256,192,19343,1,0,0:0:0:0:
256,192,19557,1,8,0:0:0:0:
256,192,19665,1,8,0:0:0:0:
256,192,19772,1,0,0:0:0:0:
256,192,19986,1,8,0:0:0:0:
256,192,20093,1,8,0:0:0:0:
256,192,20307,1,0,0:0:0:0:
256,192,20415,1,8,0:0:0:0:
256,192,20522,1,0,0:0:0:0:
256,192,20629,1,8,0:0:0:0:
256,192,20843,1,0,0:0:0:0:
256,192,21057,1,8,0:0:0:0:
256,192,21272,1,0,0:0:0:0:
256,192,21379,1,0,0:0:0:0:
256,192,21486,1,8,0:0:0:0:
256,192,21700,1,8,0:0:0:0:
256,192,21807,1,0,0:0:0:0:
256,192,22022,1,0,0:0:0:0:
256,192,22129,1,8,0:0:0:0:
256,192,22236,1,8,0:0:0:0:
256,192,22343,1,0,0:0:0:0:
256,192,22557,1,8,0:0:0:0:
256,192,22772,1,0,0:0:0:0:
256,192,22986,1,8,0:0:0:0:
256,192,23093,1,8,0:0:0:0:
256,192,23200,1,0,0:0:0:0:
256,192,23415,1,0,0:0:0:0:
256,192,23522,1,8,0:0:0:0:
256,192,23736,1,0,0:0:0:0:
256,192,23843,1,8,0:0:0:0:
256,192,23950,1,0,0:0:0:0:
256,192,24057,1,0,0:0:0:0:
256,192,24272,1,8,0:0:0:0:
256,192,24486,1,0,0:0:0:0:
256,192,24700,1,0,0:0:0:0:
256,192,24807,1,0,0:0:0:0:
256,192,24915,1,8,0:0:0:0:
256,192,25129,1,0,0:0:0:0:
256,192,25343,1,8,0:0:0:0:
256,192,25557,1,0,0:0:0:0:
256,192,25665,1,0,0:0:0:0:
256,192,25772,1,8,0:0:0:0:
256,192,25879,1,0,0:0:0:0:
256,192,25986,1,8,0:0:0:0:
256,192,26093,1,8,0:0:0:0:
256,192,26200,1,0,0:0:0:0:
256,192,26415,1,8,0:0:0:0:
256,96,26629,1,4,0:0:0:0:
256,192,26843,1,8,0:0:0:0:
256,192,27057,1,0,0:0:0:0:
256,192,27272,1,8,0:0:0:0:
256,192,27379,1,8,0:0:0:0:
256,192,27486,1,0,0:0:0:0:
256,192,27700,1,8,0:0:0:0:
256,192,27915,1,0,0:0:0:0:
256,192,28022,1,8,0:0:0:0:
256,192,28129,1,0,0:0:0:0:
256,192,28236,1,0,0:0:0:0:
256,192,28343,1,8,0:0:0:0:
256,192,28557,1,8,0:0:0:0:
256,192,28772,1,0,0:0:0:0:
256,192,28986,1,8,0:0:0:0:
256,192,29093,1,0,0:0:0:0:
256,192,29307,1,0,0:0:0:0:
256,192,29415,1,8,0:0:0:0:
256,192,29629,1,0,0:0:0:0:
256,192,29843,1,8,0:0:0:0:
256,192,30057,1,0,0:0:0:0:
256,192,30272,1,8,0:0:0:0:
256,192,30379,1,8,0:0:0:0:
256,192,30486,1,8,0:0:0:0:
256,192,30700,1,0,0:0:0:0:
256,192,30807,1,0,0:0:0:0:
256,192,30915,1,8,0:0:0:0:
256,192,31022,1,0,0:0:0:0:
256,192,31129,1,8,0:0:0:0:
256,192,31343,1,0,0:0:0:0:
256,192,31557,1,8,0:0:0:0:
256,192,31665,1,8,0:0:0:0:
256,192,31772,1,0,0:0:0:0:
256,192,31986,1,0,0:0:0:0:
256,192,32093,1,8,0:0:0:0:
256,192,32307,1,0,0:0:0:0:
256,192,32415,1,8,0:0:0:0:
256,192,32522,1,8,0:0:0:0:
256,192,32629,1,0,0:0:0:0:
256,192,32843,1,8,0:0:0:0:
256,192,33057,1,0,0:0:0:0:
256,192,33272,1,8,0:0:0:0:
256,192,33379,1,0,0:0:0:0:
256,192,33486,1,8,0:0:0:0:
256,192,33700,1,0,0:0:0:0:
256,192,33807,1,8,0:0:0:0:
256,192,34022,1,8,0:0:0:0:
256,192,34129,1,8,0:0:0:0:
256,192,34236,1,0,0:0:0:0:
256,192,34343,1,8,0:0:0:0:
256,192,34557,1,0,0:0:0:0:
256,192,34665,1,0,0:0:0:0:
256,192,34772,1,8,0:0:0:0:
256,192,34879,1,8,0:0:0:0:
256,192,34986,1,0,0:0:0:0:
256,192,35200,1,12,0:0:0:0:
256,192,35415,1,8,0:0:0:0:
256,192,35522,1,8,0:0:0:0:
256,192,35629,1,4,0:0:0:0:
256,192,35843,1,0,0:0:0:0:
256,192,35950,1,0,0:0:0:0:
256,192,36057,1,12,0:0:0:0:
256,192,36272,1,0,0:0:0:0:
256,192,36486,1,8,0:0:0:0:
256,192,36593,1,8,0:0:0:0:
256,192,36700,1,0,0:0:0:0:
256,192,36807,1,0,0:0:0:0:
256,192,36915,1,12,0:0:0:0:
256,192,37129,1,8,0:0:0:0:
256,192,37236,1,0,0:0:0:0:
256,192,37450,1,0,0:0:0:0:
256,192,37557,1,8,0:0:0:0:
256,192,37772,1,8,0:0:0:0:
256,192,37879,1,0,0:0:0:0:
256,192,37986,1,0,0:0:0:0:
256,192,38093,1,8,0:0:0:0:
256,192,38200,1,0,0:0:0:0:
256,192,38415,1,8,0:0:0:0:
256,192,38522,1,8,0:0:0:0:
256,192,38629,1,0,0:0:0:0:
256,192,38843,1,8,0:0:0:0:
256,192,39057,1,0,0:0:0:0:
256,192,39165,1,8,0:0:0:0:
256,192,39272,1,0,0:0:0:0:
256,192,39486,1,8,0:0:0:0:
256,192,39593,1,0,0:0:0:0:
256,192,39700,1,8,0:0:0:0:
256,192,39807,1,8,0:0:0:0:
256,192,39915,1,0,0:0:0:0:
256,192,40022,1,8,0:0:0:0:
256,192,40129,1,0,0:0:0:0:
256,96,40343,1,12,0:0:0:0:
256,192,40665,1,8,0:0:0:0:
256,192,40772,1,0,0:0:0:0:
256,192,40986,1,0,0:0:0:0:
256,96,41200,1,12,0:0:0:0:
256,192,41415,1,8,0:0:0:0:
256,192,41522,1,0,0:0:0:0:
256,192,41629,1,8,0:0:0:0:
256,192,41736,1,8,0:0:0:0:
256,192,41843,1,0,0:0:0:0:
256,96,42057,1,12,0:0:0:0:
256,192,42379,1,0,0:0:0:0:
256,192,42486,1,8,0:0:0:0:
256,192,42700,1,0,0:0:0:0:
256,96,42915,1,12,0:0:0:0:
256,192,43129,1,0,0:0:0:0:
256,192,43236,1,0,0:0:0:0:
256,192,43343,1,8,0:0:0:0:
256,192,43450,1,8,0:0:0:0:
256,192,43557,1,0,0:0:0:0:
256,96,43772,1,12,0:0:0:0:
256,192,44200,1,8,0:0:0:0:
256,192,44415,1,0,0:0:0:0:
256,96,44629,1,12,0:0:0:0:
256,192,44843,1,0,0:0:0:0:
256,192,44950,1,8,0:0:0:0:
256,192,45057,1,0,0:0:0:0:
256,192,45165,1,0,0:0:0:0:
256,192,45272,1,8,0:0:0:0:
256,96,45486,1,12,0:0:0:0:
256,192,45807,1,8,0:0:0:0:
256,192,45915,1,0,0:0:0:0:
256,192,46129,1,0,0:0:0:0:
256,96,46343,1,12,0:0:0:0:
256,192,46557,1,0,0:0:0:0:
256,192,46665,1,8,0:0:0:0:
256,192,46772,1,0,0:0:0:0:
256,192,46879,1,0,0:0:0:0:
256,192,46986,1,0,0:0:0:0:
256,96,47200,1,12,0:0:0:0:
256,96,47522,1,4,0:0:0:0:
256,96,47843,1,12,0:0:0:0:
256,192,48272,1,8,0:0:0:0:
256,192,48379,1,8,0:0:0:0:
256,192,48593,1,0,0:0:0:0:
256,192,48700,1,0,0:0:0:0:
256,96,48915,1,12,0:0:0:0:
256,96,49236,1,12,0:0:0:0:
256,96,49557,1,4,0:0:0:0:
256,192,49986,1,0,0:0:0:0:
256,192,50093,1,0,0:0:0:0:
256,192,50200,1,8,0:0:0:0:
256,192,50307,1,0,0:0:0:0:
256,192,50415,1,8,0:0:0:0:
256,96,50629,1,4,0:0:0:0:
256,192,51057,1,0,0:0:0:0:
256,192,51272,1,8,0:0:0:0:
256,192,51379,1,8,0:0:0:0:
256,192,51486,1,0,0:0:0:0:
256,192,51700,1,0,0:0:0:0:
256,192,51915,1,8,0:0:0:0:
256,192,52129,1,0,0:0:0:0:
256,192,52236,1,0,0:0:0:0:
256,96,52343,1,12,0:0:0:0:
256,192,52557,1,0,0:0:0:0:
256,192,52772,1,0,0:0:0:0:
256,192,52986,1,8,0:0:0:0:
256,192,53093,1,0,0:0:0:0:
256,192,53200,1,8,0:0:0:0:
256,192,53307,1,8,0:0:0:0:
256,192,53415,1,0,0:0:0:0:
256,192,53522,1,8,0:0:0:0:
256,192,53629,1,0,0:0:0:0:
256,192,53736,1,0,0:0:0:0:
256,192,53843,1,8,0:0:0:0:
256,96,54057,1,12,0:0:0:0:
256,96,54379,1,12,0:0:0:0:
256,192,54700,1,0,0:0:0:0:
256,192,54807,1,0,0:0:0:0:
256,96,54915,1,12,0:0:0:0:
256,96,55236,1,12,0:0:0:0:
256,192,55557,1,0,0:0:0:0:
256,192,55772,1,12,0:0:0:0:
256,192,55986,1,0,0:0:0:0:
256,192,56093,1,0,0:0:0:0:
256,192,56200,1,8,0:0:0:0:
256,192,56307,1,8,0:0:0:0:
256,192,56415,1,0,0:0:0:0:
256,192,56486,1,0,0:0:0:0:
256,192,56557,1,0,0:0:0:0:
256,192,56629,1,8,0:0:0:0:
256,192,56843,1,0,0:0:0:0:
256,192,56950,1,0,0:0:0:0:
256,192,57057,1,8,0:0:0:0:
256,192,57165,1,8,0:0:0:0:
256,192,57272,1,8,0:0:0:0:
256,192,57379,1,8,0:0:0:0:
256,96,57486,1,4,0:0:0:0:
256,192,57915,1,8,0:0:0:0:
256,192,58129,1,0,0:0:0:0:
256,192,58236,1,0,0:0:0:0:
256,192,58343,1,8,0:0:0:0:
256,192,58557,1,0,0:0:0:0:
256,192,58665,1,0,0:0:0:0:
256,192,58772,1,8,0:0:0:0:
256,192,58879,1,0,0:0:0:0:
256,192,58986,1,0,0:0:0:0:
256,192,59093,1,0,0:0:0:0:
256,192,59200,1,8,0:0:0:0:
256,192,59415,1,0,0:0:0:0:
256,192,59629,1,8,0:0:0:0:
256,192,59736,1,8,0:0:0:0:
256,192,59843,1,0,0:0:0:0:
256,192,59950,1,8,0:0:0:0:
256,192,60057,1,0,0:0:0:0:
256,192,60272,1,8,0:0:0:0:
256,192,60379,1,8,0:0:0:0:
256,192,60486,1,0,0:0:0:0:
256,192,60593,1,0,0:0:0:0:
256,192,60700,1,8,0:0:0:0:
256,192,60807,1,8,0:0:0:0:
256,192,60915,1,0,0:0:0:0:
256,192,61129,1,0,0:0:0:0:
256,192,61236,1,0,0:0:0:0:
256,192,61343,1,8,0:0:0:0:
256,192,61450,1,0,0:0:0:0:
256,192,61557,1,8,0:0:0:0:
256,192,61665,1,8,0:0:0:0:
256,192,61772,1,0,0:0:0:0:
256,192,61986,1,8,0:0:0:0:
256,192,62200,1,0,0:0:0:0:
256,192,62307,1,8,0:0:0:0:
256,192,62415,1,0,0:0:0:0:
256,192,62522,1,0,0:0:0:0:
256,192,62629,1,8,0:0:0:0:
256,192,62736,1,8,0:0:0:0:
256,192,62843,1,0,0:0:0:0:
256,192,63057,1,8,0:0:0:0:
256,192,63165,1,8,0:0:0:0:
256,192,63272,1,0,0:0:0:0:
256,192,63379,1,0,0:0:0:0:
256,192,63486,1,8,0:0:0:0:
256,192,63700,1,8,0:0:0:0:
256,192,63807,1,8,0:0:0:0:
256,192,63915,1,0,0:0:0:0:
256,192,64022,1,8,0:0:0:0:
256,192,64129,1,8,0:0:0:0:
256,192,64236,1,8,0:0:0:0:
256,192,64343,1,0,0:0:0:0:
256,192,64557,1,0,0:0:0:0:
256,192,64665,1,0,0:0:0:0:
256,192,64772,1,8,0:0:0:0:
256,192,64879,1,0,0:0:0:0:
256,192,64986,1,0,0:0:0:0:
256,192,65093,1,0,0:0:0:0:
256,192,65200,1,8,0:0:0:0:
256,192,65307,1,0,0:0:0:0:
256,192,65415,1,8,0:0:0:0:
256,192,65522,1,8,0:0:0:0:
256,192,65629,1,0,0:0:0:0:
256,192,65736,1,0,0:0:0:0:
256,192,65843,1,8,0:0:0:0:
256,192,65950,1,0,0:0:0:0:
256,192,66057,1,8,0:0:0:0:
256,192,66272,1,8,0:0:0:0:
256,192,66486,1,0,0:0:0:0:
256,192,66593,1,0,0:0:0:0:
256,192,66700,1,8,0:0:0:0:
256,192,66807,1,0,0:0:0:0:
256,192,66915,1,8,0:0:0:0:
256,192,67022,1,8,0:0:0:0:
256,192,67129,1,0,0:0:0:0:
256,192,67236,1,8,0:0:0:0:
256,192,67343,1,0,0:0:0:0:
256,192,67450,1,0,0:0:0:0:
256,192,67557,1,8,0:0:0:0:
256,192,67665,1,8,0:0:0:0:
256,192,67772,1,4,0:0:0:0:
256,192,67986,1,8,0:0:0:0:
256,192,68200,1,0,0:0:0:0:
256,192,68307,1,0,0:0:0:0:
256,192,68415,1,8,0:0:0:0:
256,192,68522,1,8,0:0:0:0:
256,192,68629,1,0,0:0:0:0:
256,192,68736,1,0,0:0:0:0:
256,192,68843,1,8,0:0:0:0:
256,192,68950,1,0,0:0:0:0:
256,192,69057,1,8,0:0:0:0:
256,192,69165,1,8,0:0:0:0:
256,192,69272,1,8,0:0:0:0:
256,192,69379,1,8,0:0:0:0:
256,96,69486,1,4,0:0:0:0:
256,96,69807,1,4,0:0:0:0:
256,96,70129,1,4,0:0:0:0:
256,96,70343,1,12,0:0:0:0:
256,192,70772,1,8,0:0:0:0:
256,192,70879,1,8,0:0:0:0:
256,192,70986,1,8,0:0:0:0:
256,192,71093,1,8,0:0:0:0:
256,192,71200,1,4,0:0:0:0:
256,192,71629,1,8,0:0:0:0:
256,192,71843,1,8,0:0:0:0:
256,192,71950,1,8,0:0:0:0:
256,192,72057,1,0,0:0:0:0:
256,192,72272,1,0,0:0:0:0:
256,192,72379,1,0,0:0:0:0:
256,192,72486,1,8,0:0:0:0:
256,192,72593,1,0,0:0:0:0:
256,192,72700,1,8,0:0:0:0:
256,192,72807,1,8,0:0:0:0:
256,192,72915,1,0,0:0:0:0:
256,192,73129,1,0,0:0:0:0:
256,192,73343,1,8,0:0:0:0:
256,192,73450,1,8,0:0:0:0:
256,192,73557,1,0,0:0:0:0:
256,192,73665,1,8,0:0:0:0:
256,192,73772,1,0,0:0:0:0:
256,192,73986,1,8,0:0:0:0:
256,192,74093,1,0,0:0:0:0:
256,192,74200,1,8,0:0:0:0:
256,192,74307,1,0,0:0:0:0:
256,192,74415,1,8,0:0:0:0:
256,192,74522,1,8,0:0:0:0:
256,192,74629,1,0,0:0:0:0:
256,192,74843,1,0,0:0:0:0:
256,192,74950,1,0,0:0:0:0:
256,192,75057,1,8,0:0:0:0:
256,192,75165,1,0,0:0:0:0:
256,192,75379,1,0,0:0:0:0:
256,192,75486,1,8,0:0:0:0:
256,192,75700,1,0,0:0:0:0:
256,192,75807,1,0,0:0:0:0:
256,192,75915,1,8,0:0:0:0:
256,192,76022,1,8,0:0:0:0:
256,192,76129,1,0,0:0:0:0:
256,192,76236,1,0,0:0:0:0:
256,192,76343,1,8,0:0:0:0:
256,192,76557,1,0,0:0:0:0:
256,192,76772,1,8,0:0:0:0:
256,192,76879,1,0,0:0:0:0:
256,192,76986,1,0,0:0:0:0:
256,192,77093,1,0,0:0:0:0:
256,192,77200,1,8,0:0:0:0:
256,192,77415,1,8,0:0:0:0:
256,192,77522,1,8,0:0:0:0:
256,192,77629,1,0,0:0:0:0:
256,192,77736,1,0,0:0:0:0:
256,192,77843,1,8,0:0:0:0:
256,192,77950,1,0,0:0:0:0:
256,192,78057,1,8,0:0:0:0:
256,192,78272,1,0,0:0:0:0:
256,192,78379,1,0,0:0:0:0:
256,192,78486,1,8,0:0:0:0:
256,192,78593,1,0,0:0:0:0:
256,192,78700,1,8,0:0:0:0:
256,192,78807,1,8,0:0:0:0:
256,192,78915,1,0,0:0:0:0:
256,192,79022,1,0,0:0:0:0:
256,192,79129,1,8,0:0:0:0:
256,192,79236,1,0,0:0:0:0:
256,192,79343,1,8,0:0:0:0:
256,192,79450,1,8,0:0:0:0:
256,192,79557,1,0,0:0:0:0:
256,192,79665,1,0,0:0:0:0:
256,192,79772,1,8,0:0:0:0:
256,192,79986,1,0,0:0:0:0:
256,192,80093,1,0,0:0:0:0:
256,192,80200,1,8,0:0:0:0:
256,192,80307,1,0,0:0:0:0:
256,192,80415,1,8,0:0:0:0:
256,192,80522,1,0,0:0:0:0:
256,192,80629,1,8,0:0:0:0:
256,192,80736,1,8,0:0:0:0:
256,192,80843,1,0,0:0:0:0:
256,192,80950,1,8,0:0:0:0:
256,192,81057,1,0,0:0:0:0:
256,192,81165,1,0,0:0:0:0:
256,192,81272,1,8,0:0:0:0:
256,192,81379,1,8,0:0:0:0:
256,192,81486,1,0,0:0:0:0:
256,192,81700,1,8,0:0:0:0:
256,192,81807,1,0,0:0:0:0:
256,192,81915,1,8,0:0:0:0:
256,192,82022,1,8,0:0:0:0:
256,192,82129,1,0,0:0:0:0:
256,192,82236,1,0,0:0:0:0:
256,192,82343,1,8,0:0:0:0:
256,192,82557,1,8,0:0:0:0:
256,192,82665,1,8,0:0:0:0:
256,192,82772,1,0,0:0:0:0:
256,192,82879,1,0,0:0:0:0:
256,192,82986,1,0,0:0:0:0:
256,192,83093,1,0,0:0:0:0:
256,192,83200,1,8,0:0:0:0:
256,192,83307,1,8,0:0:0:0:
256,192,83415,1,0,0:0:0:0:
256,192,83522,1,0,0:0:0:0:
256,192,83629,1,8,0:0:0:0:
256,192,83736,1,0,0:0:0:0:
256,192,83843,1,8,0:0:0:0:
256,192,83950,1,8,0:0:0:0:
256,192,84057,1,0,0:0:0:0:
256,192,84165,1,8,0:0:0:0:
256,192,84272,1,8,0:0:0:0:
256,192,84379,1,8,0:0:0:0:
256,192,84486,1,0,0:0:0:0:
256,192,84593,1,0,0:0:0:0:
256,192,84700,1,8,0:0:0:0:
256,192,84807,1,8,0:0:0:0:
256,192,84915,1,0,0:0:0:0:
256,192,85129,1,0,0:0:0:0:
256,192,85236,1,0,0:0:0:0:
256,192,85343,1,8,0:0:0:0:
256,192,85450,1,8,0:0:0:0:
256,192,85557,1,0,0:0:0:0:
256,192,85629,1,0,0:0:0:0:
256,192,85700,1,0,0:0:0:0:
256,192,85772,1,8,0:0:0:0:
256,96,86629,1,12,0:0:0:0:
256,96,86950,1,12,0:0:0:0:
256,192,87165,1,0,0:0:0:0:
256,192,87272,1,0,0:0:0:0:
256,96,87486,1,12,0:0:0:0:
256,96,87807,1,12,0:0:0:0:
256,192,88022,1,0,0:0:0:0:
256,192,88129,1,0,0:0:0:0:
256,96,88343,1,12,0:0:0:0:
256,96,88665,1,12,0:0:0:0:
256,96,88986,1,12,0:0:0:0:
256,96,89200,1,12,0:0:0:0:
256,192,89415,1,8,0:0:0:0:
256,192,89522,1,8,0:0:0:0:
256,192,89629,1,0,0:0:0:0:
256,192,89736,1,8,0:0:0:0:
256,192,89843,1,8,0:0:0:0:
256,192,89950,1,8,0:0:0:0:
256,192,90057,1,4,0:0:0:0:
256,192,91129,1,0,0:0:0:0:
256,192,91343,1,8,0:0:0:0:
256,192,91450,1,8,0:0:0:0:
256,192,91557,1,0,0:0:0:0:
256,192,91772,1,12,0:0:0:0:
256,192,91986,1,8,0:0:0:0:
256,192,92200,1,0,0:0:0:0:
256,192,92415,1,8,0:0:0:0:
256,192,92522,1,0,0:0:0:0:
256,192,92736,1,0,0:0:0:0:
256,192,92843,1,8,0:0:0:0:
256,192,93057,1,0,0:0:0:0:
256,192,93272,1,8,0:0:0:0:
256,192,93486,1,0,0:0:0:0:
256,192,93700,1,8,0:0:0:0:
256,192,93807,1,8,0:0:0:0:
256,192,93915,1,0,0:0:0:0:
256,192,94129,1,0,0:0:0:0:
256,192,94236,1,0,0:0:0:0:
256,192,94343,1,8,0:0:0:0:
256,192,94450,1,0,0:0:0:0:
256,192,94557,1,8,0:0:0:0:
256,192,94772,1,0,0:0:0:0:
256,192,94986,1,8,0:0:0:0:
256,192,95093,1,8,0:0:0:0:
256,192,95200,1,0,0:0:0:0:
256,192,95415,1,0,0:0:0:0:
256,192,95522,1,8,0:0:0:0:
256,192,95736,1,0,0:0:0:0:
256,192,95843,1,0,0:0:0:0:
256,192,95950,1,0,0:0:0:0:
256,192,96057,1,8,0:0:0:0:
256,192,96272,1,8,0:0:0:0:
256,192,96486,1,0,0:0:0:0:
256,192,96700,1,8,0:0:0:0:
256,192,96807,1,8,0:0:0:0:
256,192,96915,1,0,0:0:0:0:
256,192,97129,1,8,0:0:0:0:
256,192,97236,1,8,0:0:0:0:
256,192,97450,1,0,0:0:0:0:
256,192,97557,1,8,0:0:0:0:
256,192,97665,1,8,0:0:0:0:
256,192,97772,1,0,0:0:0:0:
256,192,97986,1,0,0:0:0:0:
256,192,98200,1,8,0:0:0:0:
256,192,98415,1,0,0:0:0:0:
256,192,98522,1,0,0:0:0:0:
256,192,98629,1,8,0:0:0:0:
256,192,98843,1,8,0:0:0:0:
256,192,98950,1,0,0:0:0:0:
256,192,99165,1,0,0:0:0:0:
256,192,99272,1,8,0:0:0:0:
256,192,99379,1,0,0:0:0:0:
256,192,99486,1,8,0:0:0:0:
256,192,99700,1,8,0:0:0:0:
256,192,99915,1,0,0:0:0:0:
256,192,100129,1,8,0:0:0:0:
256,192,100236,1,8,0:0:0:0:
256,192,100343,1,0,0:0:0:0:
256,192,100557,1,0,0:0:0:0:
256,192,100665,1,8,0:0:0:0:
256,192,100879,1,0,0:0:0:0:
256,192,100986,1,0,0:0:0:0:
256,192,101093,1,8,0:0:0:0:
256,192,101200,1,0,0:0:0:0:
256,192,101415,1,8,0:0:0:0:
256,192,101629,1,0,0:0:0:0:
256,192,101843,1,8,0:0:0:0:
256,192,101950,1,8,0:0:0:0:
256,192,102057,1,0,0:0:0:0:
256,192,102272,1,8,0:0:0:0:
256,192,102486,1,0,0:0:0:0:
256,192,102700,1,0,0:0:0:0:
256,192,102807,1,0,0:0:0:0:
256,192,102915,1,8,0:0:0:0:
256,192,103129,1,8,0:0:0:0:
256,192,103236,1,8,0:0:0:0:
256,192,103343,1,0,0:0:0:0:
256,192,103450,1,0,0:0:0:0:
256,192,103557,1,8,0:0:0:0:
256,96,103772,1,4,0:0:0:0:
256,192,103986,1,8,0:0:0:0:
256,192,104200,1,0,0:0:0:0:
256,192,104415,1,8,0:0:0:0:
256,192,104522,1,8,0:0:0:0:
256,192,104629,1,0,0:0:0:0:
256,192,104843,1,8,0:0:0:0:
256,192,105057,1,0,0:0:0:0:
256,192,105165,1,8,0:0:0:0:
256,192,105272,1,0,0:0:0:0:
256,192,105379,1,0,0:0:0:0:
256,192,105486,1,8,0:0:0:0:
256,192,105700,1,8,0:0:0:0:
256,192,105915,1,0,0:0:0:0:
256,192,106129,1,8,0:0:0:0:
256,192,106236,1,0,0:0:0:0:
256,192,106450,1,0,0:0:0:0:
256,192,106557,1,8,0:0:0:0:
256,192,106772,1,0,0:0:0:0:
256,192,106986,1,8,0:0:0:0:
256,192,107200,1,0,0:0:0:0:
256,192,107415,1,8,0:0:0:0:
256,192,107522,1,8,0:0:0:0:
256,192,107629,1,0,0:0:0:0:
256,192,107843,1,8,0:0:0:0:
256,192,107950,1,0,0:0:0:0:
256,192,108057,1,8,0:0:0:0:
256,192,108165,1,8,0:0:0:0:
256,192,108272,1,0,0:0:0:0:
256,192,108486,1,8,0:0:0:0:
256,192,108700,1,0,0:0:0:0:
256,192,108807,1,8,0:0:0:0:
256,192,108915,1,0,0:0:0:0:
256,192,109129,1,0,0:0:0:0:
256,192,109236,1,8,0:0:0:0:
256,192,109450,1,0,0:0:0:0:
256,192,109557,1,8,0:0:0:0:
256,192,109665,1,8,0:0:0:0:
256,192,109772,1,0,0:0:0:0:
256,192,109986,1,8,0:0:0:0:
256,192,110200,1,0,0:0:0:0:
256,192,110415,1,8,0:0:0:0:
256,192,110522,1,0,0:0:0:0:
256,192,110629,1,8,0:0:0:0:
256,192,110843,1,0,0:0:0:0:
256,192,110950,1,8,0:0:0:0:
256,192,111165,1,8,0:0:0:0:
256,192,111272,1,8,0:0:0:0:
256,192,111379,1,0,0:0:0:0:
256,192,111486,1,8,0:0:0:0:
256,192,111700,1,0,0:0:0:0:
256,192,111807,1,0,0:0:0:0:
256,192,111915,1,8,0:0:0:0:
256,192,112022,1,8,0:0:0:0:
256,192,112129,1,0,0:0:0:0:
256,192,112343,1,12,0:0:0:0:
256,192,112557,1,8,0:0:0:0:
256,192,112665,1,8,0:0:0:0:
256,192,112772,1,4,0:0:0:0:
256,192,112986,1,0,0:0:0:0:
256,192,113093,1,0,0:0:0:0:
256,192,113200,1,12,0:0:0:0:
256,192,113415,1,0,0:0:0:0:
256,192,113522,1,0,0:0:0:0:
256,192,113629,1,8,0:0:0:0:
256,192,113736,1,0,0:0:0:0:
256,192,113843,1,8,0:0:0:0:
256,192,113950,1,8,0:0:0:0:
256,192,114057,1,4,0:0:0:0:
256,192,114272,1,8,0:0:0:0:
256,192,114379,1,0,0:0:0:0:
256,192,114593,1,0,0:0:0:0:
256,192,114700,1,8,0:0:0:0:
256,192,114915,1,8,0:0:0:0:
256,192,115022,1,0,0:0:0:0:
256,192,115129,1,0,0:0:0:0:
256,192,115236,1,8,0:0:0:0:
256,192,115343,1,0,0:0:0:0:
256,192,115557,1,8,0:0:0:0:
256,192,115665,1,8,0:0:0:0:
256,192,115772,1,0,0:0:0:0:
256,192,115986,1,8,0:0:0:0:
256,192,116200,1,0,0:0:0:0:
256,192,116307,1,8,0:0:0:0:
256,192,116415,1,0,0:0:0:0:
256,192,116629,1,8,0:0:0:0:
256,192,116736,1,0,0:0:0:0:
256,192,116843,1,8,0:0:0:0:
256,192,116950,1,8,0:0:0:0:
256,192,117057,1,0,0:0:0:0:
256,192,117165,1,8,0:0:0:0:
256,192,117272,1,0,0:0:0:0:
256,96,117486,1,12,0:0:0:0:
256,192,117807,1,8,0:0:0:0:
256,192,117915,1,0,0:0:0:0:
256,192,118129,1,0,0:0:0:0:
256,96,118343,1,12,0:0:0:0:
256,192,118557,1,0,0:0:0:0:
256,192,118665,1,8,0:0:0:0:
256,192,118772,1,0,0:0:0:0:
256,192,118879,1,8,0:0:0:0:
256,192,118986,1,0,0:0:0:0:
256,96,119200,1,12,0:0:0:0:
256,192,119522,1,0,0:0:0:0:
256,192,119629,1,8,0:0:0:0:
256,192,119843,1,0,0:0:0:0:
256,96,120057,1,12,0:0:0:0:
256,192,120272,1,0,0:0:0:0:
256,192,120379,1,0,0:0:0:0:
256,192,120486,1,8,0:0:0:0:
256,192,120593,1,8,0:0:0:0:
256,192,120700,1,0,0:0:0:0:
256,96,120915,1,12,0:0:0:0:
256,192,121236,1,0,0:0:0:0:
256,192,121343,1,0,0:0:0:0:
256,192,121557,1,0,0:0:0:0:
256,96,121772,1,12,0:0:0:0:
256,192,121986,1,0,0:0:0:0:
256,192,122093,1,8,0:0:0:0:
256,192,122200,1,0,0:0:0:0:
256,192,122307,1,0,0:0:0:0:
256,192,122415,1,8,0:0:0:0:
256,96,122629,1,12,0:0:0:0:
256,192,122950,1,8,0:0:0:0:
256,192,123057,1,0,0:0:0:0:
256,192,123272,1,0,0:0:0:0:
256,96,123486,1,12,0:0:0:0:
256,192,123700,1,0,0:0:0:0:
256,192,123807,1,8,0:0:0:0:
256,192,123915,1,0,0:0:0:0:
256,192,124022,1,0,0:0:0:0:
256,192,124129,1,0,0:0:0:0:
256,96,124343,1,12,0:0:0:0:
256,96,124665,1,4,0:0:0:0:
256,96,124986,1,12,0:0:0:0:
256,192,125415,1,8,0:0:0:0:
256,192,125522,1,0,0:0:0:0:
256,192,125736,1,0,0:0:0:0:
256,192,125843,1,8,0:0:0:0:
256,96,126057,1,12,0:0:0:0:
256,96,126379,1,12,0:0:0:0:
256,96,126700,1,4,0:0:0:0:
256,192,127129,1,0,0:0:0:0:
256,192,127236,1,0,0:0:0:0:
256,192,127343,1,8,0:0:0:0:
256,192,127450,1,8,0:0:0:0:
256,192,127557,1,0,0:0:0:0:
256,96,127772,1,12,0:0:0:0:
256,192,128200,1,0,0:0:0:0:
256,192,128415,1,8,0:0:0:0:
256,192,128522,1,8,0:0:0:0:
256,192,128629,1,0,0:0:0:0:
256,192,128843,1,0,0:0:0:0:
256,192,129057,1,8,0:0:0:0:
256,192,129272,1,0,0:0:0:0:
256,192,129379,1,0,0:0:0:0:
256,96,129486,1,12,0:0:0:0:
256,192,129700,1,0,0:0:0:0:
256,192,129915,1,0,0:0:0:0:
256,192,130129,1,8,0:0:0:0:
256,192,130236,1,0,0:0:0:0:
256,192,130343,1,8,0:0:0:0:
256,192,130450,1,8,0:0:0:0:
256,192,130557,1,0,0:0:0:0:
256,192,130665,1,8,0:0:0:0:
256,192,130772,1,0,0:0:0:0:
256,192,130879,1,0,0:0:0:0:
256,192,130986,1,8,0:0:0:0:
256,96,131200,1,12,0:0:0:0:
256,96,131522,1,12,0:0:0:0:
256,192,131843,1,0,0:0:0:0:
256,192,131950,1,0,0:0:0:0:
256,96,132057,1,12,0:0:0:0:
256,96,132379,1,12,0:0:0:0:
256,192,132700,1,0,0:0:0:0:
256,192,132915,1,12,0:0:0:0:
256,192,133129,1,0,0:0:0:0:
256,192,133236,1,0,0:0:0:0:
256,192,133343,1,8,0:0:0:0:
256,192,133450,1,8,0:0:0:0:
256,192,133557,1,0,0:0:0:0:
256,192,133629,1,0,0:0:0:0:
256,192,133700,1,0,0:0:0:0:
256,192,133772,1,8,0:0:0:0:
256,192,133986,1,0,0:0:0:0:
256,192,134093,1,0,0:0:0:0:
256,192,134200,1,8,0:0:0:0:
256,192,134307,1,8,0:0:0:0:
256,192,134415,1,8,0:0:0:0:
256,192,134522,1,8,0:0:0:0:
256,96,134629,1,4,0:0:0:0:
256,192,135057,1,8,0:0:0:0:
256,192,135272,1,0,0:0:0:0:
256,192,135379,1,0,0:0:0:0:
256,192,135486,1,8,0:0:0:0:
256,192,135700,1,8,0:0:0:0:
256,192,135807,1,0,0:0:0:0:
256,192,135915,1,8,0:0:0:0:
256,192,136022,1,8,0:0:0:0:
256,192,136129,1,0,0:0:0:0:
256,192,136236,1,0,0:0:0:0:
256,192,136343,1,8,0:0:0:0:
256,192,136557,1,0,0:0:0:0:
256,192,136772,1,8,0:0:0:0:
256,192,136879,1,8,0:0:0:0:
256,192,136986,1,0,0:0:0:0:
256,192,137093,1,0,0:0:0:0:
256,192,137200,1,8,0:0:0:0:
256,192,137415,1,8,0:0:0:0:
256,192,137522,1,0,0:0:0:0:
256,192,137629,1,8,0:0:0:0:
256,192,137736,1,8,0:0:0:0:
256,192,137843,1,0,0:0:0:0:
256,192,137950,1,8,0:0:0:0:
256,192,138057,1,0,0:0:0:0:
256,192,138272,1,0,0:0:0:0:
256,192,138486,1,8,0:0:0:0:
256,192,138700,1,0,0:0:0:0:
256,192,138807,1,8,0:0:0:0:
256,192,138915,1,8,0:0:0:0:
256,192,139129,1,0,0:0:0:0:
256,192,139236,1,0,0:0:0:0:
256,192,139343,1,8,0:0:0:0:
256,192,139450,1,0,0:0:0:0:
256,192,139557,1,8,0:0:0:0:
256,192,139665,1,8,0:0:0:0:
256,192,139772,1,0,0:0:0:0:
256,192,139986,1,0,0:0:0:0:
256,192,140200,1,8,0:0:0:0:
256,192,140307,1,8,0:0:0:0:
256,192,140415,1,8,0:0:0:0:
256,192,140522,1,8,0:0:0:0:
256,192,140629,1,0,0:0:0:0:
256,192,140843,1,8,0:0:0:0:
256,192,140950,1,8,0:0:0:0:
256,192,141057,1,0,0:0:0:0:
256,192,141165,1,8,0:0:0:0:
256,192,141272,1,0,0:0:0:0:
256,192,141379,1,0,0:0:0:0:
256,192,141486,1,8,0:0:0:0:
256,192,141700,1,0,0:0:0:0:
256,192,141915,1,8,0:0:0:0:
256,192,142022,1,0,0:0:0:0:
256,192,142129,1,0,0:0:0:0:
256,192,142236,1,0,0:0:0:0:
256,192,142343,1,8,0:0:0:0:
256,192,142450,1,0,0:0:0:0:
256,192,142557,1,8,0:0:0:0:
256,192,142665,1,8,0:0:0:0:
256,192,142772,1,0,0:0:0:0:
256,192,142879,1,8,0:0:0:0:
256,192,142986,1,0,0:0:0:0:
256,192,143093,1,0,0:0:0:0:
256,192,143200,1,8,0:0:0:0:
256,192,143415,1,0,0:0:0:0:
256,192,143629,1,8,0:0:0:0:
256,192,143736,1,0,0:0:0:0:
256,192,143843,1,8,0:0:0:0:
256,192,143950,1,8,0:0:0:0:
256,192,144057,1,0,0:0:0:0:
256,192,144165,1,8,0:0:0:0:
256,192,144272,1,0,0:0:0:0:
256,192,144379,1,8,0:0:0:0:
256,192,144486,1,0,0:0:0:0:
256,192,144593,1,0,0:0:0:0:
256,192,144700,1,8,0:0:0:0:
256,192,144807,1,8,0:0:0:0:
256,192,144915,1,0,0:0:0:0:
256,192,145129,1,8,0:0:0:0:
256,192,145236,1,0,0:0:0:0:
256,192,145343,1,0,0:0:0:0:
256,192,145450,1,0,0:0:0:0:
256,192,145557,1,8,0:0:0:0:
256,192,145665,1,8,0:0:0:0:
256,192,145772,1,0,0:0:0:0:
256,192,145879,1,0,0:0:0:0:
256,192,145986,1,8,0:0:0:0:
256,192,146093,1,0,0:0:0:0:
256,192,146200,1,8,0:0:0:0:
256,192,146307,1,0,0:0:0:0:
256,192,146415,1,8,0:0:0:0:
256,192,146522,1,8,0:0:0:0:
256,96,146629,1,4,0:0:0:0:
256,96,146950,1,4,0:0:0:0:
256,96,147272,1,4,0:0:0:0:
256,96,147486,1,12,0:0:0:0:
256,192,147915,1,8,0:0:0:0:
256,192,148022,1,8,0:0:0:0:
256,192,148129,1,8,0:0:0:0:
256,192,148236,1,8,0:0:0:0:
256,96,148343,1,4,0:0:0:0:
256,192,148772,1,8,0:0:0:0:
256,192,148986,1,8,0:0:0:0:
256,192,149093,1,8,0:0:0:0:
256,192,149200,1,0,0:0:0:0:
256,192,149415,1,0,0:0:0:0:
256,192,149522,1,0,0:0:0:0:
256,192,149629,1,8,0:0:0:0:
256,192,149736,1,0,0:0:0:0:
256,192,149843,1,8,0:0:0:0:
256,192,149950,1,8,0:0:0:0:
256,192,150057,1,0,0:0:0:0:
256,192,150272,1,0,0:0:0:0:
256,192,150486,1,8,0:0:0:0:
256,192,150593,1,8,0:0:0:0:
256,192,150700,1,0,0:0:0:0:
256,192,150807,1,0,0:0:0:0:
256,192,150915,1,8,0:0:0:0:
256,192,151129,1,8,0:0:0:0:
256,192,151236,1,8,0:0:0:0:
256,192,151343,1,0,0:0:0:0:
256,192,151450,1,8,0:0:0:0:
256,192,151557,1,0,0:0:0:0:
256,192,151665,1,0,0:0:0:0:
256,192,151772,1,8,0:0:0:0:
256,192,151986,1,0,0:0:0:0:
256,192,152200,1,8,0:0:0:0:
256,192,152307,1,0,0:0:0:0:
256,192,152522,1,0,0:0:0:0:
256,192,152629,1,8,0:0:0:0:
256,192,152843,1,8,0:0:0:0:
256,192,152950,1,0,0:0:0:0:
256,192,153057,1,8,0:0:0:0:
256,192,153165,1,8,0:0:0:0:
256,192,153272,1,0,0:0:0:0:
256,192,153379,1,0,0:0:0:0:
256,192,153486,1,8,0:0:0:0:
256,192,153700,1,0,0:0:0:0:
256,192,153915,1,8,0:0:0:0:
256,192,154022,1,8,0:0:0:0:
256,192,154129,1,0,0:0:0:0:
256,192,154236,1,0,0:0:0:0:
256,192,154343,1,8,0:0:0:0:
256,192,154557,1,8,0:0:0:0:
256,192,154665,1,0,0:0:0:0:
256,192,154772,1,0,0:0:0:0:
256,192,154879,1,0,0:0:0:0:
256,192,154986,1,8,0:0:0:0:
256,192,155093,1,8,0:0:0:0:
256,192,155200,1,0,0:0:0:0:
256,192,155415,1,0,0:0:0:0:
256,192,155522,1,0,0:0:0:0:
256,192,155629,1,8,0:0:0:0:
256,192,155736,1,0,0:0:0:0:
256,192,155843,1,8,0:0:0:0:
256,192,155950,1,8,0:0:0:0:
256,192,156057,1,0,0:0:0:0:
256,192,156165,1,0,0:0:0:0:
256,192,156272,1,8,0:0:0:0:
256,192,156379,1,8,0:0:0:0:
256,192,156486,1,0,0:0:0:0:
256,192,156593,1,8,0:0:0:0:
256,192,156700,1,0,0:0:0:0:
256,192,156807,1,0,0:0:0:0:
256,192,156915,1,8,0:0:0:0:
256,192,157129,1,0,0:0:0:0:
256,192,157236,1,0,0:0:0:0:
256,192,157343,1,8,0:0:0:0:
256,192,157450,1,0,0:0:0:0:
256,192,157557,1,8,0:0:0:0:
256,192,157665,1,0,0:0:0:0:
256,192,157772,1,8,0:0:0:0:
256,192,157879,1,8,0:0:0:0:
256,192,157986,1,0,0:0:0:0:
256,192,158093,1,8,0:0:0:0:
256,192,158200,1,0,0:0:0:0:
256,192,158307,1,0,0:0:0:0:
256,192,158415,1,8,0:0:0:0:
256,192,158522,1,8,0:0:0:0:
256,192,158629,1,0,0:0:0:0:
256,192,158843,1,8,0:0:0:0:
256,192,158950,1,0,0:0:0:0:
256,192,159057,1,8,0:0:0:0:
256,192,159165,1,8,0:0:0:0:
256,192,159272,1,0,0:0:0:0:
256,192,159343,1,0,0:0:0:0:
256,192,159415,1,0,0:0:0:0:
256,192,159486,1,8,0:0:0:0:
256,192,160343,1,8,0:0:0:0:
256,192,160486,1,0,0:0:0:0:
256,192,160629,1,0,0:0:0:0:
256,192,160772,1,8,0:0:0:0:
256,192,160915,1,0,0:0:0:0:
256,192,161057,1,0,0:0:0:0:
256,192,161200,1,8,0:0:0:0:
256,192,161343,1,0,0:0:0:0:
256,192,161486,1,8,0:0:0:0:
256,192,161629,1,8,0:0:0:0:
256,192,161772,1,0,0:0:0:0:
256,192,161915,1,0,0:0:0:0:
256,192,162057,1,8,0:0:0:0:
256,192,162200,1,8,0:0:0:0:
256,192,162343,1,8,0:0:0:0:
256,192,162486,1,0,0:0:0:0:
256,192,162629,1,0,0:0:0:0:
256,192,162772,1,0,0:0:0:0:
256,192,162915,1,8,0:0:0:0:
256,192,163129,1,0,0:0:0:0:
256,192,163236,1,0,0:0:0:0:
256,192,163343,1,8,0:0:0:0:
256,192,163557,1,0,0:0:0:0:
256,192,163772,1,8,0:0:0:0:
256,192,163915,1,0,0:0:0:0:
256,192,164057,1,0,0:0:0:0:
256,192,164200,1,8,0:0:0:0:
256,192,164343,1,0,0:0:0:0:
256,192,164486,1,0,0:0:0:0:
256,192,164629,1,8,0:0:0:0:
256,192,164772,1,0,0:0:0:0:
256,192,164915,1,8,0:0:0:0:
256,192,165057,1,8,0:0:0:0:
256,192,165200,1,0,0:0:0:0:
256,192,165343,1,0,0:0:0:0:
256,192,165486,1,8,0:0:0:0:
256,192,165629,1,8,0:0:0:0:
256,192,165772,1,0,0:0:0:0:
256,192,165915,1,8,0:0:0:0:
256,192,166057,1,0,0:0:0:0:
256,192,166200,1,0,0:0:0:0:
256,192,166343,1,8,0:0:0:0:
256,192,166557,1,8,0:0:0:0:
256,192,166665,1,8,0:0:0:0:
256,192,166772,1,0,0:0:0:0:
256,192,166986,1,0,0:0:0:0:
256,192,167200,1,8,0:0:0:0:
256,192,167343,1,0,0:0:0:0:
256,192,167486,1,0,0:0:0:0:
256,192,167629,1,8,0:0:0:0:
256,192,167772,1,0,0:0:0:0:
256,192,167915,1,0,0:0:0:0:
256,192,168057,1,8,0:0:0:0:
256,192,168200,1,8,0:0:0:0:
256,192,168343,1,8,0:0:0:0:
256,192,168486,1,0,0:0:0:0:
256,192,168629,1,0,0:0:0:0:
256,192,168772,1,0,0:0:0:0:
256,192,168915,1,8,0:0:0:0:
256,192,169057,1,0,0:0:0:0:
256,192,169200,1,0,0:0:0:0:
256,192,169343,1,8,0:0:0:0:
256,192,169486,1,0,0:0:0:0:
256,192,169629,1,0,0:0:0:0:
256,192,169772,1,8,0:0:0:0:
256,192,169986,1,0,0:0:0:0:
256,192,170093,1,8,0:0:0:0:
256,192,170200,1,0,0:0:0:0:
256,192,170415,1,0,0:0:0:0:
256,192,170629,1,8,0:0:0:0:
256,192,170772,1,0,0:0:0:0:
256,192,170915,1,0,0:0:0:0:
256,192,171057,1,8,0:0:0:0:
256,192,171200,1,0,0:0:0:0:
256,192,171343,1,0,0:0:0:0:
256,192,171486,1,8,0:0:0:0:
256,192,171629,1,0,0:0:0:0:
256,192,171772,1,8,0:0:0:0:
256,192,171915,1,8,0:0:0:0:
256,192,172057,1,0,0:0:0:0:
256,192,172200,1,0,0:0:0:0:
256,192,172343,1,8,0:0:0:0:
256,192,172486,1,8,0:0:0:0:
256,192,172629,1,8,0:0:0:0:
256,192,172772,1,0,0:0:0:0:
256,192,172915,1,0,0:0:0:0:
256,192,173057,1,0,0:0:0:0:
256,192,173200,1,8,0:0:0:0:
256,192,173415,1,8,0:0:0:0:
256,192,173522,1,0,0:0:0:0:
256,192,173629,1,8,0:0:0:0:
256,192,173736,1,8,0:0:0:0:
256,192,173843,1,0,0:0:0:0:
256,192,173950,1,0,0:0:0:0:
256,96,174057,1,12,0:0:0:0:
256,192,174379,1,0,0:0:0:0:
256,192,174486,1,8,0:0:0:0:
256,192,174700,1,0,0:0:0:0:
256,192,174915,1,8,0:0:0:0:
256,192,175022,1,8,0:0:0:0:
256,192,175236,1,0,0:0:0:0:
256,192,175343,1,8,0:0:0:0:
256,192,175557,1,0,0:0:0:0:
256,192,175665,1,0,0:0:0:0:
256,192,175772,1,8,0:0:0:0:
256,192,175986,1,0,0:0:0:0:
256,192,176093,1,0,0:0:0:0:
256,192,176307,1,8,0:0:0:0:
256,192,176415,1,0,0:0:0:0:
256,192,176629,1,8,0:0:0:0:
256,192,176736,1,8,0:0:0:0:
256,192,176843,1,8,0:0:0:0:
256,192,177057,1,0,0:0:0:0:
256,192,177272,1,0,0:0:0:0:
256,192,177379,1,0,0:0:0:0:
256,192,177486,1,8,0:0:0:0:
256,192,177700,1,0,0:0:0:0:
256,192,177807,1,8,0:0:0:0:
256,192,178022,1,0,0:0:0:0:
256,192,178129,1,8,0:0:0:0:
256,192,178236,1,8,0:0:0:0:
256,192,178343,1,0,0:0:0:0:
256,192,178557,1,8,0:0:0:0:
256,192,178665,1,0,0:0:0:0:
256,192,178879,1,8,0:0:0:0:
256,192,178986,1,0,0:0:0:0:
256,192,179093,1,0,0:0:0:0:
256,192,179200,1,8,0:0:0:0:
256,192,179522,1,0,0:0:0:0:
256,192,179629,1,8,0:0:0:0:
256,192,179843,1,0,0:0:0:0:
256,192,179950,1,8,0:0:0:0:
256,192,180057,1,8,0:0:0:0:
256,192,180165,1,8,0:0:0:0:
256,192,180272,1,0,0:0:0:0:
256,192,180379,1,0,0:0:0:0:
256,192,180486,1,8,0:0:0:0:
256,192,180593,1,8,0:0:0:0:
256,192,180700,1,0,0:0:0:0:
256,96,180807,1,0,0:0:0:0:
256,96,180915,1,12,0:0:0:0:
256,96,181236,1,4,0:0:0:0:
256,96,181557,1,12,0:0:0:0:
256,192,181986,1,8,0:0:0:0:
256,192,182093,1,8,0:0:0:0:
256,192,182200,1,0,0:0:0:0:
256,192,182272,1,0,0:0:0:0:
256,192,182343,1,0,0:0:0:0:
256,192,182415,1,8,0:0:0:0:
256,96,182629,1,12,0:0:0:0:
256,96,182950,1,12,0:0:0:0:
256,96,183272,1,4,0:0:0:0:
256,192,183593,1,8,0:0:0:0:
256,192,183700,1,0,0:0:0:0:
256,192,183915,1,8,0:0:0:0:
256,192,184022,1,8,0:0:0:0:
256,192,184129,1,0,0:0:0:0:
256,96,184343,1,12,0:0:0:0:
256,192,184772,1,0,0:0:0:0:
256,192,184986,1,8,0:0:0:0:
256,192,185093,1,8,0:0:0:0:
256,192,185200,1,0,0:0:0:0:
256,192,185415,1,0,0:0:0:0:
256,192,185629,1,8,0:0:0:0:
256,192,185843,1,0,0:0:0:0:
256,96,186057,1,12,0:0:0:0:
256,192,186272,1,0,0:0:0:0:
256,192,186486,1,8,0:0:0:0:
256,192,186700,1,0,0:0:0:0:
256,192,186807,1,0,0:0:0:0:
256,192,186915,1,8,0:0:0:0:
256,192,187022,1,8,0:0:0:0:
256,192,187129,1,8,0:0:0:0:
256,192,187236,1,8,0:0:0:0:
256,192,187343,1,0,0:0:0:0:
256,192,187450,1,8,0:0:0:0:
256,192,187557,1,0,0:0:0:0:
256,96,187772,1,12,0:0:0:0:
256,96,188093,1,12,0:0:0:0:
256,192,188415,1,0,0:0:0:0:
256,192,188522,1,0,0:0:0:0:
256,96,188629,1,12,0:0:0:0:
256,96,188950,1,12,0:0:0:0:
256,192,189272,1,8,0:0:0:0:
256,96,189486,1,4,0:0:0:0:
256,96,189807,1,4,0:0:0:0:
256,192,190129,1,0,0:0:0:0:
256,96,190343,1,12,0:0:0:0:
256,96,190665,1,12,0:0:0:0:
256,192,190986,1,0,0:0:0:0:
256,192,191200,1,8,0:0:0:0:
256,192,191307,1,8,0:0:0:0:
256,192,191415,1,0,0:0:0:0:
256,192,191522,1,8,0:0:0:0:
256,192,191629,1,8,0:0:0:0:
256,192,191736,1,0,0:0:0:0:
256,192,191843,1,8,0:0:0:0:
256,192,191950,1,0,0:0:0:0:
256,192,192057,1,8,0:0:0:0:
256,192,192165,1,8,0:0:0:0:
256,192,192272,1,0,0:0:0:0:
256,192,192486,1,8,0:0:0:0:
256,192,192593,1,8,0:0:0:0:
256,192,192700,1,8,0:0:0:0:
256,192,192807,1,8,0:0:0:0:
256,192,192915,1,0,0:0:0:0:
256,192,192986,1,0,0:0:0:0:
256,192,193057,1,0,0:0:0:0:
256,192,193129,1,0,0:0:0:0:
256,96,193343,1,12,0:0:0:0:
256,192,193986,1,0,0:0:0:0:
256,192,194093,1,0,0:0:0:0:
256,192,194200,1,8,0:0:0:0:
256,192,194307,1,0,0:0:0:0:
256,192,194415,1,8,0:0:0:0:
256,192,194522,1,8,0:0:0:0:
256,192,195486,1,0,0:0:0:0:
256,192,195700,1,8,0:0:0:0:
256,192,195807,1,8,0:0:0:0:
256,192,195915,1,0,0:0:0:0:
256,192,196022,1,8,0:0:0:0:
256,192,196129,1,0,0:0:0:0:
256,192,196343,1,8,0:0:0:0:
256,192,196415,1,8,0:0:0:0:
256,192,196486,1,8,0:0:0:0:
256,192,196557,1,0,0:0:0:0:
256,96,196772,1,12,0:0:0:0:
256,96,197200,1,12,0:0:0:0:
256,96,197486,1,12,0:0:0:0:
256,96,197772,1,4,0:0:0:0:
256,192,198057,1,0,0:0:0:0:
256,192,198200,1,8,0:0:0:0:
256,192,198343,1,0,0:0:0:0:
256,192,198486,1,8,0:0:0:0:
256,192,198629,1,0,0:0:0:0:
256,192,198772,1,0,0:0:0:0:
256,192,198915,1,8,0:0:0:0:
256,192,199057,1,0,0:0:0:0:
256,192,199200,1,0,0:0:0:0:
256,96,199343,1,12,0:0:0:0:
256,96,199772,1,12,0:0:0:0:
256,192,200200,1,0,0:0:0:0:
256,192,200415,1,0,0:0:0:0:
256,192,200629,1,0,0:0:0:0:
256,192,200843,1,0,0:0:0:0:
256,192,201057,1,0,0:0:0:0:
256,192,201272,1,0,0:0:0:0:
256,192,201379,1,0,0:0:0:0:
256,192,201486,1,12,0:0:0:0:
256,192,201700,1,0,0:0:0:0:
256,192,201915,1,8,0:0:0:0:
256,192,202129,1,0,0:0:0:0:
256,192,202343,1,8,0:0:0:0:
256,192,202557,1,8,0:0:0:0:
256,192,202772,1,0,0:0:0:0:
256,192,202986,1,8,0:0:0:0:
256,192,203093,1,8,0:0:0:0:
256,192,203200,1,4,0:0:0:0:
256,192,203415,1,0,0:0:0:0:
256,192,203629,1,8,0:0:0:0:
256,192,203843,1,0,0:0:0:0:
256,192,204057,1,8,0:0:0:0:
256,192,204272,1,8,0:0:0:0:
256,192,204486,1,8,0:0:0:0:
256,192,204700,1,0,0:0:0:0:
256,192,204915,1,8,0:0:0:0:
256,192,205022,1,0,0:0:0:0:
256,192,205129,1,0,0:0:0:0:
256,192,205236,1,8,0:0:0:0:
256,192,205343,1,0,0:0:0:0:
256,192,205450,1,0,0:0:0:0:
256,192,205557,1,8,0:0:0:0:
256,192,205665,1,0,0:0:0:0:
256,192,205772,1,8,0:0:0:0:
256,192,205986,1,0,0:0:0:0:
256,192,206093,1,0,0:0:0:0:
256,192,206200,1,8,0:0:0:0:
256,192,206307,1,8,0:0:0:0:
256,192,206415,1,8,0:0:0:0:
256,192,206522,1,8,0:0:0:0:
256,96,206629,1,4,0:0:0:0:
256,192,207057,1,8,0:0:0:0:
256,192,207272,1,8,0:0:0:0:
256,192,207379,1,8,0:0:0:0:
256,192,207486,1,0,0:0:0:0:
256,192,207700,1,0,0:0:0:0:
256,192,207807,1,0,0:0:0:0:
256,192,207915,1,8,0:0:0:0:
256,192,208022,1,8,0:0:0:0:
256,192,208129,1,0,0:0:0:0:
256,192,208236,1,8,0:0:0:0:
256,192,208343,1,0,0:0:0:0:
256,192,208557,1,0,0:0:0:0:
256,192,208772,1,8,0:0:0:0:
256,192,208879,1,8,0:0:0:0:
256,192,208986,1,0,0:0:0:0:
256,192,209093,1,0,0:0:0:0:
256,192,209200,1,8,0:0:0:0:
256,192,209415,1,8,0:0:0:0:
256,192,209522,1,0,0:0:0:0:
256,192,209629,1,8,0:0:0:0:
256,192,209736,1,8,0:0:0:0:
256,192,209843,1,0,0:0:0:0:
256,192,209950,1,8,0:0:0:0:
256,192,210057,1,0,0:0:0:0:
256,192,210165,1,0,0:0:0:0:
256,192,210272,1,0,0:0:0:0:
256,192,210486,1,8,0:0:0:0:
256,192,210700,1,0,0:0:0:0:
256,192,210807,1,8,0:0:0:0:
256,192,210915,1,8,0:0:0:0:
256,192,211129,1,8,0:0:0:0:
256,192,211236,1,0,0:0:0:0:
256,192,211343,1,8,0:0:0:0:
256,192,211450,1,8,0:0:0:0:
256,192,211557,1,0,0:0:0:0:
256,192,211665,1,0,0:0:0:0:
256,192,211772,1,8,0:0:0:0:
256,192,211879,1,8,0:0:0:0:
256,192,211986,1,0,0:0:0:0:
256,192,212200,1,8,0:0:0:0:
256,192,212307,1,8,0:0:0:0:
256,192,212415,1,0,0:0:0:0:
256,192,212522,1,0,0:0:0:0:
256,192,212629,1,8,0:0:0:0:
256,192,212736,1,0,0:0:0:0:
256,192,212843,1,8,0:0:0:0:
256,192,212950,1,8,0:0:0:0:
256,192,213057,1,0,0:0:0:0:
256,192,213165,1,8,0:0:0:0:
256,192,213272,1,0,0:0:0:0:
256,192,213379,1,0,0:0:0:0:
256,192,213486,1,8,0:0:0:0:
256,192,213700,1,0,0:0:0:0:
256,192,213807,1,0,0:0:0:0:
256,192,213915,1,8,0:0:0:0:
256,192,214022,1,0,0:0:0:0:
256,192,214129,1,8,0:0:0:0:
256,192,214236,1,8,0:0:0:0:
256,192,214343,1,0,0:0:0:0:
256,192,214450,1,0,0:0:0:0:
256,192,214557,1,8,0:0:0:0:
256,192,214665,1,8,0:0:0:0:
256,192,214772,1,0,0:0:0:0:
256,192,214879,1,8,0:0:0:0:
256,192,214986,1,0,0:0:0:0:
256,192,215093,1,0,0:0:0:0:
256,192,215200,1,8,0:0:0:0:
256,192,215415,1,8,0:0:0:0:
256,192,215522,1,0,0:0:0:0:
256,192,215629,1,8,0:0:0:0:
256,192,215736,1,8,0:0:0:0:
256,192,215843,1,0,0:0:0:0:
256,192,215950,1,0,0:0:0:0:
256,192,216057,1,8,0:0:0:0:
256,192,216165,1,8,0:0:0:0:
256,192,216272,1,8,0:0:0:0:
256,192,216379,1,0,0:0:0:0:
256,192,216486,1,8,0:0:0:0:
256,192,216593,1,0,0:0:0:0:
256,192,216700,1,8,0:0:0:0:
256,192,216807,1,8,0:0:0:0:
256,192,216915,1,0,0:0:0:0:
256,192,217129,1,8,0:0:0:0:
256,192,217236,1,0,0:0:0:0:
256,192,217343,1,8,0:0:0:0:
256,192,217450,1,8,0:0:0:0:
256,192,217557,1,0,0:0:0:0:
256,192,217665,1,0,0:0:0:0:
256,192,217772,1,8,0:0:0:0:
256,192,217879,1,0,0:0:0:0:
256,192,217986,1,8,0:0:0:0:
256,192,218093,1,8,0:0:0:0:
256,192,218200,1,0,0:0:0:0:
256,192,218307,1,0,0:0:0:0:
256,192,218415,1,8,0:0:0:0:
256,192,218522,1,0,0:0:0:0:
256,192,218629,1,8,0:0:0:0:
256,192,218736,1,8,0:0:0:0:
256,192,218843,1,0,0:0:0:0:
256,192,218950,1,0,0:0:0:0:
256,192,219057,1,8,0:0:0:0:
256,192,219165,1,8,0:0:0:0:
256,192,219272,1,8,0:0:0:0:
256,192,219379,1,8,0:0:0:0:
256,192,219486,1,0,0:0:0:0:
256,192,219593,1,8,0:0:0:0:
256,192,219700,1,8,0:0:0:0:
256,192,219807,1,8,0:0:0:0:
256,192,219915,1,0,0:0:0:0:
256,192,220022,1,0,0:0:0:0:
256,192,220129,1,8,0:0:0:0:
256,192,220236,1,8,0:0:0:0:
256,192,220343,1,0,0:0:0:0:
256,192,220557,1,0,0:0:0:0:
256,192,220665,1,0,0:0:0:0:
256,192,220772,1,8,0:0:0:0:
256,192,220879,1,8,0:0:0:0:
256,192,220986,1,0,0:0:0:0:
256,192,221057,1,0,0:0:0:0:
256,192,221129,1,0,0:0:0:0:
256,192,221200,1,8,0:0:0:0:
256,192,221415,1,8,0:0:0:0:
256,192,221486,1,8,0:0:0:0:
256,192,221557,1,8,0:0:0:0:
256,192,221629,1,0,0:0:0:0:
256,96,222077,1,12,0:0:0:0:
256,96,222398,1,12,0:0:0:0:
256,192,222612,1,0,0:0:0:0:
256,192,222719,1,8,0:0:0:0:
256,192,222827,1,8,0:0:0:0:
256,96,222934,1,4,0:0:0:0:
256,96,223255,1,12,0:0:0:0:
256,192,223469,1,0,0:0:0:0:
256,192,223577,1,0,0:0:0:0:
256,96,223791,1,12,0:0:0:0:
256,96,224112,1,12,0:0:0:0:
256,192,224327,1,0,0:0:0:0:
256,192,224434,1,0,0:0:0:0:
256,192,224541,1,0,0:0:0:0:
256,96,224648,1,12,0:0:0:0:
256,96,224969,1,4,0:0:0:0:
256,192,225184,1,8,0:0:0:0:
256,192,225291,1,8,0:0:0:0:
256,96,225505,1,4,0:0:0:0:
256,96,225827,1,12,0:0:0:0:
256,192,226041,1,0,0:0:0:0:
256,192,226148,1,0,0:0:0:0:
256,96,226362,1,12,0:0:0:0:
256,192,229040,12,0,232469,0:0:0:0:
