osu file format v14

[General]
AudioFilename: audio.mp3
AudioLeadIn: 0
PreviewTime:57432
Countdown: 0
SampleSet: Normal
StackLeniency: 0.7
Mode: 1
LetterboxInBreaks: 0
WidescreenStoryboard: 1

[Editor]
DistanceSpacing: 4.5
BeatDivisor: 4
GridSize: 32
TimelineZoom: 2

[Metadata]
Title:I wanna be a girl
TitleUnicode:女の子になりたい
Artist:mafumafu
ArtistUnicode:まふまふ
Creator:Hivie
Version:futsuu!
Source:
Tags:jerry kagura iro onna no ko onnanoko ni naritai 神楽色アーティファクト Kagurairo Artifact japanese pop j-pop jpop 田中秀和 Tanaka Hidekazu monaca trans transgender rights
BeatmapID:4105555
BeatmapSetID:1966382

[Difficulty]
HPDrainRate:7
CircleSize:2
OverallDifficulty:4
ApproachRate:10
SliderMultiplier:1.4
SliderTickRate:1

[Events]
//Background and Video events
0,0,"cute.jpg",0,180
//Break Periods
//Storyboard Layer 0 (Background)
//Storyboard Layer 1 (Fail)
//Storyboard Layer 2 (Pass)
//Storyboard Layer 3 (Foreground)
//Storyboard Layer 4 (Overlay)
//Storyboard Sound Samples

[TimingPoints]
915,428.571428571429,4,1,0,90,1,0
915,-111.111111111111,4,1,0,90,0,0
6057,-100,4,1,0,100,0,1
12915,-100,4,1,0,100,0,0
47200,-100,4,1,0,100,0,1
48057,-100,4,1,0,100,0,0
48915,-100,4,1,0,100,0,1
49986,-100,4,1,0,100,0,0
57486,-100,4,1,0,100,0,1
70343,-100,4,1,0,100,0,0
71200,-100,4,1,0,100,0,1
85772,-100,4,1,0,100,0,0
90057,-100,4,1,0,100,0,0
91769,-100,4,1,0,100,0,0
124343,-100,4,1,0,100,0,1
125200,-100,4,1,0,100,0,0
126057,-100,4,1,0,100,0,1
127129,-100,4,1,0,100,0,0
134629,-100,4,1,0,100,0,1
147486,-100,4,1,0,100,0,0
148343,-100,4,1,0,100,0,1
159486,-100,4,1,0,100,0,0
159915,-100,4,1,0,100,0,0
180915,-100,4,1,0,100,0,1
181772,-100,4,1,0,100,0,0
182629,-100,4,1,0,100,0,1
183700,-100,4,1,0,100,0,0
206629,-100,4,1,0,100,0,1
221629,-100,4,1,0,100,0,0
222057,428.571428571429,4,1,0,100,1,8
222077,428.571428571429,4,1,0,100,1,1
222077,-100,4,1,0,100,0,1
226362,-100,4,1,0,100,0,0
227219,428.571428571429,5,1,0,100,1,8
229041,428.571428571429,4,1,0,100,1,0

[HitObjects]
256,192,915,5,8,0:0:0:0:
256,192,1772,1,0,0:0:0:0:
256,192,2629,1,0,0:0:0:0:
256,192,3486,1,8,0:0:0:0:
256,192,4343,1,0,0:0:0:0:
256,96,6057,1,12,0:0:0:0:
256,96,6915,1,4,0:0:0:0:
256,96,7772,1,4,0:0:0:0:
256,96,8629,1,12,0:0:0:0:
256,96,9486,1,4,0:0:0:0:
256,96,10343,1,12,0:0:0:0:
256,96,11200,1,12,0:0:0:0:
256,96,12057,1,12,0:0:0:0:
256,96,12915,1,4,0:0:0:0:
256,192,13772,1,8,0:0:0:0:
256,192,14200,1,0,0:0:0:0:
256,192,14629,1,8,0:0:0:0:
256,192,14843,1,8,0:0:0:0:
256,192,15057,1,0,0:0:0:0:
256,192,15486,1,8,0:0:0:0:
256,192,15915,1,0,0:0:0:0:
256,192,16343,1,0,0:0:0:0:
256,192,16557,1,8,0:0:0:0:
256,192,16772,1,0,0:0:0:0:
256,192,17200,1,8,0:0:0:0:
256,192,17629,1,0,0:0:0:0:
256,192,18057,1,0,0:0:0:0:
256,192,18379,1,8,0:0:0:0:
256,192,18700,1,8,0:0:0:0:
256,192,18915,1,0,0:0:0:0:
256,192,19772,1,8,0:0:0:0:
256,192,20093,1,0,0:0:0:0:
256,192,20415,1,8,0:0:0:0:
256,192,20629,1,0,0:0:0:0:
256,192,21272,1,0,0:0:0:0:
256,192,21486,1,8,0:0:0:0:
256,192,21807,1,8,0:0:0:0:
256,192,22129,1,0,0:0:0:0:
256,192,22343,1,8,0:0:0:0:
256,192,22986,1,0,0:0:0:0:
256,192,23200,1,8,0:0:0:0:
256,192,23522,1,0,0:0:0:0:
256,192,23843,1,0,0:0:0:0:
256,192,24057,1,8,0:0:0:0:
256,192,24486,1,8,0:0:0:0:
256,192,24915,1,0,0:0:0:0:
256,192,25557,1,8,0:0:0:0:
256,192,25772,1,0,0:0:0:0:
256,192,26200,1,8,0:0:0:0:
256,192,26415,1,8,0:0:0:0:
256,96,26629,1,4,0:0:0:0:
256,192,27486,1,8,0:0:0:0:
256,192,27700,1,0,0:0:0:0:
256,192,27915,1,8,0:0:0:0:
256,192,28343,1,0,0:0:0:0:
256,192,28557,1,8,0:0:0:0:
256,192,28772,1,0,0:0:0:0:
256,192,29200,1,8,0:0:0:0:
256,192,29629,1,0,0:0:0:0:
256,192,30057,1,0,0:0:0:0:
256,192,30272,1,8,0:0:0:0:
256,192,30486,1,0,0:0:0:0:
256,192,30700,1,0,0:0:0:0:
256,192,30915,1,8,0:0:0:0:
256,192,31343,1,0,0:0:0:0:
256,192,31772,1,0,0:0:0:0:
256,192,32093,1,8,0:0:0:0:
256,192,32415,1,8,0:0:0:0:
256,192,32629,1,0,0:0:0:0:
256,192,33486,1,8,0:0:0:0:
256,192,33807,1,0,0:0:0:0:
256,192,34129,1,8,0:0:0:0:
256,192,34343,1,0,0:0:0:0:
256,192,34772,1,0,0:0:0:0:
256,192,34986,1,0,0:0:0:0:
256,96,35200,1,12,0:0:0:0:
256,96,35629,1,4,0:0:0:0:
256,96,36057,1,12,0:0:0:0:
256,192,36700,1,0,0:0:0:0:
256,192,36915,1,12,0:0:0:0:
256,192,37343,1,8,0:0:0:0:
256,192,37557,1,8,0:0:0:0:
256,192,37772,1,0,0:0:0:0:
256,192,38200,1,0,0:0:0:0:
256,192,38629,1,8,0:0:0:0:
256,192,39057,1,0,0:0:0:0:
256,192,39486,1,8,0:0:0:0:
256,192,39700,1,8,0:0:0:0:
256,192,40022,1,0,0:0:0:0:
256,96,40343,1,12,0:0:0:0:
256,96,41200,1,12,0:0:0:0:
256,192,41629,1,0,0:0:0:0:
256,96,42057,1,12,0:0:0:0:
256,192,42486,1,0,0:0:0:0:
256,192,42700,1,0,0:0:0:0:
256,96,42915,1,12,0:0:0:0:
256,192,43343,1,0,0:0:0:0:
256,96,43772,1,12,0:0:0:0:
256,96,44629,1,12,0:0:0:0:
256,192,45057,1,0,0:0:0:0:
256,96,45486,1,12,0:0:0:0:
256,192,45915,1,0,0:0:0:0:
256,192,46129,1,0,0:0:0:0:
256,96,46343,1,12,0:0:0:0:
256,192,46772,1,0,0:0:0:0:
256,96,47200,1,12,0:0:0:0:
256,96,47843,1,12,0:0:0:0:
256,96,48915,1,4,0:0:0:0:
256,96,49557,1,12,0:0:0:0:
256,192,49986,1,0,0:0:0:0:
256,192,50200,1,8,0:0:0:0:
256,96,50629,1,12,0:0:0:0:
256,192,51272,1,0,0:0:0:0:
256,192,51486,1,8,0:0:0:0:
256,192,51915,1,0,0:0:0:0:
256,192,52129,1,0,0:0:0:0:
256,96,52343,1,12,0:0:0:0:
256,192,52772,1,0,0:0:0:0:
256,192,53200,1,8,0:0:0:0:
256,192,53522,1,8,0:0:0:0:
256,192,53843,1,0,0:0:0:0:
256,96,54057,1,12,0:0:0:0:
256,96,54915,1,12,0:0:0:0:
256,96,55772,1,12,0:0:0:0:
256,192,56200,1,0,0:0:0:0:
256,192,56415,1,0,0:0:0:0:
256,192,56629,1,8,0:0:0:0:
256,192,57057,1,8,0:0:0:0:
256,96,57486,1,4,0:0:0:0:
256,192,58343,1,8,0:0:0:0:
256,192,58772,1,0,0:0:0:0:
256,192,58986,1,0,0:0:0:0:
256,192,59200,1,8,0:0:0:0:
256,192,59629,1,0,0:0:0:0:
256,192,60057,1,8,0:0:0:0:
256,192,60272,1,0,0:0:0:0:
256,192,60486,1,8,0:0:0:0:
256,192,60700,1,8,0:0:0:0:
256,192,60915,1,0,0:0:0:0:
256,192,61343,1,0,0:0:0:0:
256,192,61772,1,8,0:0:0:0:
256,192,61986,1,8,0:0:0:0:
256,192,62200,1,0,0:0:0:0:
256,192,62415,1,0,0:0:0:0:
256,192,62629,1,8,0:0:0:0:
256,192,63057,1,0,0:0:0:0:
256,192,63486,1,8,0:0:0:0:
256,192,63700,1,8,0:0:0:0:
256,192,63915,1,0,0:0:0:0:
256,192,64129,1,8,0:0:0:0:
256,192,64343,1,0,0:0:0:0:
256,192,65200,1,8,0:0:0:0:
256,192,65629,1,0,0:0:0:0:
256,192,65843,1,0,0:0:0:0:
256,192,66057,1,8,0:0:0:0:
256,192,66486,1,8,0:0:0:0:
256,192,66700,1,8,0:0:0:0:
256,192,66915,1,0,0:0:0:0:
256,192,67557,1,8,0:0:0:0:
256,192,67986,1,8,0:0:0:0:
256,192,68200,1,8,0:0:0:0:
256,192,68415,1,0,0:0:0:0:
256,192,68629,1,8,0:0:0:0:
256,192,69057,1,0,0:0:0:0:
256,192,69272,1,0,0:0:0:0:
256,96,69486,1,12,0:0:0:0:
256,96,70343,1,12,0:0:0:0:
256,192,70772,1,8,0:0:0:0:
256,192,70986,1,8,0:0:0:0:
256,96,71200,1,4,0:0:0:0:
256,192,72057,1,8,0:0:0:0:
256,192,72272,1,0,0:0:0:0:
256,192,72486,1,8,0:0:0:0:
256,192,72700,1,8,0:0:0:0:
256,192,72915,1,0,0:0:0:0:
256,192,73343,1,8,0:0:0:0:
256,192,73772,1,0,0:0:0:0:
256,192,73986,1,0,0:0:0:0:
256,192,74200,1,8,0:0:0:0:
256,192,74415,1,8,0:0:0:0:
256,192,74629,1,0,0:0:0:0:
256,192,75057,1,8,0:0:0:0:
256,192,75486,1,0,0:0:0:0:
256,192,75700,1,0,0:0:0:0:
256,192,75915,1,8,0:0:0:0:
256,192,76129,1,0,0:0:0:0:
256,192,76343,1,8,0:0:0:0:
256,192,76772,1,0,0:0:0:0:
256,192,77200,1,8,0:0:0:0:
256,192,77415,1,0,0:0:0:0:
256,192,77629,1,8,0:0:0:0:
256,192,77843,1,8,0:0:0:0:
256,192,78057,1,0,0:0:0:0:
256,192,78915,1,0,0:0:0:0:
256,192,79129,1,8,0:0:0:0:
256,192,79343,1,0,0:0:0:0:
256,192,79772,1,8,0:0:0:0:
256,192,80200,1,0,0:0:0:0:
256,192,80415,1,0,0:0:0:0:
256,192,80629,1,8,0:0:0:0:
256,192,81272,1,0,0:0:0:0:
256,192,81700,1,0,0:0:0:0:
256,192,81915,1,8,0:0:0:0:
256,192,82129,1,0,0:0:0:0:
256,192,82343,1,8,0:0:0:0:
256,192,82772,1,0,0:0:0:0:
256,192,82986,1,0,0:0:0:0:
256,192,83200,1,8,0:0:0:0:
256,192,83629,1,0,0:0:0:0:
256,192,84057,1,8,0:0:0:0:
256,192,84486,1,0,0:0:0:0:
256,192,84700,1,8,0:0:0:0:
256,192,84915,1,0,0:0:0:0:
256,192,85343,1,8,0:0:0:0:
256,192,85557,1,0,0:0:0:0:
256,192,85772,1,8,0:0:0:0:
256,96,86629,1,12,0:0:0:0:
256,96,87486,1,12,0:0:0:0:
256,96,88343,1,12,0:0:0:0:
256,96,89200,1,12,0:0:0:0:
256,192,90057,1,4,0:0:0:0:
256,192,91129,1,0,0:0:0:0:
256,192,91343,1,8,0:0:0:0:
256,192,91772,1,8,0:0:0:0:
256,192,91986,1,8,0:0:0:0:
256,192,92200,1,0,0:0:0:0:
256,192,92629,1,8,0:0:0:0:
256,192,93058,1,0,0:0:0:0:
256,192,93486,1,0,0:0:0:0:
256,192,93700,1,8,0:0:0:0:
256,192,93915,1,0,0:0:0:0:
256,192,94343,1,8,0:0:0:0:
256,192,94772,1,0,0:0:0:0:
256,192,95200,1,0,0:0:0:0:
256,192,95522,1,8,0:0:0:0:
256,192,95843,1,8,0:0:0:0:
256,192,96058,1,0,0:0:0:0:
256,192,96915,1,8,0:0:0:0:
256,192,97236,1,0,0:0:0:0:
256,192,97558,1,8,0:0:0:0:
256,192,97772,1,0,0:0:0:0:
256,192,98415,1,0,0:0:0:0:
256,192,98629,1,8,0:0:0:0:
256,192,98950,1,0,0:0:0:0:
256,192,99272,1,0,0:0:0:0:
256,192,99486,1,8,0:0:0:0:
256,192,100129,1,0,0:0:0:0:
256,192,100343,1,8,0:0:0:0:
256,192,100665,1,0,0:0:0:0:
256,192,100986,1,8,0:0:0:0:
256,192,101200,1,0,0:0:0:0:
256,192,101629,1,8,0:0:0:0:
256,192,102058,1,0,0:0:0:0:
256,192,102700,1,8,0:0:0:0:
256,192,102915,1,0,0:0:0:0:
256,192,103129,1,8,0:0:0:0:
256,192,103343,1,8,0:0:0:0:
256,192,103557,1,8,0:0:0:0:
256,96,103772,1,4,0:0:0:0:
256,192,104629,1,8,0:0:0:0:
256,192,104843,1,0,0:0:0:0:
256,192,105058,1,8,0:0:0:0:
256,192,105486,1,0,0:0:0:0:
256,192,105700,1,8,0:0:0:0:
256,192,105915,1,0,0:0:0:0:
256,192,106343,1,8,0:0:0:0:
256,192,106772,1,0,0:0:0:0:
256,192,107200,1,0,0:0:0:0:
256,192,107415,1,8,0:0:0:0:
256,192,107629,1,0,0:0:0:0:
256,192,107843,1,0,0:0:0:0:
256,192,108058,1,8,0:0:0:0:
256,192,108486,1,0,0:0:0:0:
256,192,108915,1,0,0:0:0:0:
256,192,109236,1,8,0:0:0:0:
256,192,109558,1,8,0:0:0:0:
256,192,109772,1,0,0:0:0:0:
256,192,110629,1,8,0:0:0:0:
256,192,110950,1,0,0:0:0:0:
256,192,111272,1,8,0:0:0:0:
256,192,111486,1,0,0:0:0:0:
256,192,111915,1,0,0:0:0:0:
256,192,112129,1,0,0:0:0:0:
256,96,112343,1,12,0:0:0:0:
256,96,112772,1,4,0:0:0:0:
256,96,113200,1,12,0:0:0:0:
256,192,113843,1,0,0:0:0:0:
256,192,114058,1,12,0:0:0:0:
256,192,114486,1,8,0:0:0:0:
256,192,114700,1,8,0:0:0:0:
256,192,114915,1,0,0:0:0:0:
256,192,115343,1,0,0:0:0:0:
256,192,115772,1,8,0:0:0:0:
256,192,116200,1,0,0:0:0:0:
256,192,116629,1,8,0:0:0:0:
256,192,116843,1,8,0:0:0:0:
256,192,117165,1,8,0:0:0:0:
256,96,117486,1,4,0:0:0:0:
256,96,118343,1,12,0:0:0:0:
256,192,118772,1,0,0:0:0:0:
256,96,119200,1,12,0:0:0:0:
256,192,119629,1,0,0:0:0:0:
256,192,119843,1,0,0:0:0:0:
256,96,120058,1,12,0:0:0:0:
256,192,120486,1,0,0:0:0:0:
256,96,120915,1,12,0:0:0:0:
256,96,121772,1,12,0:0:0:0:
256,192,122200,1,0,0:0:0:0:
256,96,122629,1,12,0:0:0:0:
256,192,123058,1,0,0:0:0:0:
256,192,123272,1,0,0:0:0:0:
256,96,123486,1,12,0:0:0:0:
256,192,123915,1,0,0:0:0:0:
256,96,124343,1,12,0:0:0:0:
256,96,124986,1,12,0:0:0:0:
256,96,126058,1,4,0:0:0:0:
256,96,126700,1,12,0:0:0:0:
256,192,127129,1,0,0:0:0:0:
256,192,127343,1,8,0:0:0:0:
256,96,127772,1,12,0:0:0:0:
256,192,128415,1,0,0:0:0:0:
256,192,128629,1,8,0:0:0:0:
256,192,129058,1,0,0:0:0:0:
256,192,129272,1,0,0:0:0:0:
256,96,129486,1,12,0:0:0:0:
256,192,129915,1,0,0:0:0:0:
256,192,130343,1,8,0:0:0:0:
256,192,130665,1,8,0:0:0:0:
256,192,130986,1,0,0:0:0:0:
256,96,131200,1,12,0:0:0:0:
256,96,132058,1,12,0:0:0:0:
256,96,132915,1,12,0:0:0:0:
256,192,133343,1,0,0:0:0:0:
256,192,133558,1,0,0:0:0:0:
256,192,133772,1,8,0:0:0:0:
256,192,134200,1,8,0:0:0:0:
256,96,134629,1,4,0:0:0:0:
256,192,135486,1,8,0:0:0:0:
256,192,135915,1,0,0:0:0:0:
256,192,136129,1,0,0:0:0:0:
256,192,136343,1,8,0:0:0:0:
256,192,136772,1,0,0:0:0:0:
256,192,137200,1,8,0:0:0:0:
256,192,137415,1,8,0:0:0:0:
256,192,137629,1,0,0:0:0:0:
256,192,137843,1,0,0:0:0:0:
256,192,138058,1,8,0:0:0:0:
256,192,138486,1,0,0:0:0:0:
256,192,138915,1,8,0:0:0:0:
256,192,139129,1,0,0:0:0:0:
256,192,139343,1,8,0:0:0:0:
256,192,139558,1,0,0:0:0:0:
256,192,139772,1,8,0:0:0:0:
256,192,140200,1,0,0:0:0:0:
256,192,140629,1,8,0:0:0:0:
256,192,140843,1,8,0:0:0:0:
256,192,141058,1,0,0:0:0:0:
256,192,141272,1,8,0:0:0:0:
256,192,141486,1,0,0:0:0:0:
256,192,142343,1,8,0:0:0:0:
256,192,142772,1,0,0:0:0:0:
256,192,142986,1,0,0:0:0:0:
256,192,143200,1,8,0:0:0:0:
256,192,143629,1,8,0:0:0:0:
256,192,143843,1,8,0:0:0:0:
256,192,144058,1,0,0:0:0:0:
256,192,144700,1,8,0:0:0:0:
256,192,145129,1,8,0:0:0:0:
256,192,145343,1,8,0:0:0:0:
256,192,145558,1,0,0:0:0:0:
256,192,145772,1,8,0:0:0:0:
256,192,146200,1,0,0:0:0:0:
256,192,146415,1,0,0:0:0:0:
256,96,146629,1,12,0:0:0:0:
256,96,147486,1,12,0:0:0:0:
256,192,147915,1,8,0:0:0:0:
256,192,148129,1,8,0:0:0:0:
256,96,148343,1,4,0:0:0:0:
256,192,149200,1,8,0:0:0:0:
256,192,149415,1,0,0:0:0:0:
256,192,149629,1,8,0:0:0:0:
256,192,149843,1,8,0:0:0:0:
256,192,150058,1,0,0:0:0:0:
256,192,150486,1,8,0:0:0:0:
256,192,150915,1,0,0:0:0:0:
256,192,151129,1,0,0:0:0:0:
256,192,151343,1,8,0:0:0:0:
256,192,151558,1,8,0:0:0:0:
256,192,151772,1,0,0:0:0:0:
256,192,152200,1,8,0:0:0:0:
256,192,152629,1,0,0:0:0:0:
256,192,152843,1,0,0:0:0:0:
256,192,153058,1,8,0:0:0:0:
256,192,153272,1,0,0:0:0:0:
256,192,153486,1,8,0:0:0:0:
256,192,153915,1,0,0:0:0:0:
256,192,154343,1,8,0:0:0:0:
256,192,154558,1,0,0:0:0:0:
256,192,154772,1,8,0:0:0:0:
256,192,154986,1,8,0:0:0:0:
256,192,155200,1,0,0:0:0:0:
256,192,156058,1,0,0:0:0:0:
256,192,156272,1,8,0:0:0:0:
256,192,156486,1,0,0:0:0:0:
256,192,156915,1,8,0:0:0:0:
256,192,157343,1,0,0:0:0:0:
256,192,157558,1,0,0:0:0:0:
256,192,157772,1,8,0:0:0:0:
256,192,158415,1,0,0:0:0:0:
256,192,158843,1,0,0:0:0:0:
256,192,159058,1,8,0:0:0:0:
256,192,159272,1,0,0:0:0:0:
256,192,159486,1,8,0:0:0:0:
256,192,160343,5,12,0:0:0:0:
256,192,160772,1,0,0:0:0:0:
256,192,161200,1,8,0:0:0:0:
256,192,161629,1,0,0:0:0:0:
256,192,162057,1,8,0:0:0:0:
256,192,162486,1,8,0:0:0:0:
256,192,162915,1,0,0:0:0:0:
256,192,163772,1,4,0:0:0:0:
256,192,164200,1,8,0:0:0:0:
256,192,164629,1,0,0:0:0:0:
256,192,165057,1,8,0:0:0:0:
256,192,165486,1,8,0:0:0:0:
256,192,165915,1,0,0:0:0:0:
256,192,166343,1,8,0:0:0:0:
256,192,167200,1,12,0:0:0:0:
256,192,167629,1,0,0:0:0:0:
256,192,168057,1,8,0:0:0:0:
256,192,168486,1,8,0:0:0:0:
256,192,168915,1,0,0:0:0:0:
256,192,169343,1,0,0:0:0:0:
256,192,169772,1,8,0:0:0:0:
256,192,170629,1,4,0:0:0:0:
256,192,171057,1,8,0:0:0:0:
256,192,171486,1,0,0:0:0:0:
256,192,171915,1,0,0:0:0:0:
256,192,172343,1,8,0:0:0:0:
256,192,172772,1,8,0:0:0:0:
256,192,173200,1,0,0:0:0:0:
256,96,174057,1,12,0:0:0:0:
256,192,174915,1,0,0:0:0:0:
256,192,175236,1,8,0:0:0:0:
256,192,175772,1,8,0:0:0:0:
256,192,176093,1,0,0:0:0:0:
256,192,176629,1,8,0:0:0:0:
256,192,177272,1,0,0:0:0:0:
256,192,177486,1,8,0:0:0:0:
256,192,177807,1,0,0:0:0:0:
256,192,178343,1,8,0:0:0:0:
256,192,178665,1,0,0:0:0:0:
256,192,179200,1,8,0:0:0:0:
256,192,179843,1,8,0:0:0:0:
256,192,180057,1,8,0:0:0:0:
256,192,180272,1,8,0:0:0:0:
256,192,180486,1,0,0:0:0:0:
256,96,180915,1,12,0:0:0:0:
256,96,181557,1,12,0:0:0:0:
256,96,182629,1,4,0:0:0:0:
256,96,183272,1,12,0:0:0:0:
256,192,183700,1,0,0:0:0:0:
256,192,183915,1,8,0:0:0:0:
256,192,184129,1,0,0:0:0:0:
256,96,184343,1,12,0:0:0:0:
256,192,184986,1,0,0:0:0:0:
256,192,185200,1,0,0:0:0:0:
256,192,185629,1,8,0:0:0:0:
256,192,185843,1,8,0:0:0:0:
256,96,186057,1,4,0:0:0:0:
256,192,186486,1,0,0:0:0:0:
256,192,186700,1,8,0:0:0:0:
256,192,186915,1,8,0:0:0:0:
256,192,187236,1,0,0:0:0:0:
256,192,187557,1,0,0:0:0:0:
256,96,187772,1,12,0:0:0:0:
256,96,188629,1,12,0:0:0:0:
256,96,189486,1,4,0:0:0:0:
256,96,190343,1,4,0:0:0:0:
256,192,191200,1,8,0:0:0:0:
256,192,191522,1,8,0:0:0:0:
256,192,192057,1,8,0:0:0:0:
256,192,192486,1,8,0:0:0:0:
256,192,192915,1,0,0:0:0:0:
256,96,193343,1,12,0:0:0:0:
256,192,193986,1,0,0:0:0:0:
256,192,194200,1,0,0:0:0:0:
256,192,194415,1,8,0:0:0:0:
256,192,195486,1,0,0:0:0:0:
256,192,195915,1,8,0:0:0:0:
256,192,196343,1,0,0:0:0:0:
256,192,196557,1,0,0:0:0:0:
256,96,196772,1,12,0:0:0:0:
256,192,197200,1,12,0:0:0:0:
256,96,198057,1,4,0:0:0:0:
256,192,198486,1,8,0:0:0:0:
256,192,198915,1,8,0:0:0:0:
256,192,199343,1,0,0:0:0:0:
256,96,199772,1,12,0:0:0:0:
256,192,200629,1,0,0:0:0:0:
256,192,201057,1,8,0:0:0:0:
256,192,201272,1,8,0:0:0:0:
256,192,201486,1,4,0:0:0:0:
256,192,201915,1,8,0:0:0:0:
256,192,202129,1,0,0:0:0:0:
256,192,202343,1,8,0:0:0:0:
256,192,202772,1,0,0:0:0:0:
256,192,202986,1,8,0:0:0:0:
256,192,203200,1,4,0:0:0:0:
256,192,203629,1,8,0:0:0:0:
256,192,204057,1,8,0:0:0:0:
256,192,204272,1,0,0:0:0:0:
256,192,204486,1,8,0:0:0:0:
256,192,204700,1,8,0:0:0:0:
256,192,204915,1,0,0:0:0:0:
256,192,205236,1,0,0:0:0:0:
256,192,205557,1,0,0:0:0:0:
256,192,205772,1,8,0:0:0:0:
256,192,206200,1,8,0:0:0:0:
256,96,206629,1,4,0:0:0:0:
256,192,207486,1,8,0:0:0:0:
256,192,207700,1,8,0:0:0:0:
256,192,207915,1,0,0:0:0:0:
256,192,208129,1,0,0:0:0:0:
256,192,208343,1,8,0:0:0:0:
256,192,208772,1,0,0:0:0:0:
256,192,209200,1,8,0:0:0:0:
256,192,209415,1,0,0:0:0:0:
256,192,209629,1,8,0:0:0:0:
256,192,209843,1,8,0:0:0:0:
256,192,210057,1,0,0:0:0:0:
256,192,210486,1,0,0:0:0:0:
256,192,210915,1,8,0:0:0:0:
256,192,211129,1,0,0:0:0:0:
256,192,211343,1,8,0:0:0:0:
256,192,211557,1,0,0:0:0:0:
256,192,211772,1,8,0:0:0:0:
256,192,212200,1,0,0:0:0:0:
256,192,212629,1,8,0:0:0:0:
256,192,212843,1,8,0:0:0:0:
256,192,213057,1,0,0:0:0:0:
256,192,213272,1,8,0:0:0:0:
256,192,213486,1,0,0:0:0:0:
256,192,214343,1,0,0:0:0:0:
256,192,214557,1,0,0:0:0:0:
256,192,214772,1,8,0:0:0:0:
256,192,215200,1,0,0:0:0:0:
256,192,215629,1,8,0:0:0:0:
256,192,215843,1,0,0:0:0:0:
256,192,216057,1,8,0:0:0:0:
256,192,216700,1,0,0:0:0:0:
256,192,217129,1,0,0:0:0:0:
256,192,217343,1,8,0:0:0:0:
256,192,217557,1,0,0:0:0:0:
256,192,217772,1,8,0:0:0:0:
256,192,218200,1,0,0:0:0:0:
256,192,218415,1,0,0:0:0:0:
256,192,218629,1,8,0:0:0:0:
256,192,219057,1,0,0:0:0:0:
256,192,219486,1,8,0:0:0:0:
256,192,219915,1,0,0:0:0:0:
256,192,220129,1,8,0:0:0:0:
256,192,220343,1,8,0:0:0:0:
256,192,220557,1,0,0:0:0:0:
256,192,220772,1,8,0:0:0:0:
256,192,220986,1,8,0:0:0:0:
256,192,221200,1,0,0:0:0:0:
256,192,221629,1,8,0:0:0:0:
256,96,222077,1,12,0:0:0:0:
256,96,222934,1,4,0:0:0:0:
256,96,223791,1,12,0:0:0:0:
256,96,224648,1,12,0:0:0:0:
256,96,225505,1,4,0:0:0:0:
256,96,226362,1,12,0:0:0:0:
256,192,229041,8,0,232469,0:0:0:0:
