osu file format v14

[General]
AudioFilename: audio.mp3
AudioLeadIn: 0
PreviewTime: 40852
Countdown: 0
SampleSet: Normal
StackLeniency: 0.7
Mode: 1
LetterboxInBreaks: 0
WidescreenStoryboard: 1

[Editor]
Bookmarks: 1552,12052,31252,43252,62452,74452,91252,103252,124852,137483,162746,191546
DistanceSpacing: 0.6
BeatDivisor: 4
GridSize: 32
TimelineZoom: 3.499998

[Metadata]
Title:Hello Dystopia
TitleUnicode:ハローディストピア
Artist:mafumafu
ArtistUnicode:まふまふ
Creator:JarvisGaming
Version:Skull Kid's Kantan
Source:
Tags:electronic pop jpop j-pop 歌ってみた utattemita self cover vocaloid 鏡音 リン レン kagamine rin len skull_kid callmelyra capu jaltzu japanese イザナワレトラベラー After the Rain distopia skid
BeatmapID:2528541
BeatmapSetID:809048

[Difficulty]
HPDrainRate:7.5
CircleSize:4
OverallDifficulty:3
ApproachRate:9
SliderMultiplier:1.4
SliderTickRate:1

[Events]
//Background and Video events
0,0,"BG.jpg",0,100
//Break Periods
2,12302,19252
2,74452,79252
//Storyboard Layer 0 (Background)
//Storyboard Layer 1 (Fail)
//Storyboard Layer 2 (Pass)
//Storyboard Layer 3 (Foreground)
//Storyboard Layer 4 (Overlay)
//Storyboard Sound Samples

[TimingPoints]
102,300,4,1,0,90,1,0
11952,-100,4,1,0,80,0,0
41952,-100,4,1,0,60,0,0
43152,-100,4,1,0,100,0,0
43302,-100,4,1,0,100,0,1
57702,-100,4,1,0,100,0,0
62352,-100,4,1,0,90,0,0
71952,-100,4,1,0,80,0,0
72175,-100,4,1,0,20,0,0
80352,-100,4,1,0,80,0,0
101952,-100,4,1,0,60,0,0
103152,-100,4,1,0,100,0,0
103302,-100,4,1,0,100,0,1
117702,-100,4,1,0,100,0,0
122052,-100,4,1,0,80,0,0
124902,394.736842105263,4,1,0,80,1,0
124902,-76.9230769230769,4,1,0,80,0,0
162796,300,4,1,0,80,1,0
172246,-100,4,1,0,100,0,0
174796,-100,4,1,0,100,0,1
186796,-100,4,1,0,100,0,0
191446,-100,4,1,0,90,0,0
201046,-100,4,1,0,100,0,0
201196,-100,4,1,0,100,0,1
203296,-100,4,1,0,100,0,0

[HitObjects]
256,192,2502,5,4,0:0:0:0:
256,192,2802,1,0,0:0:0:0:
256,192,3102,1,8,0:0:0:0:
256,192,3552,1,0,0:0:0:0:
256,192,4002,1,0,0:0:0:0:
256,192,4302,1,8,0:0:0:0:
256,192,4902,1,0,0:0:0:0:
256,192,5202,1,0,0:0:0:0:
256,192,5502,1,8,0:0:0:0:
256,192,6102,1,4,0:0:0:0:
256,192,7002,1,8,0:0:0:0:
256,192,7302,1,4,0:0:0:0:
256,192,7602,1,0,0:0:0:0:
256,192,7902,1,8,0:0:0:0:
256,192,8352,1,0,0:0:0:0:
256,192,8802,1,0,0:0:0:0:
256,192,9102,1,8,0:0:0:0:
256,192,9702,1,0,0:0:0:0:
256,192,10002,1,0,0:0:0:0:
256,192,10302,1,8,0:0:0:0:
256,192,10902,1,4,0:0:0:0:
256,192,11502,1,8,0:0:0:0:
256,192,11802,1,8,0:0:0:0:
256,192,12102,1,4,0:0:0:0:
256,192,20502,5,12,0:0:0:0:
256,192,20802,1,12,0:0:0:0:
256,192,21102,1,12,0:0:0:0:
256,192,21702,1,4,0:0:0:0:
256,192,22302,1,8,0:0:0:0:
256,192,22602,1,8,0:0:0:0:
256,192,22902,1,0,0:0:0:0:
256,192,23202,1,0,0:0:0:0:
256,192,23502,1,8,0:0:0:0:
256,192,24102,1,0,0:0:0:0:
256,192,24702,1,8,0:0:0:0:
256,192,25002,1,8,0:0:0:0:
256,192,25302,1,0,0:0:0:0:
256,192,26202,1,8,0:0:0:0:
256,192,26502,1,4,0:0:0:0:
256,192,27102,1,8,0:0:0:0:
256,192,27402,1,8,0:0:0:0:
256,192,27702,1,0,0:0:0:0:
256,192,28002,1,0,0:0:0:0:
256,192,28302,1,8,0:0:0:0:
256,192,28902,1,0,0:0:0:0:
256,192,29202,1,12,0:0:0:0:
256,192,29802,1,12,0:0:0:0:
256,192,30402,1,4,0:0:0:0:
256,192,30702,1,12,0:0:0:0:
256,192,31302,1,4,0:0:0:0:
256,192,32502,1,0,0:0:0:0:
256,192,32802,1,0,0:0:0:0:
256,192,33102,1,8,0:0:0:0:
256,192,33702,1,4,0:0:0:0:
256,192,34302,1,8,0:0:0:0:
256,192,34902,1,0,0:0:0:0:
256,192,35202,1,0,0:0:0:0:
256,192,35502,1,8,0:0:0:0:
256,192,35802,1,8,0:0:0:0:
256,192,36102,1,4,0:0:0:0:
256,192,37302,1,0,0:0:0:0:
256,192,37602,1,0,0:0:0:0:
256,192,37902,1,8,0:0:0:0:
256,192,38502,1,4,0:0:0:0:
256,192,39102,1,8,0:0:0:0:
256,192,39702,1,4,0:0:0:0:
256,192,40002,1,0,0:0:0:0:
256,192,40302,1,12,0:0:0:0:
256,192,40602,1,8,0:0:0:0:
256,192,40902,1,0,0:0:0:0:
256,192,41502,1,0,0:0:0:0:
256,192,42102,1,0,0:0:0:0:
256,192,43302,1,12,0:0:0:0:
256,192,43602,1,12,0:0:0:0:
256,192,43902,1,12,0:0:0:0:
256,192,44202,1,12,0:0:0:0:
256,192,44802,1,4,0:0:0:0:
256,192,45102,1,12,0:0:0:0:
256,192,45402,1,12,0:0:0:0:
256,192,45702,1,4,0:0:0:0:
256,192,46302,1,12,0:0:0:0:
256,192,46902,1,4,0:0:0:0:
256,192,47202,1,4,0:0:0:0:
256,192,47502,1,12,0:0:0:0:
256,192,48102,1,4,0:0:0:0:
256,192,49002,1,8,0:0:0:0:
256,192,49302,1,0,0:0:0:0:
256,192,49602,1,0,0:0:0:0:
256,192,49902,1,8,0:0:0:0:
256,192,50502,1,4,0:0:0:0:
256,192,51102,1,8,0:0:0:0:
256,192,51402,1,8,0:0:0:0:
256,192,51702,1,4,0:0:0:0:
256,192,52902,1,12,0:0:0:0:
256,192,53202,1,12,0:0:0:0:
256,192,53502,1,12,0:0:0:0:
256,192,53802,1,12,0:0:0:0:
256,192,54402,1,4,0:0:0:0:
256,192,54702,1,12,0:0:0:0:
256,192,55002,1,12,0:0:0:0:
256,192,55302,1,4,0:0:0:0:
256,192,55902,1,12,0:0:0:0:
256,192,56502,1,4,0:0:0:0:
256,192,56802,1,12,0:0:0:0:
256,192,57102,1,12,0:0:0:0:
256,192,57702,1,4,0:0:0:0:
256,192,58902,1,12,0:0:0:0:
256,192,60102,12,0,62202,0:0:0:0:
256,192,62502,5,4,0:0:0:0:
256,192,62802,1,0,0:0:0:0:
256,192,63102,1,8,0:0:0:0:
256,192,63552,1,0,0:0:0:0:
256,192,64002,1,0,0:0:0:0:
256,192,64302,1,8,0:0:0:0:
256,192,64902,1,0,0:0:0:0:
256,192,65202,1,0,0:0:0:0:
256,192,65502,1,8,0:0:0:0:
256,192,66102,1,4,0:0:0:0:
256,192,67002,1,8,0:0:0:0:
256,192,67302,1,4,0:0:0:0:
256,192,67602,1,0,0:0:0:0:
256,192,67902,1,8,0:0:0:0:
256,192,68352,1,0,0:0:0:0:
256,192,68802,1,0,0:0:0:0:
256,192,69102,1,8,0:0:0:0:
256,192,69702,1,0,0:0:0:0:
256,192,70002,1,0,0:0:0:0:
256,192,70302,1,8,0:0:0:0:
256,192,70902,1,4,0:0:0:0:
256,192,71502,1,8,0:0:0:0:
256,192,71802,1,8,0:0:0:0:
256,192,72102,1,4,0:0:0:0:
256,192,80502,5,12,0:0:0:0:
256,192,80802,1,12,0:0:0:0:
256,192,81102,1,12,0:0:0:0:
256,192,81702,1,4,0:0:0:0:
256,192,82302,1,8,0:0:0:0:
256,192,82602,1,8,0:0:0:0:
256,192,82902,1,0,0:0:0:0:
256,192,83202,1,0,0:0:0:0:
256,192,83502,1,8,0:0:0:0:
256,192,84102,1,0,0:0:0:0:
256,192,84702,1,8,0:0:0:0:
256,192,85002,1,8,0:0:0:0:
256,192,85302,1,0,0:0:0:0:
256,192,86202,1,8,0:0:0:0:
256,192,86502,1,4,0:0:0:0:
256,192,87102,1,8,0:0:0:0:
256,192,87402,1,8,0:0:0:0:
256,192,87702,1,0,0:0:0:0:
256,192,88002,1,0,0:0:0:0:
256,192,88302,1,8,0:0:0:0:
256,192,88902,1,0,0:0:0:0:
256,192,89202,1,12,0:0:0:0:
256,192,89802,1,12,0:0:0:0:
256,192,90402,1,4,0:0:0:0:
256,192,90702,1,12,0:0:0:0:
256,192,91302,1,4,0:0:0:0:
256,192,92502,1,0,0:0:0:0:
256,192,92802,1,0,0:0:0:0:
256,192,93102,1,8,0:0:0:0:
256,192,93702,1,4,0:0:0:0:
256,192,94302,1,8,0:0:0:0:
256,192,94902,1,0,0:0:0:0:
256,192,95202,1,0,0:0:0:0:
256,192,95502,1,8,0:0:0:0:
256,192,95802,1,8,0:0:0:0:
256,192,96102,1,4,0:0:0:0:
256,192,97302,1,0,0:0:0:0:
256,192,97602,1,0,0:0:0:0:
256,192,97902,1,8,0:0:0:0:
256,192,98502,1,4,0:0:0:0:
256,192,99102,1,8,0:0:0:0:
256,192,99702,1,4,0:0:0:0:
256,192,100002,1,0,0:0:0:0:
256,192,100302,1,12,0:0:0:0:
256,192,100602,1,8,0:0:0:0:
256,192,100902,1,0,0:0:0:0:
256,192,101502,1,0,0:0:0:0:
256,192,102102,1,0,0:0:0:0:
256,192,103302,1,12,0:0:0:0:
256,192,103602,1,12,0:0:0:0:
256,192,103902,1,12,0:0:0:0:
256,192,104202,1,12,0:0:0:0:
256,192,104802,1,4,0:0:0:0:
256,192,105102,1,12,0:0:0:0:
256,192,105402,1,12,0:0:0:0:
256,192,105702,1,4,0:0:0:0:
256,192,106302,1,12,0:0:0:0:
256,192,106902,1,4,0:0:0:0:
256,192,107202,1,4,0:0:0:0:
256,192,107502,1,12,0:0:0:0:
256,192,108102,1,4,0:0:0:0:
256,192,109002,1,8,0:0:0:0:
256,192,109302,1,0,0:0:0:0:
256,192,109602,1,0,0:0:0:0:
256,192,109902,1,8,0:0:0:0:
256,192,110502,1,4,0:0:0:0:
256,192,111102,1,8,0:0:0:0:
256,192,111402,1,8,0:0:0:0:
256,192,111702,1,4,0:0:0:0:
256,192,112902,1,12,0:0:0:0:
256,192,113202,1,12,0:0:0:0:
256,192,113502,1,12,0:0:0:0:
256,192,113802,1,12,0:0:0:0:
256,192,114402,1,4,0:0:0:0:
256,192,114702,1,12,0:0:0:0:
256,192,115002,1,12,0:0:0:0:
256,192,115302,1,4,0:0:0:0:
256,192,115902,1,12,0:0:0:0:
256,192,116502,1,4,0:0:0:0:
256,192,116802,1,12,0:0:0:0:
256,192,117102,1,12,0:0:0:0:
256,192,117702,1,4,0:0:0:0:
256,192,118902,1,12,0:0:0:0:
256,192,120102,1,0,0:0:0:0:
256,192,120402,1,0,0:0:0:0:
256,192,120702,1,0,0:0:0:0:
256,192,121152,1,0,0:0:0:0:
256,192,121452,1,0,0:0:0:0:
256,192,121902,1,0,0:0:0:0:
256,192,122202,1,8,0:0:0:0:
256,192,122802,1,4,0:0:0:0:
256,192,123102,1,4,0:0:0:0:
256,192,123702,1,4,0:0:0:0:
256,192,124002,1,4,0:0:0:0:
256,192,124902,1,4,0:0:0:0:
256,192,125494,1,0,0:0:0:0:
256,192,126086,1,0,0:0:0:0:
256,192,126480,1,8,0:0:0:0:
256,192,127073,1,8,0:0:0:0:
256,192,127665,1,8,0:0:0:0:
256,192,128059,1,0,0:0:0:0:
256,192,128652,1,0,0:0:0:0:
256,192,129244,1,0,0:0:0:0:
256,192,129638,1,8,0:0:0:0:
256,192,130823,1,8,0:0:0:0:
256,192,131217,1,4,0:0:0:0:
256,192,131809,1,0,0:0:0:0:
256,192,132402,1,0,0:0:0:0:
256,192,132796,1,8,0:0:0:0:
256,192,133388,1,8,0:0:0:0:
256,192,133980,1,8,0:0:0:0:
256,192,134375,1,0,0:0:0:0:
256,192,134967,1,0,0:0:0:0:
256,192,135559,1,0,0:0:0:0:
256,192,135954,1,8,0:0:0:0:
256,192,137138,1,8,0:0:0:0:
256,192,137533,1,4,0:0:0:0:
256,192,138125,1,0,0:0:0:0:
256,192,138717,1,0,0:0:0:0:
256,192,139112,1,8,0:0:0:0:
256,192,139507,1,8,0:0:0:0:
256,192,139704,1,8,0:0:0:0:
256,192,140296,1,8,0:0:0:0:
256,192,140691,1,0,0:0:0:0:
256,192,141283,1,0,0:0:0:0:
256,192,141678,1,0,0:0:0:0:
256,192,141875,1,0,0:0:0:0:
256,192,142270,1,8,0:0:0:0:
256,192,143454,1,8,0:0:0:0:
256,192,143849,1,4,0:0:0:0:
256,192,144441,1,0,0:0:0:0:
256,192,145033,1,0,0:0:0:0:
256,192,145428,1,8,0:0:0:0:
256,192,145823,1,8,0:0:0:0:
256,192,146020,1,8,0:0:0:0:
256,192,146612,1,8,0:0:0:0:
256,192,147007,1,0,0:0:0:0:
256,192,147599,1,8,0:0:0:0:
256,192,147994,1,0,0:0:0:0:
256,192,148191,1,0,0:0:0:0:
256,192,148586,1,8,0:0:0:0:
256,192,149770,1,8,0:0:0:0:
256,192,150165,1,4,0:0:0:0:
256,192,150757,1,0,0:0:0:0:
256,192,151349,1,0,0:0:0:0:
256,192,151744,1,8,0:0:0:0:
256,192,152138,1,8,0:0:0:0:
256,192,152336,1,8,0:0:0:0:
256,192,152928,1,8,0:0:0:0:
256,192,153323,1,0,0:0:0:0:
256,192,153915,1,0,0:0:0:0:
256,192,154309,1,0,0:0:0:0:
256,192,154507,1,0,0:0:0:0:
256,192,154902,1,8,0:0:0:0:
256,192,156086,1,8,0:0:0:0:
256,192,156480,1,4,0:0:0:0:
256,192,157073,1,0,0:0:0:0:
256,192,157665,1,0,0:0:0:0:
256,192,158059,1,8,0:0:0:0:
256,192,158454,1,8,0:0:0:0:
256,192,158652,1,8,0:0:0:0:
256,192,159244,1,8,0:0:0:0:
256,192,159638,1,0,0:0:0:0:
256,192,160230,1,8,0:0:0:0:
256,192,160625,1,0,0:0:0:0:
256,192,160823,1,0,0:0:0:0:
256,192,161217,1,12,0:0:0:0:
256,192,162007,1,12,0:0:0:0:
256,192,162796,1,4,0:0:0:0:
256,192,163996,1,4,0:0:0:0:
256,192,164296,1,12,0:0:0:0:
256,192,164596,1,12,0:0:0:0:
256,192,164896,1,12,0:0:0:0:
256,192,165196,1,4,0:0:0:0:
256,192,166396,1,4,0:0:0:0:
256,192,166696,1,12,0:0:0:0:
256,192,166996,1,4,0:0:0:0:
256,192,167296,1,12,0:0:0:0:
256,192,167596,1,4,0:0:0:0:
256,192,168796,1,4,0:0:0:0:
256,192,169096,1,12,0:0:0:0:
256,192,169396,1,12,0:0:0:0:
256,192,169696,1,12,0:0:0:0:
256,192,169996,1,4,0:0:0:0:
256,192,171196,1,4,0:0:0:0:
256,192,171496,1,12,0:0:0:0:
256,192,171796,1,4,0:0:0:0:
256,192,172096,1,4,0:0:0:0:
256,192,172396,1,12,0:0:0:0:
256,192,174796,1,4,0:0:0:0:
256,192,175396,1,12,0:0:0:0:
256,192,175996,1,4,0:0:0:0:
256,192,176296,1,4,0:0:0:0:
256,192,176596,1,12,0:0:0:0:
256,192,177196,1,4,0:0:0:0:
256,192,178096,1,8,0:0:0:0:
256,192,178396,1,0,0:0:0:0:
256,192,178696,1,0,0:0:0:0:
256,192,178996,1,8,0:0:0:0:
256,192,179596,1,4,0:0:0:0:
256,192,180196,1,8,0:0:0:0:
256,192,180496,1,8,0:0:0:0:
256,192,180796,1,4,0:0:0:0:
256,192,181996,1,12,0:0:0:0:
256,192,182296,1,12,0:0:0:0:
256,192,182596,1,12,0:0:0:0:
256,192,182896,1,12,0:0:0:0:
256,192,183496,1,4,0:0:0:0:
256,192,183796,1,12,0:0:0:0:
256,192,184096,1,12,0:0:0:0:
256,192,184396,1,4,0:0:0:0:
256,192,184996,1,12,0:0:0:0:
256,192,185596,1,4,0:0:0:0:
256,192,185896,1,12,0:0:0:0:
256,192,186196,1,12,0:0:0:0:
256,192,186796,1,4,0:0:0:0:
256,192,187996,1,4,0:0:0:0:
256,192,189196,12,0,191296,0:0:0:0:
256,192,191596,5,4,0:0:0:0:
256,192,191896,1,0,0:0:0:0:
256,192,192196,1,8,0:0:0:0:
256,192,192646,1,0,0:0:0:0:
256,192,193096,1,0,0:0:0:0:
256,192,193396,1,8,0:0:0:0:
256,192,193996,1,0,0:0:0:0:
256,192,194296,1,0,0:0:0:0:
256,192,194596,1,8,0:0:0:0:
256,192,195196,1,4,0:0:0:0:
256,192,196096,1,8,0:0:0:0:
256,192,196396,1,4,0:0:0:0:
256,192,196696,1,0,0:0:0:0:
256,192,196996,1,8,0:0:0:0:
256,192,197446,1,0,0:0:0:0:
256,192,197896,1,0,0:0:0:0:
256,192,198196,1,8,0:0:0:0:
256,192,198796,1,0,0:0:0:0:
256,192,199096,1,0,0:0:0:0:
256,192,199396,1,8,0:0:0:0:
256,192,199996,1,4,0:0:0:0:
256,192,200596,1,8,0:0:0:0:
256,192,201196,1,4,0:0:0:0:
256,192,201496,1,4,0:0:0:0:
256,192,201796,1,4,0:0:0:0:
256,192,202096,1,4,0:0:0:0:
256,192,202396,1,4,0:0:0:0:
256,192,202696,1,4,0:0:0:0:
256,192,202996,1,4,0:0:0:0:
256,192,203296,1,4,0:0:0:0:
