osu file format v14

[General]
AudioFilename: audio.mp3
AudioLeadIn: 0
PreviewTime: 40852
Countdown: 0
SampleSet: Normal
StackLeniency: 0.7
Mode: 1
LetterboxInBreaks: 0
WidescreenStoryboard: 1

[Editor]
Bookmarks: 1552,12052,31252,43252,62452,74452,91252,103252,124852,137483,162746,191546
DistanceSpacing: 0.6
BeatDivisor: 4
GridSize: 4
TimelineZoom: 1.4

[Metadata]
Title:Hello Dystopia
TitleUnicode:ハローディストピア
Artist:mafumafu
ArtistUnicode:まふまふ
Creator:JarvisGaming
Version:Lyra's Futsuu
Source:
Tags:electronic pop jpop j-pop 歌ってみた utattemita self cover vocaloid 鏡音 リン レン kagamine rin len skull_kid callmelyra capu jaltzu japanese イザナワレトラベラー After the Rain distopia skid
BeatmapID:2515647
BeatmapSetID:809048

[Difficulty]
HPDrainRate:6.5
CircleSize:5
OverallDifficulty:4
ApproachRate:5
SliderMultiplier:1.4
SliderTickRate:1

[Events]
//Background and Video events
0,0,"BG.jpg",0,100
//Break Periods
2,72302,79302
//Storyboard Layer 0 (Background)
//Storyboard Layer 1 (Fail)
//Storyboard Layer 2 (Pass)
//Storyboard Layer 3 (Foreground)
//Storyboard Layer 4 (Overlay)
//Storyboard Sound Samples

[TimingPoints]
102,300,4,1,0,40,1,0
2500,-100,4,1,0,90,0,0
12100,-100,4,1,0,80,0,0
12252,-111.111111111111,4,1,0,80,0,0
21700,-100.129667919956,4,1,0,80,0,0
31300,-111.111111111111,4,1,0,80,0,0
43000,-100,4,1,0,100,0,0
43302,-100,4,1,0,100,0,1
62202,-100,4,1,0,90,0,0
80500,-100.206626062942,4,1,0,80,0,0
91300,-111.111111111111,4,1,0,80,0,0
103000,-100,4,1,0,100,0,0
103302,-100,4,1,0,100,0,1
121902,-100,4,1,0,100,0,0
121977,-117.647058823529,4,1,0,80,0,0
124902,394.736842105263,4,1,0,80,1,0
162796,300,4,1,0,80,1,0
162796,-133.333333333333,4,1,0,80,0,0
162946,-117.647058823529,4,1,0,80,0,0
165346,-105.263157894737,4,1,0,80,0,0
167746,-100,4,1,0,80,0,0
174796,-100,4,1,0,100,0,1
191296,-100,4,1,0,100,0,0
201196,-100,4,1,0,100,0,1
203296,-100,4,1,0,100,0,0

[HitObjects]
148,151,2502,5,12,0:0:0:0:
177,171,2802,1,8,0:0:0:0:
177,171,3102,1,8,0:0:0:0:
177,171,3252,1,0,0:0:0:0:
227,201,3402,1,0,0:0:0:0:
177,171,3702,1,12,0:0:0:0:
227,201,4002,1,0,0:0:0:0:
227,201,4302,1,0,0:0:0:0:
227,201,4902,1,12,0:0:0:0:
113,140,5202,1,8,0:0:0:0:
150,153,5502,1,8,0:0:0:0:
113,140,5652,1,0,0:0:0:0:
168,176,5802,1,8,0:0:0:0:
107,131,6102,1,4,0:0:0:0:
162,133,6702,1,8,0:0:0:0:
162,133,6852,1,8,0:0:0:0:
162,133,7002,1,0,0:0:0:0:
162,133,7302,1,12,0:0:0:0:
177,171,7602,1,8,0:0:0:0:
177,171,7902,1,8,0:0:0:0:
177,171,8052,1,0,0:0:0:0:
227,201,8202,1,0,0:0:0:0:
177,171,8502,1,12,0:0:0:0:
227,201,8802,1,0,0:0:0:0:
227,201,9102,1,0,0:0:0:0:
227,201,9702,1,12,0:0:0:0:
113,140,10002,1,8,0:0:0:0:
150,153,10302,1,8,0:0:0:0:
113,140,10452,1,0,0:0:0:0:
168,176,10602,1,8,0:0:0:0:
107,131,10902,1,4,0:0:0:0:
162,133,11502,1,8,0:0:0:0:
162,133,11652,1,8,0:0:0:0:
162,133,11802,1,0,0:0:0:0:
240,178,11952,1,0,0:0:0:0:
202,121,12102,5,12,0:0:0:0:
295,156,12702,1,8,0:0:0:0:
309,92,13302,1,8,0:0:0:0:
309,92,13602,1,0,0:0:0:0:
309,92,13902,1,0,0:0:0:0:
243,165,14502,1,8,0:0:0:0:
243,165,15102,1,0,0:0:0:0:
203,157,15702,1,8,0:0:0:0:
203,157,16002,1,8,0:0:0:0:
203,157,16302,1,0,0:0:0:0:
150,172,16902,1,8,0:0:0:0:
152,172,17502,1,8,0:0:0:0:
252,135,18102,1,0,0:0:0:0:
252,135,18402,1,0,0:0:0:0:
252,135,18702,1,8,0:0:0:0:
170,139,19302,1,8,0:0:0:0:
170,139,19902,1,0,0:0:0:0:
256,132,20502,1,12,0:0:0:0:
186,173,20802,1,8,0:0:0:0:
150,135,21102,1,4,0:0:0:0:
229,151,21702,5,12,0:0:0:0:
229,151,22002,1,0,0:0:0:0:
229,151,22302,1,0,0:0:0:0:
229,151,22602,1,0,0:0:0:0:
229,151,22902,1,8,0:0:0:0:
309,92,23202,1,0,0:0:0:0:
309,92,23352,1,0,0:0:0:0:
309,92,23502,1,8,0:0:0:0:
229,151,24102,1,8,0:0:0:0:
229,151,24402,1,8,0:0:0:0:
229,151,24702,1,0,0:0:0:0:
229,151,25002,1,8,0:0:0:0:
229,151,25302,1,8,0:0:0:0:
309,92,25602,1,0,0:0:0:0:
309,92,25752,1,8,0:0:0:0:
309,92,25902,1,8,0:0:0:0:
229,151,26502,1,12,0:0:0:0:
229,151,26802,1,0,0:0:0:0:
229,151,27102,1,0,0:0:0:0:
229,151,27402,1,0,0:0:0:0:
229,151,27702,1,8,0:0:0:0:
309,92,28002,1,0,0:0:0:0:
309,92,28152,1,8,0:0:0:0:
309,92,28302,1,0,0:0:0:0:
229,151,28902,1,8,0:0:0:0:
229,151,29202,1,4,0:0:0:0:
229,151,29502,1,0,0:0:0:0:
229,151,29802,1,12,0:0:0:0:
229,151,30102,1,12,0:0:0:0:
309,92,30402,1,12,0:0:0:0:
309,92,30552,1,0,0:0:0:0:
309,92,30702,1,12,0:0:0:0:
163,142,31302,5,4,0:0:0:0:
145,165,31602,1,0,0:0:0:0:
186,136,31902,1,8,0:0:0:0:
131,151,32202,1,0,0:0:0:0:
166,143,32502,1,8,0:0:0:0:
166,143,32802,1,8,0:0:0:0:
131,151,32952,1,0,0:0:0:0:
166,143,33102,1,0,0:0:0:0:
117,172,33702,1,4,0:0:0:0:
117,172,34002,1,0,0:0:0:0:
108,204,34302,1,8,0:0:0:0:
108,204,34452,1,8,0:0:0:0:
108,204,34602,1,0,0:0:0:0:
108,204,34752,1,0,0:0:0:0:
189,137,35052,1,8,0:0:0:0:
189,137,35202,1,0,0:0:0:0:
189,137,35502,1,0,0:0:0:0:
129,150,36102,1,4,0:0:0:0:
159,146,36402,1,8,0:0:0:0:
173,137,36702,1,8,0:0:0:0:
148,129,37002,1,0,0:0:0:0:
159,115,37302,1,8,0:0:0:0:
171,117,37602,1,8,0:0:0:0:
171,117,37752,1,0,0:0:0:0:
170,117,37902,1,8,0:0:0:0:
92,158,38502,1,12,0:0:0:0:
92,158,38802,1,8,0:0:0:0:
180,118,39102,1,8,0:0:0:0:
180,118,39402,1,8,0:0:0:0:
247,148,39702,1,4,0:0:0:0:
247,148,40002,1,0,0:0:0:0:
247,148,40302,1,12,0:0:0:0:
247,148,40602,1,8,0:0:0:0:
247,148,40902,1,0,0:0:0:0:
247,148,41202,1,0,0:0:0:0:
160,159,41502,1,8,0:0:0:0:
160,159,41652,1,8,0:0:0:0:
160,159,41802,1,8,0:0:0:0:
120,164,43002,5,8,0:0:0:0:
120,164,43302,1,12,0:0:0:0:
188,115,43602,1,0,0:0:0:0:
191,153,43902,1,8,0:0:0:0:
191,153,44202,1,0,0:0:0:0:
76,153,44652,1,8,0:0:0:0:
76,153,44802,1,8,0:0:0:0:
191,153,44952,1,0,0:0:0:0:
240,178,45102,1,8,0:0:0:0:
76,153,45402,1,0,0:0:0:0:
240,178,45702,1,8,0:0:0:0:
76,153,46002,1,0,0:0:0:0:
240,178,46152,1,8,0:0:0:0:
76,153,46302,1,0,0:0:0:0:
240,178,46602,1,8,0:0:0:0:
183,191,46902,1,8,0:0:0:0:
106,140,47052,1,0,0:0:0:0:
183,191,47202,1,8,0:0:0:0:
106,140,47352,1,0,0:0:0:0:
106,140,47502,1,8,0:0:0:0:
134,167,48102,1,12,0:0:0:0:
77,173,48402,1,0,0:0:0:0:
93,175,48702,1,0,0:0:0:0:
242,145,49002,1,8,0:0:0:0:
242,145,49152,1,8,0:0:0:0:
248,94,49302,1,0,0:0:0:0:
253,82,49602,1,8,0:0:0:0:
95,170,49902,1,0,0:0:0:0:
95,170,50352,1,0,0:0:0:0:
191,130,50502,1,12,0:0:0:0:
191,130,50802,1,8,0:0:0:0:
218,160,51102,1,0,0:0:0:0:
218,160,51252,1,0,0:0:0:0:
237,130,51402,1,8,0:0:0:0:
141,161,51702,1,4,0:0:0:0:
119,157,52302,1,0,0:0:0:0:
119,157,52452,1,0,0:0:0:0:
119,157,52602,1,8,0:0:0:0:
119,157,52752,1,0,0:0:0:0:
119,157,52902,1,12,0:0:0:0:
165,155,53202,1,0,0:0:0:0:
173,139,53502,1,8,0:0:0:0:
225,177,53802,1,0,0:0:0:0:
177,136,54252,1,8,0:0:0:0:
82,163,54402,1,8,0:0:0:0:
225,177,54552,1,0,0:0:0:0:
82,163,54702,1,8,0:0:0:0:
154,146,55002,1,0,0:0:0:0:
95,152,55302,1,12,0:0:0:0:
157,166,55752,1,0,0:0:0:0:
139,160,55902,1,12,0:0:0:0:
157,166,56352,1,0,0:0:0:0:
156,155,56502,1,12,0:0:0:0:
156,155,56802,1,12,0:0:0:0:
156,155,57102,1,12,0:0:0:0:
110,140,57402,1,4,0:0:0:0:
110,140,57702,1,12,0:0:0:0:
201,138,58302,1,8,0:0:0:0:
226,229,58902,1,4,0:0:0:0:
206,152,59202,1,8,0:0:0:0:
226,229,59502,1,8,0:0:0:0:
201,155,59802,1,0,0:0:0:0:
256,192,60102,12,0,62202,0:0:0:0:
148,151,62502,5,12,0:0:0:0:
177,171,62802,1,8,0:0:0:0:
177,171,63102,1,8,0:0:0:0:
177,171,63252,1,0,0:0:0:0:
227,201,63402,1,0,0:0:0:0:
177,171,63702,1,12,0:0:0:0:
227,201,64002,1,0,0:0:0:0:
227,201,64302,1,0,0:0:0:0:
227,201,64902,1,12,0:0:0:0:
113,140,65202,1,8,0:0:0:0:
150,153,65502,1,8,0:0:0:0:
113,140,65652,1,0,0:0:0:0:
168,176,65802,1,8,0:0:0:0:
107,131,66102,1,4,0:0:0:0:
162,133,66702,1,8,0:0:0:0:
162,133,66852,1,8,0:0:0:0:
162,133,67002,1,0,0:0:0:0:
162,133,67302,1,12,0:0:0:0:
177,171,67602,1,8,0:0:0:0:
177,171,67902,1,8,0:0:0:0:
177,171,68052,1,0,0:0:0:0:
227,201,68202,1,0,0:0:0:0:
177,171,68502,1,12,0:0:0:0:
227,201,68802,1,0,0:0:0:0:
227,201,69102,1,0,0:0:0:0:
227,201,69702,1,12,0:0:0:0:
113,140,70002,1,8,0:0:0:0:
150,153,70302,1,8,0:0:0:0:
113,140,70452,1,0,0:0:0:0:
168,176,70602,1,8,0:0:0:0:
107,131,70902,1,4,0:0:0:0:
162,133,71502,1,8,0:0:0:0:
162,133,71652,1,8,0:0:0:0:
162,133,71802,1,0,0:0:0:0:
240,178,71952,1,0,0:0:0:0:
202,121,72102,1,8,0:0:0:0:
159,164,80502,5,12,0:0:0:0:
84,150,80652,1,8,0:0:0:0:
84,150,80802,1,0,0:0:0:0:
139,129,81102,1,12,0:0:0:0:
139,129,81402,1,12,0:0:0:0:
201,166,81702,5,12,0:0:0:0:
229,151,82002,1,0,0:0:0:0:
229,151,82302,1,0,0:0:0:0:
229,151,82602,1,0,0:0:0:0:
229,151,82902,1,8,0:0:0:0:
309,92,83202,1,0,0:0:0:0:
309,92,83352,1,0,0:0:0:0:
309,92,83502,1,8,0:0:0:0:
229,151,84102,1,8,0:0:0:0:
229,151,84402,1,8,0:0:0:0:
229,151,84702,1,0,0:0:0:0:
229,151,85002,1,8,0:0:0:0:
229,151,85302,1,8,0:0:0:0:
309,92,85602,1,0,0:0:0:0:
309,92,85752,1,8,0:0:0:0:
309,92,85902,1,8,0:0:0:0:
229,151,86502,1,12,0:0:0:0:
229,151,86802,1,0,0:0:0:0:
229,151,87102,1,0,0:0:0:0:
229,151,87402,1,0,0:0:0:0:
229,151,87702,1,8,0:0:0:0:
309,92,88002,1,0,0:0:0:0:
309,92,88152,1,8,0:0:0:0:
309,92,88302,1,8,0:0:0:0:
229,151,88902,1,8,0:0:0:0:
229,151,89202,1,4,0:0:0:0:
229,151,89502,1,8,0:0:0:0:
122,154,89652,1,0,0:0:0:0:
229,151,89802,1,12,0:0:0:0:
66,173,90102,1,4,0:0:0:0:
66,173,90252,1,4,0:0:0:0:
66,173,90402,1,12,0:0:0:0:
66,173,90702,1,4,0:0:0:0:
163,142,91302,5,4,0:0:0:0:
145,165,91602,1,0,0:0:0:0:
186,136,91902,1,8,0:0:0:0:
131,151,92202,1,0,0:0:0:0:
166,143,92502,1,8,0:0:0:0:
166,143,92802,1,8,0:0:0:0:
166,143,92952,1,8,0:0:0:0:
166,143,93102,1,0,0:0:0:0:
117,172,93702,1,4,0:0:0:0:
117,172,94002,1,0,0:0:0:0:
108,204,94302,1,8,0:0:0:0:
108,204,94452,1,8,0:0:0:0:
108,204,94602,1,0,0:0:0:0:
108,204,94752,1,0,0:0:0:0:
189,137,95052,1,8,0:0:0:0:
189,137,95202,1,0,0:0:0:0:
189,137,95502,1,0,0:0:0:0:
129,150,96102,1,4,0:0:0:0:
159,146,96402,1,8,0:0:0:0:
173,137,96702,1,8,0:0:0:0:
148,129,97002,1,0,0:0:0:0:
159,115,97302,1,8,0:0:0:0:
171,117,97602,1,8,0:0:0:0:
171,117,97752,1,0,0:0:0:0:
170,117,97902,1,8,0:0:0:0:
92,158,98502,1,12,0:0:0:0:
92,158,98802,1,8,0:0:0:0:
180,118,99102,1,8,0:0:0:0:
180,118,99402,1,8,0:0:0:0:
247,148,99702,1,4,0:0:0:0:
247,148,100002,1,0,0:0:0:0:
247,148,100302,1,12,0:0:0:0:
247,148,100602,1,8,0:0:0:0:
247,148,100902,1,0,0:0:0:0:
247,148,101202,1,0,0:0:0:0:
160,159,101502,1,8,0:0:0:0:
160,159,101652,1,8,0:0:0:0:
160,159,101802,1,8,0:0:0:0:
120,164,103002,5,8,0:0:0:0:
120,164,103302,1,12,0:0:0:0:
188,115,103602,1,0,0:0:0:0:
191,153,103902,1,8,0:0:0:0:
191,153,104202,1,0,0:0:0:0:
76,153,104652,1,8,0:0:0:0:
76,153,104802,1,8,0:0:0:0:
191,153,104952,1,0,0:0:0:0:
240,178,105102,1,8,0:0:0:0:
76,153,105402,1,0,0:0:0:0:
240,178,105702,1,8,0:0:0:0:
76,153,106002,1,0,0:0:0:0:
240,178,106152,1,8,0:0:0:0:
76,153,106302,1,0,0:0:0:0:
240,178,106602,1,8,0:0:0:0:
183,191,106902,1,8,0:0:0:0:
106,140,107052,1,0,0:0:0:0:
183,191,107202,1,8,0:0:0:0:
106,140,107352,1,0,0:0:0:0:
106,140,107502,1,8,0:0:0:0:
134,167,108102,1,12,0:0:0:0:
77,173,108402,1,0,0:0:0:0:
93,175,108702,1,0,0:0:0:0:
242,145,109002,1,8,0:0:0:0:
242,145,109152,1,8,0:0:0:0:
248,94,109302,1,0,0:0:0:0:
253,82,109602,1,8,0:0:0:0:
95,170,109902,1,0,0:0:0:0:
95,170,110352,1,0,0:0:0:0:
191,130,110502,1,12,0:0:0:0:
191,130,110802,1,8,0:0:0:0:
218,160,111102,1,0,0:0:0:0:
218,160,111252,1,0,0:0:0:0:
237,130,111402,1,8,0:0:0:0:
141,161,111702,1,4,0:0:0:0:
119,157,112302,1,0,0:0:0:0:
119,157,112452,1,0,0:0:0:0:
119,157,112602,1,8,0:0:0:0:
119,157,112752,1,0,0:0:0:0:
119,157,112902,1,12,0:0:0:0:
165,155,113202,1,0,0:0:0:0:
173,139,113502,1,8,0:0:0:0:
225,177,113802,1,0,0:0:0:0:
177,136,114252,1,8,0:0:0:0:
82,163,114402,1,8,0:0:0:0:
225,177,114552,1,0,0:0:0:0:
82,163,114702,1,8,0:0:0:0:
154,146,115002,1,0,0:0:0:0:
95,152,115302,1,12,0:0:0:0:
157,166,115752,1,0,0:0:0:0:
139,160,115902,1,12,0:0:0:0:
157,166,116352,1,0,0:0:0:0:
156,155,116502,1,12,0:0:0:0:
156,155,116802,1,12,0:0:0:0:
156,155,117102,1,12,0:0:0:0:
110,140,117402,1,4,0:0:0:0:
110,140,117702,1,12,0:0:0:0:
201,138,118302,5,8,0:0:0:0:
226,229,118902,1,4,0:0:0:0:
206,152,119202,5,8,0:0:0:0:
226,229,119502,1,8,0:0:0:0:
201,155,119802,1,0,0:0:0:0:
203,184,120102,1,4,0:0:0:0:
203,184,120402,1,0,0:0:0:0:
203,184,120702,1,0,0:0:0:0:
203,184,121152,1,0,0:0:0:0:
203,184,121452,1,0,0:0:0:0:
203,184,121752,1,0,0:0:0:0:
203,184,121902,1,0,0:0:0:0:
288,146,122802,1,12,0:0:0:0:
288,146,123102,1,4,0:0:0:0:
213,127,123702,1,12,0:0:0:0:
213,127,124002,1,4,0:0:0:0:
152,188,124302,1,12,0:0:0:0:
217,140,124902,5,12,0:0:0:0:
219,174,125494,1,8,0:0:0:0:
116,138,125888,1,8,0:0:0:0:
219,174,126086,1,0,0:0:0:0:
135,161,126480,1,8,0:0:0:0:
219,174,127073,1,8,0:0:0:0:
219,174,127467,1,0,0:0:0:0:
116,138,127665,1,0,0:0:0:0:
135,161,128059,1,8,0:0:0:0:
219,174,128652,1,8,0:0:0:0:
219,174,129046,1,8,0:0:0:0:
116,138,129244,1,0,0:0:0:0:
111,174,129638,1,8,0:0:0:0:
172,149,130428,1,0,0:0:0:0:
172,149,130625,1,0,0:0:0:0:
151,180,130823,1,8,0:0:0:0:
219,174,131217,1,12,0:0:0:0:
116,138,131809,1,8,0:0:0:0:
116,138,132204,1,8,0:0:0:0:
219,174,132402,1,0,0:0:0:0:
135,161,132796,1,8,0:0:0:0:
219,174,133388,1,8,0:0:0:0:
219,174,133783,1,0,0:0:0:0:
116,138,133980,1,0,0:0:0:0:
135,161,134375,1,8,0:0:0:0:
219,174,134967,1,8,0:0:0:0:
219,174,135362,1,8,0:0:0:0:
116,138,135559,1,0,0:0:0:0:
111,174,135954,1,8,0:0:0:0:
151,180,136941,1,8,0:0:0:0:
151,180,137138,1,0,0:0:0:0:
151,180,137533,5,12,0:0:0:0:
217,140,137928,1,0,0:0:0:0:
219,174,138125,1,8,0:0:0:0:
219,174,138520,1,0,0:0:0:0:
116,138,138915,1,0,0:0:0:0:
135,161,139112,1,8,0:0:0:0:
217,140,139507,1,8,0:0:0:0:
219,174,139704,1,8,0:0:0:0:
219,174,140099,1,8,0:0:0:0:
116,138,140296,1,0,0:0:0:0:
219,174,140494,1,0,0:0:0:0:
135,161,140691,1,8,0:0:0:0:
217,140,141086,1,0,0:0:0:0:
219,174,141283,1,8,0:0:0:0:
219,174,141678,1,0,0:0:0:0:
116,138,142073,1,0,0:0:0:0:
111,174,142270,1,8,0:0:0:0:
111,174,142467,1,8,0:0:0:0:
151,180,142665,1,8,0:0:0:0:
151,180,142862,1,0,0:0:0:0:
151,180,143849,1,12,0:0:0:0:
217,140,144244,1,0,0:0:0:0:
219,174,144441,1,8,0:0:0:0:
219,174,144836,1,0,0:0:0:0:
116,138,145230,1,0,0:0:0:0:
135,161,145428,1,8,0:0:0:0:
217,140,145823,1,8,0:0:0:0:
219,174,146020,1,8,0:0:0:0:
219,174,146415,1,8,0:0:0:0:
116,138,146612,1,0,0:0:0:0:
135,161,147007,1,8,0:0:0:0:
217,140,147402,1,0,0:0:0:0:
219,174,147599,1,8,0:0:0:0:
219,174,147994,1,8,0:0:0:0:
116,138,148388,1,0,0:0:0:0:
111,174,148783,1,0,0:0:0:0:
111,174,148980,1,0,0:0:0:0:
111,174,149178,1,8,0:0:0:0:
92,190,149573,1,0,0:0:0:0:
92,190,149770,1,0,0:0:0:0:
92,190,149967,1,0,0:0:0:0:
139,153,150165,5,12,0:0:0:0:
242,174,150559,1,0,0:0:0:0:
92,190,150757,1,8,0:0:0:0:
92,190,151152,1,8,0:0:0:0:
242,174,151546,1,0,0:0:0:0:
92,190,151941,1,8,0:0:0:0:
185,156,152138,1,8,0:0:0:0:
192,152,152336,1,0,0:0:0:0:
196,127,152928,1,0,0:0:0:0:
130,216,153323,1,8,0:0:0:0:
196,127,153717,1,0,0:0:0:0:
240,131,153915,1,8,0:0:0:0:
229,154,154309,1,8,0:0:0:0:
229,154,154507,1,0,0:0:0:0:
284,129,154704,1,8,0:0:0:0:
207,160,155099,1,0,0:0:0:0:
207,160,155296,1,8,0:0:0:0:
162,134,155494,1,0,0:0:0:0:
162,134,156086,1,0,0:0:0:0:
220,174,156480,1,12,0:0:0:0:
64,194,156875,1,8,0:0:0:0:
97,176,157073,1,0,0:0:0:0:
97,176,157467,1,8,0:0:0:0:
200,164,157665,1,0,0:0:0:0:
200,164,157862,1,0,0:0:0:0:
200,164,158059,1,8,0:0:0:0:
200,164,158454,1,8,0:0:0:0:
200,164,158652,1,8,0:0:0:0:
166,189,159244,1,0,0:0:0:0:
92,164,159638,1,8,0:0:0:0:
166,189,160033,1,0,0:0:0:0:
166,189,160230,1,0,0:0:0:0:
190,151,160625,1,8,0:0:0:0:
180,143,160823,1,0,0:0:0:0:
143,125,161020,1,8,0:0:0:0:
143,125,161217,1,12,0:0:0:0:
180,143,161612,1,0,0:0:0:0:
127,155,162007,1,4,0:0:0:0:
69,148,162204,1,8,0:0:0:0:
69,148,162402,1,0,0:0:0:0:
69,148,162796,5,12,0:0:0:0:
69,148,163996,1,4,0:0:0:0:
69,148,164296,1,12,0:0:0:0:
69,148,164596,1,4,0:0:0:0:
69,148,164896,1,12,0:0:0:0:
69,148,165196,1,4,0:0:0:0:
69,148,166396,1,4,0:0:0:0:
69,148,166696,1,12,0:0:0:0:
69,148,166996,1,12,0:0:0:0:
69,148,167296,1,12,0:0:0:0:
69,148,167596,1,4,0:0:0:0:
69,148,168796,1,4,0:0:0:0:
69,148,169096,1,12,0:0:0:0:
69,148,169396,1,4,0:0:0:0:
69,148,169696,1,12,0:0:0:0:
102,157,169996,1,4,0:0:0:0:
212,152,170596,1,0,0:0:0:0:
212,152,170746,1,8,0:0:0:0:
212,152,170896,1,0,0:0:0:0:
212,152,171046,1,0,0:0:0:0:
212,164,171196,1,12,0:0:0:0:
212,164,171496,1,12,0:0:0:0:
212,164,171796,1,12,0:0:0:0:
212,164,172096,1,12,0:0:0:0:
212,164,172396,5,12,0:0:0:0:
240,178,174796,1,12,0:0:0:0:
76,153,175096,1,0,0:0:0:0:
76,153,175246,1,8,0:0:0:0:
76,153,175396,1,0,0:0:0:0:
240,178,175696,1,0,0:0:0:0:
183,191,175996,1,8,0:0:0:0:
106,140,176146,1,0,0:0:0:0:
183,191,176296,1,8,0:0:0:0:
106,140,176446,1,0,0:0:0:0:
106,140,176596,1,8,0:0:0:0:
240,178,176896,1,0,0:0:0:0:
134,167,177196,1,12,0:0:0:0:
77,173,177496,1,0,0:0:0:0:
77,173,177646,1,8,0:0:0:0:
93,175,177796,1,0,0:0:0:0:
242,145,178096,1,8,0:0:0:0:
242,145,178246,1,8,0:0:0:0:
248,94,178396,1,0,0:0:0:0:
253,82,178696,1,8,0:0:0:0:
95,170,178996,1,0,0:0:0:0:
95,170,179446,1,0,0:0:0:0:
191,130,179596,1,12,0:0:0:0:
95,170,179746,1,0,0:0:0:0:
191,130,179896,1,8,0:0:0:0:
218,160,180196,1,0,0:0:0:0:
218,160,180346,1,0,0:0:0:0:
237,130,180496,1,8,0:0:0:0:
237,130,180646,1,8,0:0:0:0:
141,161,180796,1,4,0:0:0:0:
119,157,181396,1,0,0:0:0:0:
119,157,181546,1,0,0:0:0:0:
119,157,181696,1,8,0:0:0:0:
119,157,181846,1,0,0:0:0:0:
119,157,181996,1,12,0:0:0:0:
165,155,182296,1,0,0:0:0:0:
173,139,182596,1,8,0:0:0:0:
225,177,182896,1,0,0:0:0:0:
177,136,183346,1,8,0:0:0:0:
129,137,183496,1,8,0:0:0:0:
82,163,183646,1,0,0:0:0:0:
82,163,183796,1,8,0:0:0:0:
154,146,184096,1,0,0:0:0:0:
95,152,184396,1,12,0:0:0:0:
157,166,184846,1,0,0:0:0:0:
139,160,184996,1,12,0:0:0:0:
157,166,185446,1,0,0:0:0:0:
156,155,185596,1,12,0:0:0:0:
156,155,185896,1,12,0:0:0:0:
110,140,186046,1,0,0:0:0:0:
156,155,186196,1,12,0:0:0:0:
110,140,186496,1,4,0:0:0:0:
110,140,186796,1,12,0:0:0:0:
229,160,187396,1,8,0:0:0:0:
276,175,187996,1,4,0:0:0:0:
260,158,188296,1,0,0:0:0:0:
276,175,188596,1,8,0:0:0:0:
246,163,188896,1,0,0:0:0:0:
256,192,189196,12,0,191296,0:0:0:0:
148,151,191596,5,12,0:0:0:0:
177,171,191896,1,8,0:0:0:0:
177,171,192196,1,8,0:0:0:0:
177,171,192346,1,0,0:0:0:0:
227,201,192496,1,0,0:0:0:0:
177,171,192796,1,12,0:0:0:0:
227,201,193096,1,0,0:0:0:0:
227,201,193396,1,0,0:0:0:0:
227,201,193996,1,12,0:0:0:0:
113,140,194296,1,8,0:0:0:0:
150,153,194596,1,8,0:0:0:0:
113,140,194746,1,0,0:0:0:0:
168,176,194896,1,8,0:0:0:0:
107,131,195196,1,4,0:0:0:0:
162,133,195796,1,8,0:0:0:0:
162,133,195946,1,8,0:0:0:0:
162,133,196096,1,0,0:0:0:0:
162,133,196396,1,12,0:0:0:0:
177,171,196696,1,8,0:0:0:0:
177,171,196996,1,8,0:0:0:0:
177,171,197146,1,0,0:0:0:0:
227,201,197296,1,0,0:0:0:0:
177,171,197596,1,12,0:0:0:0:
227,201,197896,1,0,0:0:0:0:
227,201,198196,1,0,0:0:0:0:
227,201,198796,1,12,0:0:0:0:
113,140,199096,1,8,0:0:0:0:
150,153,199396,1,8,0:0:0:0:
113,140,199546,1,0,0:0:0:0:
168,176,199696,1,8,0:0:0:0:
107,131,199996,1,4,0:0:0:0:
162,133,200596,1,8,0:0:0:0:
162,133,200746,1,8,0:0:0:0:
162,133,200896,1,0,0:0:0:0:
240,178,201046,1,0,0:0:0:0:
202,121,201196,5,12,0:0:0:0:
202,121,201496,1,12,0:0:0:0:
202,121,201796,1,4,0:0:0:0:
202,121,202096,1,12,0:0:0:0:
202,121,202396,1,4,0:0:0:0:
202,121,202696,1,12,0:0:0:0:
202,121,202996,1,4,0:0:0:0:
202,121,203296,1,12,0:0:0:0:
