osu file format v14

[General]
AudioFilename: audio.mp3
AudioLeadIn: 0
PreviewTime: 40852
Countdown: 0
SampleSet: Normal
StackLeniency: 0.7
Mode: 1
LetterboxInBreaks: 0
StoryFireInFront: 0
EpilepsyWarning: 1
WidescreenStoryboard: 0

[Editor]
Bookmarks: 1552,12052,21652,31252,43252,52852,62452,74452,91252,103252,112852,124852,137483,150115,162746,181946,191546
DistanceSpacing: 1
BeatDivisor: 3
GridSize: 32
TimelineZoom: 2.799999

[Metadata]
Title:Hello Dystopia
TitleUnicode:ハローディストピア
Artist:mafumafu
ArtistUnicode:まふまふ
Creator:JarvisGaming
Version:Jaltzu's Oni
Source:
Tags:electronic pop jpop j-pop 歌ってみた utattemita self cover vocaloid 鏡音 リン レン kagamine rin len skull_kid callmelyra capu jaltzu japanese イザナワレトラベラー After the Rain distopia skid
BeatmapID:2460390
BeatmapSetID:809048

[Difficulty]
HPDrainRate:6
CircleSize:2
OverallDifficulty:6
ApproachRate:10
SliderMultiplier:1.4
SliderTickRate:1

[Events]
//Background and Video events
0,0,"BG.jpg",0,100
//Break Periods
//Storyboard Layer 0 (Background)
//Storyboard Layer 1 (Fail)
//Storyboard Layer 2 (Pass)
//Storyboard Layer 3 (Foreground)
//Storyboard Layer 4 (Overlay)
//Storyboard Sound Samples

[TimingPoints]
102,300,4,1,0,40,1,0
152,-125,4,1,0,40,0,0
1658,-122.443981878291,4,1,0,40,0,0
1733,-120.004800192008,4,1,0,40,0,0
1883,-115.380177685474,4,1,0,40,0,0
1958,-113.211819313936,4,1,0,40,0,0
2183,-107.146683810136,4,1,0,40,0,0
2258,-105.263157894737,4,1,0,40,0,0
2333,-103.444708803145,4,1,0,40,0,0
2408,-101.698362656361,4,1,0,40,0,0
2477,-100,4,1,0,80,0,0
2933,-98.0392156862745,4,1,0,80,0,0
3008,-97.0873786407767,4,1,0,80,0,0
3083,-96.1538461538461,4,1,0,80,0,0
3158,-95.2380952380952,4,1,0,80,0,0
3233,-94.3396226415094,4,1,0,80,0,0
3383,-92.5925925925926,4,1,0,80,0,0
3458,-91.743119266055,4,1,0,80,0,0
3533,-90.9090909090909,4,1,0,80,0,0
3664,-89.2857142857143,4,1,0,80,0,0
3983,-100,4,1,0,80,0,0
4058,-99.009900990099,4,1,0,80,0,0
4133,-98.0392156862745,4,1,0,80,0,0
4208,-97.0873786407767,4,1,0,80,0,0
4283,-96.1538461538461,4,1,0,80,0,0
4433,-94.3396226415094,4,1,0,80,0,0
4583,-92.5925925925926,4,1,0,80,0,0
4658,-91.743119266055,4,1,0,80,0,0
4733,-90.9090909090909,4,1,0,80,0,0
4883,-89.2857142857143,4,1,0,80,0,0
5183,-100,4,1,0,80,0,0
5258,-99.009900990099,4,1,0,80,0,0
5333,-98.0392156862745,4,1,0,80,0,0
5408,-97.0873786407767,4,1,0,80,0,0
5483,-96.1538461538461,4,1,0,80,0,0
5633,-94.3396226415094,4,1,0,80,0,0
5783,-92.5925925925926,4,1,0,80,0,0
5858,-91.743119266055,4,1,0,80,0,0
5933,-90.9090909090909,4,1,0,80,0,0
6083,-89.2857142857143,4,1,0,80,0,0
6458,-90.0900900900901,4,1,0,80,0,0
6533,-90.9090909090909,4,1,0,80,0,0
6683,-92.5925925925926,4,1,0,80,0,0
6758,-93.4579439252336,4,1,0,80,0,0
6833,-94.3396226415094,4,1,0,80,0,0
6908,-95.2380952380952,4,1,0,80,0,0
6983,-96.1538461538461,4,1,0,80,0,0
7133,-98.0392156862745,4,1,0,80,0,0
7208,-99.009900990099,4,1,0,80,0,0
7283,-100,4,1,0,80,0,0
7733,-98.0392156862745,4,1,0,80,0,0
7808,-97.0873786407767,4,1,0,80,0,0
7883,-96.1538461538461,4,1,0,80,0,0
7958,-95.2380952380952,4,1,0,80,0,0
8033,-94.3396226415094,4,1,0,80,0,0
8183,-92.5925925925926,4,1,0,80,0,0
8258,-91.743119266055,4,1,0,80,0,0
8333,-90.9090909090909,4,1,0,80,0,0
8483,-89.2857142857143,4,1,0,80,0,0
8783,-100,4,1,0,80,0,0
8858,-99.009900990099,4,1,0,80,0,0
8933,-98.0392156862745,4,1,0,80,0,0
9008,-97.0873786407767,4,1,0,80,0,0
9083,-96.1538461538461,4,1,0,80,0,0
9233,-94.3396226415094,4,1,0,80,0,0
9383,-92.5925925925926,4,1,0,80,0,0
9458,-91.743119266055,4,1,0,80,0,0
9533,-90.9090909090909,4,1,0,80,0,0
9683,-89.2857142857143,4,1,0,80,0,0
9983,-100,4,1,0,80,0,0
10058,-99.009900990099,4,1,0,80,0,0
10133,-98.0392156862745,4,1,0,80,0,0
10208,-97.0873786407767,4,1,0,80,0,0
10283,-96.1538461538461,4,1,0,80,0,0
10433,-94.3396226415094,4,1,0,80,0,0
10583,-92.5925925925926,4,1,0,80,0,0
10658,-91.743119266055,4,1,0,80,0,0
10733,-90.9090909090909,4,1,0,80,0,0
10883,-89.2857142857143,4,1,0,80,0,0
11258,-90.7611502342091,4,1,0,80,0,0
11333,-92.2861683336625,4,1,0,80,0,0
11408,-93.8633106152834,4,1,0,80,0,0
11483,-95.4952959017239,4,1,0,80,0,0
11633,-98.9355523918164,4,1,0,80,0,0
11708,-100.750388896501,4,1,0,80,0,0
11783,-102.633050921388,4,1,0,80,0,0
11858,-104.587413114007,4,1,0,80,0,0
11933,-106.61765097859,4,1,0,80,0,0
12083,-110.924142306801,4,1,0,60,0,0
20464,-90.9090909090909,4,1,0,70,0,0
20633,-91.9485272144654,4,1,0,70,0,0
20783,-93.0120078502135,4,1,0,70,0,0
20933,-94.100465420902,4,1,0,70,0,0
21083,-95.2146089678832,4,1,0,70,0,0
21308,-96.9362334069402,4,1,0,70,0,0
21383,-97.5239640760726,4,1,0,70,0,0
21533,-98.7212634742184,4,1,0,70,0,0
21608,-99.3309070103781,4,1,0,70,0,0
21683,-100.051826846306,4,1,0,80,0,0
31264,-100.051826846306,4,1,0,70,0,0
40864,-100.051826846306,4,1,0,60,0,0
42814,-100.051826846306,4,1,0,70,0,0
42983,-100,4,1,0,80,0,0
43264,-100,4,1,0,90,0,0
43302,-83.3333333333333,4,1,0,90,0,1
48383,-90.9090909090909,4,1,0,90,0,1
52508,-89.5495656846064,4,1,0,90,0,1
52583,-88.2378893496868,4,1,0,90,0,1
52658,-86.9565217391304,4,1,0,90,0,1
52733,-85.7118368046627,4,1,0,90,0,1
52808,-84.5094228006423,4,1,0,90,0,1
52883,-83.3333333333333,4,1,0,90,0,1
57702,-83.3333333333333,4,1,0,90,0,0
58114,-85.3280179666675,4,1,0,80,0,0
58283,-86.0143282668027,4,1,0,80,0,0
58883,-88.873484151636,4,1,0,80,0,0
59183,-90.3755465461177,4,1,0,80,0,0
59483,-91.9293394325386,4,1,0,80,0,0
59783,-93.5374070121253,4,1,0,80,0,0
59933,-94.3627682261687,4,1,0,80,0,0
60083,-95.2027342225269,4,1,0,80,0,0
62014,-100,4,1,0,80,0,0
62427,-100,4,1,0,80,0,0
62933,-98.0392156862745,4,1,0,80,0,0
63008,-97.0873786407767,4,1,0,80,0,0
63083,-96.1538461538461,4,1,0,80,0,0
63158,-95.2380952380952,4,1,0,80,0,0
63233,-94.3396226415094,4,1,0,80,0,0
63383,-92.5925925925926,4,1,0,80,0,0
63458,-91.743119266055,4,1,0,80,0,0
63533,-90.9090909090909,4,1,0,80,0,0
63664,-89.2857142857143,4,1,0,80,0,0
63983,-100,4,1,0,80,0,0
64058,-99.009900990099,4,1,0,80,0,0
64133,-98.0392156862745,4,1,0,80,0,0
64208,-97.0873786407767,4,1,0,80,0,0
64283,-96.1538461538461,4,1,0,80,0,0
64433,-94.3396226415094,4,1,0,80,0,0
64583,-92.5925925925926,4,1,0,80,0,0
64658,-91.743119266055,4,1,0,80,0,0
64733,-90.9090909090909,4,1,0,80,0,0
64883,-89.2857142857143,4,1,0,80,0,0
65183,-100,4,1,0,80,0,0
65258,-99.009900990099,4,1,0,80,0,0
65333,-98.0392156862745,4,1,0,80,0,0
65408,-97.0873786407767,4,1,0,80,0,0
65483,-96.1538461538461,4,1,0,80,0,0
65633,-94.3396226415094,4,1,0,80,0,0
65783,-92.5925925925926,4,1,0,80,0,0
65858,-91.743119266055,4,1,0,80,0,0
65933,-90.9090909090909,4,1,0,80,0,0
66083,-89.2857142857143,4,1,0,80,0,0
66458,-90.0900900900901,4,1,0,80,0,0
66533,-90.9090909090909,4,1,0,80,0,0
66683,-92.5925925925926,4,1,0,80,0,0
66758,-93.4579439252336,4,1,0,80,0,0
66833,-94.3396226415094,4,1,0,80,0,0
66908,-95.2380952380952,4,1,0,80,0,0
66983,-96.1538461538461,4,1,0,80,0,0
67133,-98.0392156862745,4,1,0,80,0,0
67208,-99.009900990099,4,1,0,80,0,0
67283,-100,4,1,0,80,0,0
67733,-98.0392156862745,4,1,0,80,0,0
67808,-97.0873786407767,4,1,0,80,0,0
67883,-96.1538461538461,4,1,0,80,0,0
67958,-95.2380952380952,4,1,0,80,0,0
68033,-94.3396226415094,4,1,0,80,0,0
68183,-92.5925925925926,4,1,0,80,0,0
68258,-91.743119266055,4,1,0,80,0,0
68333,-90.9090909090909,4,1,0,80,0,0
68483,-89.2857142857143,4,1,0,80,0,0
68783,-100,4,1,0,80,0,0
68858,-99.009900990099,4,1,0,80,0,0
68933,-98.0392156862745,4,1,0,80,0,0
69008,-97.0873786407767,4,1,0,80,0,0
69083,-96.1538461538461,4,1,0,80,0,0
69233,-94.3396226415094,4,1,0,80,0,0
69383,-92.5925925925926,4,1,0,80,0,0
69458,-91.743119266055,4,1,0,80,0,0
69533,-90.9090909090909,4,1,0,80,0,0
69683,-89.2857142857143,4,1,0,80,0,0
69983,-100,4,1,0,80,0,0
70058,-99.009900990099,4,1,0,80,0,0
70133,-98.0392156862745,4,1,0,80,0,0
70208,-97.0873786407767,4,1,0,80,0,0
70283,-96.1538461538461,4,1,0,80,0,0
70433,-94.3396226415094,4,1,0,80,0,0
70583,-92.5925925925926,4,1,0,80,0,0
70658,-91.743119266055,4,1,0,80,0,0
70733,-90.9090909090909,4,1,0,80,0,0
70883,-89.2857142857143,4,1,0,80,0,0
71258,-90.7611502342091,4,1,0,80,0,0
71333,-92.2861683336625,4,1,0,80,0,0
71408,-93.8633106152834,4,1,0,80,0,0
71483,-95.4952959017239,4,1,0,80,0,0
71633,-98.9355523918164,4,1,0,80,0,0
71708,-100.750388896501,4,1,0,80,0,0
71783,-102.633050921388,4,1,0,80,0,0
71858,-104.587413114007,4,1,0,80,0,0
71933,-106.61765097859,4,1,0,80,0,0
72083,-110.924142306801,4,1,0,60,0,0
73283,-166.666666666667,4,1,0,20,0,0
74764,-161.290322580645,4,1,0,22,0,0
75064,-156.25,4,1,0,24,0,0
75364,-151.515151515152,4,1,0,26,0,0
75664,-147.058823529412,4,1,0,28,0,0
75814,-144.927536231884,4,1,0,29,0,0
75964,-142.857142857143,4,1,0,30,0,0
76114,-140.845070422535,4,1,0,31,0,0
76264,-138.888888888889,4,1,0,32,0,0
76864,-131.578947368421,4,1,0,36,0,0
77164,-128.205128205128,4,1,0,38,0,0
77464,-125,4,1,0,40,0,0
77764,-121.951219512195,4,1,0,42,0,0
78064,-119.047619047619,4,1,0,44,0,0
78214,-117.647058823529,4,1,0,45,0,0
78364,-116.279069767442,4,1,0,46,0,0
78514,-114.942528735632,4,1,0,47,0,0
78664,-113.636363636364,4,1,0,48,0,0
79264,-108.695652173913,4,1,0,52,0,0
79564,-106.382978723404,4,1,0,54,0,0
79714,-105.263157894737,4,1,0,55,0,0
79864,-104.166666666667,4,1,0,56,0,0
80164,-102.040816326531,4,1,0,58,0,0
80464,-90.9090909090909,4,1,0,70,0,0
80633,-91.9485272144654,4,1,0,70,0,0
80783,-93.0120078502135,4,1,0,70,0,0
80933,-94.100465420902,4,1,0,70,0,0
81083,-95.2146089678832,4,1,0,70,0,0
81308,-96.9362334069402,4,1,0,70,0,0
81383,-97.5239640760726,4,1,0,70,0,0
81533,-98.7212634742184,4,1,0,70,0,0
81608,-99.3309070103781,4,1,0,70,0,0
81683,-99.948226818508,4,1,0,80,0,0
91283,-99.948226818508,4,1,0,70,0,0
100864,-99.948226818508,4,1,0,60,0,0
102814,-99.948226818508,4,1,0,70,0,0
102983,-100,4,1,0,80,0,0
103264,-83.3333333333333,4,1,0,90,0,0
103302,-83.3333333333333,4,1,0,90,0,1
108383,-90.9090909090909,4,1,0,90,0,1
112508,-89.5495656846064,4,1,0,90,0,1
112583,-88.2378893496868,4,1,0,90,0,1
112658,-86.9565217391304,4,1,0,90,0,1
112733,-85.7118368046627,4,1,0,90,0,1
112808,-84.5094228006423,4,1,0,90,0,1
112883,-83.3333333333333,4,1,0,90,0,1
117702,-83.3333333333333,4,1,0,90,0,0
118114,-85.3280179666675,4,1,0,80,0,0
118283,-86.0143282668027,4,1,0,80,0,0
118883,-88.873484151636,4,1,0,80,0,0
119183,-90.3755465461177,4,1,0,80,0,0
119483,-91.9293394325386,4,1,0,80,0,0
119783,-93.5374070121253,4,1,0,80,0,0
119933,-94.3627682261687,4,1,0,80,0,0
120064,-76.9230769230769,4,1,0,90,0,0
122164,-90.9090909090909,4,1,0,80,0,0
122764,-83.3333333333333,4,1,0,90,0,0
123083,-87.9253056943066,4,1,0,90,0,0
123364,-93.0527730191624,4,1,0,80,0,0
123458,-94.4295088437956,4,1,0,80,0,0
123533,-95.8475946566883,4,1,0,80,0,0
123608,-97.3088270783219,4,1,0,80,0,0
123683,-98.8154009731341,4,1,0,80,0,0
123964,-105.33878005052,4,1,0,80,0,0
124264,-112.784456497343,4,1,0,60,0,0
124864,-131.578947368421,4,1,0,80,0,0
124902,394.736842105263,4,1,0,70,1,0
162796,300,4,1,0,70,1,0
162796,-131.578947368421,4,1,0,70,0,0
163958,-100,4,1,0,80,0,0
165458,-125,4,1,0,70,0,0
166358,-100,4,1,0,80,0,0
167858,-117.647058823529,4,1,0,70,0,0
168758,-100,4,1,0,80,0,0
170258,-111.111111111111,4,1,0,60,0,0
170427,-109.380110102019,4,1,0,64,0,0
170558,-107.702100298658,4,1,0,68,0,0
170652,-106.883283454468,4,1,0,70,0,0
170727,-106.074910101514,4,1,0,72,0,0
170802,-105.27423939362,4,1,0,74,0,0
170877,-104.496156108898,4,1,0,76,0,0
171008,-102.963601337291,4,1,0,80,0,0
171177,-101.475453087898,4,1,0,80,0,0
171477,-98.6244843172276,4,1,0,80,0,0
171777,-95.9294266394099,4,1,0,80,0,0
172077,-93.3776565943301,4,1,0,80,0,0
172377,-90.958125607714,4,1,0,80,0,0
172958,-90.958125607714,4,1,0,60,0,0
174458,-90.958125607714,4,1,0,70,0,0
174552,-88.8888888888889,4,1,0,75,0,0
174627,-86.9565217391304,4,1,0,80,0,0
174796,-83.3333333333333,4,1,0,90,0,1
177477,-90.9090909090909,4,1,0,90,0,1
181602,-89.5495656846064,4,1,0,90,0,1
181677,-88.2378893496868,4,1,0,90,0,1
181752,-86.9565217391304,4,1,0,90,0,1
181827,-85.7118368046627,4,1,0,90,0,1
181902,-84.5094228006423,4,1,0,90,0,1
181977,-83.3333333333333,4,1,0,90,0,1
186796,-83.3333333333333,4,1,0,90,0,0
187208,-85.3280179666675,4,1,0,80,0,0
187377,-86.0143282668027,4,1,0,80,0,0
187977,-88.873484151636,4,1,0,80,0,0
188277,-90.3755465461177,4,1,0,80,0,0
188577,-91.9293394325386,4,1,0,80,0,0
188877,-93.5374070121253,4,1,0,80,0,0
189027,-94.3627682261687,4,1,0,80,0,0
189177,-95.2027342225269,4,1,0,80,0,0
191108,-100,4,1,0,80,0,0
191558,-100,4,1,0,80,0,0
192027,-98.0392156862745,4,1,0,80,0,0
192102,-97.0873786407767,4,1,0,80,0,0
192177,-96.1538461538461,4,1,0,80,0,0
192252,-95.2380952380952,4,1,0,80,0,0
192327,-94.3396226415094,4,1,0,80,0,0
192477,-92.5925925925926,4,1,0,80,0,0
192552,-91.743119266055,4,1,0,80,0,0
192627,-90.9090909090909,4,1,0,80,0,0
192758,-89.2857142857143,4,1,0,80,0,0
193077,-100,4,1,0,80,0,0
193152,-99.009900990099,4,1,0,80,0,0
193227,-98.0392156862745,4,1,0,80,0,0
193302,-97.0873786407767,4,1,0,80,0,0
193377,-96.1538461538461,4,1,0,80,0,0
193527,-94.3396226415094,4,1,0,80,0,0
193677,-92.5925925925926,4,1,0,80,0,0
193752,-91.743119266055,4,1,0,80,0,0
193827,-90.9090909090909,4,1,0,80,0,0
193977,-89.2857142857143,4,1,0,80,0,0
194277,-100,4,1,0,80,0,0
194352,-99.009900990099,4,1,0,80,0,0
194427,-98.0392156862745,4,1,0,80,0,0
194502,-97.0873786407767,4,1,0,80,0,0
194577,-96.1538461538461,4,1,0,80,0,0
194727,-94.3396226415094,4,1,0,80,0,0
194877,-92.5925925925926,4,1,0,80,0,0
194952,-91.743119266055,4,1,0,80,0,0
195027,-90.9090909090909,4,1,0,80,0,0
195177,-89.2857142857143,4,1,0,80,0,0
195552,-90.0900900900901,4,1,0,80,0,0
195627,-90.9090909090909,4,1,0,80,0,0
195777,-92.5925925925926,4,1,0,80,0,0
195852,-93.4579439252336,4,1,0,80,0,0
195927,-94.3396226415094,4,1,0,80,0,0
196002,-95.2380952380952,4,1,0,80,0,0
196077,-96.1538461538461,4,1,0,80,0,0
196227,-98.0392156862745,4,1,0,80,0,0
196302,-99.009900990099,4,1,0,80,0,0
196377,-100,4,1,0,80,0,0
196827,-98.0392156862745,4,1,0,80,0,0
196902,-97.0873786407767,4,1,0,80,0,0
196977,-96.1538461538461,4,1,0,80,0,0
197052,-95.2380952380952,4,1,0,80,0,0
197127,-94.3396226415094,4,1,0,80,0,0
197277,-92.5925925925926,4,1,0,80,0,0
197352,-91.743119266055,4,1,0,80,0,0
197427,-90.9090909090909,4,1,0,80,0,0
197577,-89.2857142857143,4,1,0,80,0,0
197877,-100,4,1,0,80,0,0
197952,-99.009900990099,4,1,0,80,0,0
198027,-98.0392156862745,4,1,0,80,0,0
198102,-97.0873786407767,4,1,0,80,0,0
198177,-96.1538461538461,4,1,0,80,0,0
198327,-94.3396226415094,4,1,0,80,0,0
198477,-92.5925925925926,4,1,0,80,0,0
198552,-91.743119266055,4,1,0,80,0,0
198627,-90.9090909090909,4,1,0,80,0,0
198777,-89.2857142857143,4,1,0,80,0,0
199077,-100,4,1,0,80,0,0
199152,-99.009900990099,4,1,0,80,0,0
199227,-98.0392156862745,4,1,0,80,0,0
199302,-97.0873786407767,4,1,0,80,0,0
199377,-96.1538461538461,4,1,0,80,0,0
199527,-94.3396226415094,4,1,0,80,0,0
199677,-92.5925925925926,4,1,0,80,0,0
199752,-91.743119266055,4,1,0,80,0,0
199827,-90.9090909090909,4,1,0,80,0,0
199977,-89.2857142857143,4,1,0,80,0,0
200352,-90.7611502342091,4,1,0,80,0,0
200427,-92.2861683336625,4,1,0,80,0,0
200502,-93.8633106152834,4,1,0,80,0,0
200577,-95.4952959017239,4,1,0,80,0,0
200727,-98.9355523918164,4,1,0,80,0,0
200802,-100.750388896501,4,1,0,80,0,0
200877,-102.633050921388,4,1,0,80,0,0
200952,-104.587413114007,4,1,0,80,0,0
201027,-106.61765097859,4,1,0,80,0,0
201196,-76.9230769230769,4,1,0,80,0,1
203296,-76.9230769230769,4,1,0,80,0,0

[HitObjects]
256,192,1602,5,0,0:0:0:0:
256,192,1677,1,0,0:0:0:0:
256,192,1752,1,8,0:0:0:0:
256,192,1902,1,0,0:0:0:0:
256,192,1977,1,0,0:0:0:0:
256,192,2202,1,8,0:0:0:0:
256,192,2277,1,8,0:0:0:0:
256,192,2352,1,8,0:0:0:0:
256,192,2427,1,8,0:0:0:0:
256,192,2502,1,4,0:0:0:0:
256,192,2802,1,0,0:0:0:0:
256,192,2952,1,0,0:0:0:0:
256,192,3027,1,0,0:0:0:0:
256,192,3102,1,8,0:0:0:0:
256,192,3177,1,8,0:0:0:0:
256,192,3252,1,0,0:0:0:0:
256,192,3402,1,8,0:0:0:0:
256,192,3477,1,8,0:0:0:0:
256,192,3552,1,0,0:0:0:0:
256,192,3702,1,4,0:0:0:0:
256,192,4002,1,0,0:0:0:0:
256,192,4077,1,0,0:0:0:0:
256,192,4152,1,8,0:0:0:0:
256,192,4227,1,0,0:0:0:0:
256,192,4302,1,8,0:0:0:0:
256,192,4452,1,0,0:0:0:0:
256,192,4602,1,8,0:0:0:0:
256,192,4677,1,0,0:0:0:0:
256,192,4752,1,8,0:0:0:0:
256,192,4902,1,4,0:0:0:0:
256,192,5202,1,8,0:0:0:0:
256,192,5277,1,8,0:0:0:0:
256,192,5352,1,0,0:0:0:0:
256,192,5427,1,8,0:0:0:0:
256,192,5502,1,0,0:0:0:0:
256,192,5652,1,8,0:0:0:0:
256,192,5802,1,0,0:0:0:0:
256,192,5877,1,8,0:0:0:0:
256,192,5952,1,0,0:0:0:0:
256,192,6102,1,12,0:0:0:0:
256,192,6402,1,0,0:0:0:0:
256,192,6477,1,0,0:0:0:0:
256,192,6552,1,8,0:0:0:0:
256,192,6702,1,0,0:0:0:0:
256,192,6777,1,0,0:0:0:0:
256,192,6852,1,0,0:0:0:0:
256,192,6927,1,0,0:0:0:0:
256,192,7002,1,8,0:0:0:0:
256,192,7152,1,8,0:0:0:0:
256,192,7227,1,8,0:0:0:0:
256,192,7302,1,4,0:0:0:0:
256,192,7602,1,0,0:0:0:0:
256,192,7752,1,8,0:0:0:0:
256,192,7827,1,8,0:0:0:0:
256,192,7902,1,0,0:0:0:0:
256,192,7977,1,0,0:0:0:0:
256,192,8052,1,8,0:0:0:0:
256,192,8202,1,8,0:0:0:0:
256,192,8277,1,8,0:0:0:0:
256,192,8352,1,0,0:0:0:0:
256,192,8502,1,4,0:0:0:0:
256,192,8802,1,0,0:0:0:0:
256,192,8877,1,0,0:0:0:0:
256,192,8952,1,8,0:0:0:0:
256,192,9027,1,0,0:0:0:0:
256,192,9102,1,8,0:0:0:0:
256,192,9252,1,0,0:0:0:0:
256,192,9402,1,8,0:0:0:0:
256,192,9477,1,0,0:0:0:0:
256,192,9552,1,8,0:0:0:0:
256,192,9702,1,4,0:0:0:0:
256,192,10002,1,8,0:0:0:0:
256,192,10077,1,8,0:0:0:0:
256,192,10152,1,0,0:0:0:0:
256,192,10227,1,8,0:0:0:0:
256,192,10302,1,0,0:0:0:0:
256,192,10452,1,8,0:0:0:0:
256,192,10602,1,0,0:0:0:0:
256,192,10677,1,8,0:0:0:0:
256,192,10752,1,0,0:0:0:0:
256,192,10902,1,12,0:0:0:0:
256,192,11202,1,0,0:0:0:0:
256,192,11277,1,0,0:0:0:0:
256,192,11352,1,8,0:0:0:0:
256,192,11427,1,8,0:0:0:0:
256,192,11502,1,0,0:0:0:0:
256,192,11652,1,8,0:0:0:0:
256,192,11727,1,8,0:0:0:0:
256,192,11802,1,0,0:0:0:0:
256,192,11877,1,0,0:0:0:0:
256,192,11952,1,8,0:0:0:0:
256,192,12102,5,12,0:0:0:0:
256,192,12402,1,0,0:0:0:0:
256,192,12602,1,8,0:0:0:0:
256,192,12702,1,0,0:0:0:0:
256,192,13002,1,8,0:0:0:0:
256,192,13302,1,8,0:0:0:0:
256,192,13452,1,0,0:0:0:0:
256,192,13602,1,0,0:0:0:0:
256,192,13752,1,8,0:0:0:0:
256,192,13902,1,0,0:0:0:0:
256,192,14202,1,8,0:0:0:0:
256,192,14502,1,0,0:0:0:0:
256,192,14802,1,8,0:0:0:0:
256,192,15002,1,0,0:0:0:0:
256,192,15102,1,0,0:0:0:0:
256,192,15402,1,8,0:0:0:0:
256,192,15702,1,0,0:0:0:0:
256,192,15852,1,8,0:0:0:0:
256,192,16002,1,8,0:0:0:0:
256,192,16152,1,8,0:0:0:0:
256,192,16302,1,0,0:0:0:0:
256,192,16602,1,8,0:0:0:0:
256,192,16902,1,0,0:0:0:0:
256,192,17202,1,0,0:0:0:0:
256,192,17352,1,8,0:0:0:0:
256,192,17502,1,0,0:0:0:0:
256,192,17802,1,8,0:0:0:0:
256,192,18102,1,8,0:0:0:0:
256,192,18252,1,0,0:0:0:0:
256,192,18402,1,8,0:0:0:0:
256,192,18552,1,8,0:0:0:0:
256,192,18702,1,0,0:0:0:0:
256,192,19002,1,0,0:0:0:0:
256,192,19302,1,8,0:0:0:0:
256,192,19602,1,0,0:0:0:0:
256,192,19752,1,8,0:0:0:0:
256,192,19902,1,0,0:0:0:0:
256,192,20202,1,8,0:0:0:0:
256,192,20502,1,12,0:0:0:0:
256,192,20652,1,0,0:0:0:0:
256,192,20802,1,0,0:0:0:0:
256,192,20952,1,8,0:0:0:0:
256,192,21102,1,4,0:0:0:0:
256,192,21327,1,8,0:0:0:0:
256,192,21402,1,0,0:0:0:0:
256,192,21552,1,8,0:0:0:0:
256,192,21627,1,8,0:0:0:0:
256,192,21702,5,0,0:0:0:0:
256,192,22002,1,8,0:0:0:0:
256,192,22152,1,0,0:0:0:0:
256,192,22302,1,0,0:0:0:0:
256,192,22377,1,8,0:0:0:0:
256,192,22452,1,8,0:0:0:0:
256,192,22527,1,8,0:0:0:0:
256,192,22602,1,0,0:0:0:0:
256,192,22752,1,8,0:0:0:0:
256,192,22902,1,0,0:0:0:0:
256,192,23052,1,0,0:0:0:0:
256,192,23127,1,0,0:0:0:0:
256,192,23202,1,8,0:0:0:0:
256,192,23352,1,8,0:0:0:0:
256,192,23502,1,0,0:0:0:0:
256,192,23652,1,8,0:0:0:0:
256,192,23802,1,8,0:0:0:0:
256,192,24102,1,0,0:0:0:0:
256,192,24252,1,0,0:0:0:0:
256,192,24327,1,0,0:0:0:0:
256,192,24402,1,8,0:0:0:0:
256,192,24552,1,0,0:0:0:0:
256,192,24702,1,8,0:0:0:0:
256,192,24852,1,0,0:0:0:0:
256,192,25002,1,8,0:0:0:0:
256,192,25302,1,0,0:0:0:0:
256,192,25452,1,0,0:0:0:0:
256,192,25527,1,0,0:0:0:0:
256,192,25602,1,8,0:0:0:0:
256,192,25752,1,0,0:0:0:0:
256,192,25902,1,8,0:0:0:0:
256,192,25977,1,0,0:0:0:0:
256,192,26052,1,8,0:0:0:0:
256,192,26202,1,0,0:0:0:0:
256,192,26352,1,8,0:0:0:0:
256,192,26427,1,8,0:0:0:0:
256,192,26502,1,4,0:0:0:0:
256,192,26802,1,8,0:0:0:0:
256,192,26952,1,0,0:0:0:0:
256,192,27102,1,0,0:0:0:0:
256,192,27177,1,8,0:0:0:0:
256,192,27252,1,8,0:0:0:0:
256,192,27327,1,8,0:0:0:0:
256,192,27402,1,0,0:0:0:0:
256,192,27552,1,8,0:0:0:0:
256,192,27702,1,0,0:0:0:0:
256,192,27852,1,0,0:0:0:0:
256,192,27927,1,0,0:0:0:0:
256,192,28002,1,8,0:0:0:0:
256,192,28152,1,8,0:0:0:0:
256,192,28302,1,0,0:0:0:0:
256,192,28452,1,8,0:0:0:0:
256,192,28602,1,8,0:0:0:0:
256,192,28902,1,8,0:0:0:0:
256,192,28977,1,8,0:0:0:0:
256,192,29052,1,8,0:0:0:0:
256,192,29127,1,8,0:0:0:0:
256,192,29202,1,4,0:0:0:0:
256,192,29502,1,0,0:0:0:0:
256,192,29577,1,0,0:0:0:0:
256,192,29652,1,0,0:0:0:0:
256,192,29727,1,0,0:0:0:0:
256,192,29802,1,12,0:0:0:0:
256,192,29952,1,8,0:0:0:0:
256,192,30102,1,4,0:0:0:0:
256,192,30252,1,0,0:0:0:0:
256,192,30402,1,8,0:0:0:0:
256,192,30477,1,8,0:0:0:0:
256,192,30552,1,0,0:0:0:0:
256,192,30627,1,8,0:0:0:0:
256,192,30702,1,0,0:0:0:0:
256,192,30852,1,0,0:0:0:0:
256,192,31002,1,8,0:0:0:0:
256,192,31152,1,8,0:0:0:0:
256,192,31302,5,4,0:0:0:0:
256,192,31602,1,0,0:0:0:0:
256,192,31752,1,8,0:0:0:0:
256,192,31902,1,0,0:0:0:0:
256,192,32052,1,0,0:0:0:0:
256,192,32202,1,8,0:0:0:0:
256,192,32352,1,8,0:0:0:0:
256,192,32502,1,0,0:0:0:0:
256,192,32652,1,8,0:0:0:0:
256,192,32802,1,8,0:0:0:0:
256,192,32952,1,0,0:0:0:0:
256,192,33102,1,8,0:0:0:0:
256,192,33402,1,0,0:0:0:0:
256,192,33702,1,12,0:0:0:0:
256,192,33852,1,0,0:0:0:0:
256,192,34002,1,8,0:0:0:0:
256,192,34152,1,0,0:0:0:0:
256,192,34302,1,8,0:0:0:0:
256,192,34452,1,8,0:0:0:0:
256,192,34602,1,0,0:0:0:0:
256,192,34752,1,0,0:0:0:0:
256,192,35052,1,8,0:0:0:0:
256,192,35202,1,0,0:0:0:0:
256,192,35352,1,8,0:0:0:0:
256,192,35502,1,0,0:0:0:0:
256,192,35802,1,0,0:0:0:0:
256,192,35877,1,0,0:0:0:0:
256,192,35952,1,8,0:0:0:0:
256,192,36102,1,4,0:0:0:0:
256,192,36402,1,0,0:0:0:0:
256,192,36552,1,8,0:0:0:0:
256,192,36702,1,0,0:0:0:0:
256,192,36852,1,0,0:0:0:0:
256,192,37002,1,8,0:0:0:0:
256,192,37152,1,8,0:0:0:0:
256,192,37302,1,0,0:0:0:0:
256,192,37452,1,8,0:0:0:0:
256,192,37602,1,8,0:0:0:0:
256,192,37752,1,0,0:0:0:0:
256,192,37902,1,8,0:0:0:0:
256,192,38202,1,0,0:0:0:0:
256,192,38502,1,12,0:0:0:0:
256,192,38802,1,8,0:0:0:0:
256,192,39102,1,0,0:0:0:0:
256,192,39402,1,8,0:0:0:0:
256,192,39702,1,12,0:0:0:0:
256,192,39927,1,8,0:0:0:0:
256,192,40002,1,0,0:0:0:0:
256,192,40152,1,8,0:0:0:0:
256,192,40302,1,0,0:0:0:0:
256,192,40377,1,8,0:0:0:0:
256,192,40452,1,8,0:0:0:0:
256,192,40527,1,8,0:0:0:0:
256,192,40602,1,0,0:0:0:0:
256,192,40752,1,8,0:0:0:0:
256,192,40902,1,4,0:0:0:0:
256,192,41202,1,12,0:0:0:0:
256,192,41502,1,4,0:0:0:0:
256,192,41652,1,4,0:0:0:0:
256,192,41802,1,12,0:0:0:0:
256,192,42852,1,0,0:0:0:0:
256,192,42927,1,0,0:0:0:0:
256,192,43002,1,8,0:0:0:0:
256,192,43302,5,12,0:0:0:0:
256,192,43452,1,0,0:0:0:0:
256,192,43527,1,0,0:0:0:0:
256,192,43602,1,0,0:0:0:0:
256,192,43752,1,8,0:0:0:0:
256,192,43902,1,0,0:0:0:0:
256,192,43977,1,0,0:0:0:0:
256,192,44052,1,8,0:0:0:0:
256,192,44202,1,0,0:0:0:0:
256,192,44352,1,8,0:0:0:0:
256,192,44502,1,0,0:0:0:0:
256,192,44652,1,8,0:0:0:0:
256,192,44727,1,0,0:0:0:0:
256,192,44802,1,8,0:0:0:0:
256,192,44952,1,0,0:0:0:0:
256,192,45102,1,0,0:0:0:0:
256,192,45177,1,0,0:0:0:0:
256,192,45252,1,8,0:0:0:0:
256,192,45327,1,0,0:0:0:0:
256,192,45402,1,8,0:0:0:0:
256,192,45552,1,8,0:0:0:0:
256,192,45702,1,0,0:0:0:0:
256,192,45852,1,8,0:0:0:0:
256,192,45927,1,8,0:0:0:0:
256,192,46002,1,0,0:0:0:0:
256,192,46152,1,8,0:0:0:0:
256,192,46302,1,0,0:0:0:0:
256,192,46377,1,0,0:0:0:0:
256,192,46452,1,8,0:0:0:0:
256,192,46527,1,8,0:0:0:0:
256,192,46602,1,0,0:0:0:0:
256,192,46752,1,8,0:0:0:0:
256,192,46902,1,8,0:0:0:0:
256,192,46977,1,8,0:0:0:0:
256,192,47052,1,0,0:0:0:0:
256,192,47127,1,0,0:0:0:0:
256,192,47202,1,8,0:0:0:0:
256,192,47352,1,0,0:0:0:0:
256,192,47502,1,8,0:0:0:0:
256,192,47802,1,0,0:0:0:0:
256,192,47877,1,0,0:0:0:0:
256,192,47952,1,0,0:0:0:0:
256,192,48027,1,0,0:0:0:0:
256,192,48102,1,12,0:0:0:0:
256,192,48402,1,0,0:0:0:0:
256,192,48552,1,8,0:0:0:0:
256,192,48702,1,0,0:0:0:0:
256,192,48777,1,0,0:0:0:0:
256,192,48852,1,8,0:0:0:0:
256,192,49002,1,0,0:0:0:0:
256,192,49152,1,8,0:0:0:0:
256,192,49227,1,8,0:0:0:0:
256,192,49302,1,0,0:0:0:0:
256,192,49452,1,0,0:0:0:0:
256,192,49602,1,8,0:0:0:0:
256,192,49677,1,0,0:0:0:0:
256,192,49752,1,0,0:0:0:0:
256,192,49902,1,8,0:0:0:0:
256,192,50202,1,0,0:0:0:0:
256,192,50352,1,0,0:0:0:0:
256,192,50502,1,12,0:0:0:0:
256,192,50652,1,0,0:0:0:0:
256,192,50727,1,0,0:0:0:0:
256,192,50802,1,8,0:0:0:0:
256,192,50952,1,0,0:0:0:0:
256,192,51102,1,8,0:0:0:0:
256,192,51177,1,8,0:0:0:0:
256,192,51252,1,0,0:0:0:0:
256,192,51327,1,0,0:0:0:0:
256,192,51402,1,8,0:0:0:0:
256,192,51552,1,8,0:0:0:0:
256,192,51702,1,4,0:0:0:0:
256,192,51852,1,0,0:0:0:0:
256,192,52002,1,12,0:0:0:0:
256,192,52152,1,8,0:0:0:0:
256,192,52302,1,0,0:0:0:0:
256,192,52452,1,0,0:0:0:0:
256,192,52527,1,0,0:0:0:0:
256,192,52602,1,8,0:0:0:0:
256,192,52677,1,8,0:0:0:0:
256,192,52752,1,0,0:0:0:0:
256,192,52902,1,12,0:0:0:0:
256,192,53052,1,0,0:0:0:0:
256,192,53127,1,0,0:0:0:0:
256,192,53202,1,8,0:0:0:0:
256,192,53352,1,0,0:0:0:0:
256,192,53502,1,8,0:0:0:0:
256,192,53577,1,8,0:0:0:0:
256,192,53652,1,0,0:0:0:0:
256,192,53802,1,8,0:0:0:0:
256,192,53952,1,8,0:0:0:0:
256,192,54102,1,0,0:0:0:0:
256,192,54252,1,0,0:0:0:0:
256,192,54327,1,0,0:0:0:0:
256,192,54402,1,8,0:0:0:0:
256,192,54552,1,0,0:0:0:0:
256,192,54702,1,8,0:0:0:0:
256,192,54777,1,0,0:0:0:0:
256,192,54852,1,0,0:0:0:0:
256,192,54927,1,0,0:0:0:0:
256,192,55002,1,8,0:0:0:0:
256,192,55152,1,8,0:0:0:0:
256,192,55302,1,4,0:0:0:0:
256,192,55602,1,8,0:0:0:0:
256,192,55752,1,0,0:0:0:0:
256,192,55902,1,12,0:0:0:0:
256,192,56202,1,0,0:0:0:0:
256,192,56352,1,8,0:0:0:0:
256,192,56502,1,4,0:0:0:0:
256,192,56652,1,0,0:0:0:0:
256,192,56802,1,12,0:0:0:0:
256,192,56952,1,8,0:0:0:0:
256,192,57102,1,0,0:0:0:0:
256,192,57402,1,12,0:0:0:0:
256,192,57552,1,8,0:0:0:0:
256,192,57627,1,8,0:0:0:0:
256,192,57702,1,4,0:0:0:0:
256,192,58152,1,0,0:0:0:0:
256,192,58302,1,8,0:0:0:0:
256,192,58902,1,12,0:0:0:0:
256,192,59202,1,0,0:0:0:0:
256,192,59502,1,8,0:0:0:0:
256,192,59802,1,8,0:0:0:0:
256,192,59952,1,0,0:0:0:0:
256,192,60102,1,4,0:0:0:0:
256,192,60252,12,0,61902,0:0:0:0:
256,192,62052,5,0,0:0:0:0:
256,192,62202,1,8,0:0:0:0:
256,192,62502,5,4,0:0:0:0:
256,192,62802,1,0,0:0:0:0:
256,192,62952,1,0,0:0:0:0:
256,192,63027,1,0,0:0:0:0:
256,192,63102,1,8,0:0:0:0:
256,192,63177,1,8,0:0:0:0:
256,192,63252,1,0,0:0:0:0:
256,192,63402,1,8,0:0:0:0:
256,192,63477,1,8,0:0:0:0:
256,192,63552,1,0,0:0:0:0:
256,192,63702,1,4,0:0:0:0:
256,192,64002,1,0,0:0:0:0:
256,192,64077,1,0,0:0:0:0:
256,192,64152,1,8,0:0:0:0:
256,192,64227,1,0,0:0:0:0:
256,192,64302,1,8,0:0:0:0:
256,192,64452,1,0,0:0:0:0:
256,192,64602,1,8,0:0:0:0:
256,192,64677,1,0,0:0:0:0:
256,192,64752,1,8,0:0:0:0:
256,192,64902,1,4,0:0:0:0:
256,192,65202,1,8,0:0:0:0:
256,192,65277,1,8,0:0:0:0:
256,192,65352,1,0,0:0:0:0:
256,192,65427,1,8,0:0:0:0:
256,192,65502,1,0,0:0:0:0:
256,192,65652,1,8,0:0:0:0:
256,192,65802,1,0,0:0:0:0:
256,192,65877,1,8,0:0:0:0:
256,192,65952,1,0,0:0:0:0:
256,192,66102,1,12,0:0:0:0:
256,192,66402,1,0,0:0:0:0:
256,192,66477,1,0,0:0:0:0:
256,192,66552,1,8,0:0:0:0:
256,192,66702,1,0,0:0:0:0:
256,192,66777,1,0,0:0:0:0:
256,192,66852,1,0,0:0:0:0:
256,192,66927,1,0,0:0:0:0:
256,192,67002,1,8,0:0:0:0:
256,192,67152,1,8,0:0:0:0:
256,192,67227,1,8,0:0:0:0:
256,192,67302,1,4,0:0:0:0:
256,192,67602,1,0,0:0:0:0:
256,192,67752,1,8,0:0:0:0:
256,192,67827,1,8,0:0:0:0:
256,192,67902,1,0,0:0:0:0:
256,192,67977,1,0,0:0:0:0:
256,192,68052,1,8,0:0:0:0:
256,192,68202,1,8,0:0:0:0:
256,192,68277,1,8,0:0:0:0:
256,192,68352,1,0,0:0:0:0:
256,192,68502,1,4,0:0:0:0:
256,192,68802,1,0,0:0:0:0:
256,192,68877,1,0,0:0:0:0:
256,192,68952,1,8,0:0:0:0:
256,192,69027,1,0,0:0:0:0:
256,192,69102,1,8,0:0:0:0:
256,192,69252,1,0,0:0:0:0:
256,192,69402,1,8,0:0:0:0:
256,192,69477,1,0,0:0:0:0:
256,192,69552,1,8,0:0:0:0:
256,192,69702,1,4,0:0:0:0:
256,192,70002,1,8,0:0:0:0:
256,192,70077,1,8,0:0:0:0:
256,192,70152,1,0,0:0:0:0:
256,192,70227,1,8,0:0:0:0:
256,192,70302,1,0,0:0:0:0:
256,192,70452,1,8,0:0:0:0:
256,192,70602,1,0,0:0:0:0:
256,192,70677,1,8,0:0:0:0:
256,192,70752,1,0,0:0:0:0:
256,192,70902,1,12,0:0:0:0:
256,192,71202,1,0,0:0:0:0:
256,192,71277,1,0,0:0:0:0:
256,192,71352,1,8,0:0:0:0:
256,192,71427,1,8,0:0:0:0:
256,192,71502,1,0,0:0:0:0:
256,192,71652,1,8,0:0:0:0:
256,192,71727,1,8,0:0:0:0:
256,192,71802,1,0,0:0:0:0:
256,192,71877,1,0,0:0:0:0:
256,192,71952,1,8,0:0:0:0:
256,192,72102,1,12,0:0:0:0:
256,192,74502,5,0,0:0:0:0:
256,192,74802,1,8,0:0:0:0:
256,192,75102,1,0,0:0:0:0:
256,192,75402,1,0,0:0:0:0:
256,192,75702,1,8,0:0:0:0:
256,192,75852,1,8,0:0:0:0:
256,192,76002,1,0,0:0:0:0:
256,192,76152,1,8,0:0:0:0:
256,192,76302,1,0,0:0:0:0:
256,192,76902,1,8,0:0:0:0:
256,192,77202,1,0,0:0:0:0:
256,192,77502,1,0,0:0:0:0:
256,192,77802,1,8,0:0:0:0:
256,192,78102,1,8,0:0:0:0:
256,192,78252,1,0,0:0:0:0:
256,192,78402,1,0,0:0:0:0:
256,192,78552,1,8,0:0:0:0:
256,192,78702,1,0,0:0:0:0:
256,192,79302,1,8,0:0:0:0:
256,192,79602,1,0,0:0:0:0:
256,192,79752,1,8,0:0:0:0:
256,192,79902,1,0,0:0:0:0:
256,192,80202,1,8,0:0:0:0:
256,192,80502,1,12,0:0:0:0:
256,192,80652,1,0,0:0:0:0:
256,192,80802,1,8,0:0:0:0:
256,192,80952,1,8,0:0:0:0:
256,192,81102,1,4,0:0:0:0:
256,192,81327,1,8,0:0:0:0:
256,192,81402,1,0,0:0:0:0:
256,192,81552,1,8,0:0:0:0:
256,192,81627,1,8,0:0:0:0:
256,192,81702,5,4,0:0:0:0:
256,192,82002,1,0,0:0:0:0:
256,192,82152,1,8,0:0:0:0:
256,192,82302,1,0,0:0:0:0:
256,192,82377,1,8,0:0:0:0:
256,192,82452,1,8,0:0:0:0:
256,192,82527,1,8,0:0:0:0:
256,192,82602,1,0,0:0:0:0:
256,192,82752,1,8,0:0:0:0:
256,192,82902,1,0,0:0:0:0:
256,192,83052,1,8,0:0:0:0:
256,192,83127,1,8,0:0:0:0:
256,192,83202,1,0,0:0:0:0:
256,192,83352,1,8,0:0:0:0:
256,192,83502,1,0,0:0:0:0:
256,192,83652,1,0,0:0:0:0:
256,192,83802,1,8,0:0:0:0:
256,192,84102,1,0,0:0:0:0:
256,192,84252,1,0,0:0:0:0:
256,192,84327,1,0,0:0:0:0:
256,192,84402,1,8,0:0:0:0:
256,192,84552,1,0,0:0:0:0:
256,192,84702,1,8,0:0:0:0:
256,192,84852,1,0,0:0:0:0:
256,192,84927,1,0,0:0:0:0:
256,192,85002,1,8,0:0:0:0:
256,192,85077,1,8,0:0:0:0:
256,192,85152,1,0,0:0:0:0:
256,192,85302,1,8,0:0:0:0:
256,192,85452,1,0,0:0:0:0:
256,192,85527,1,0,0:0:0:0:
256,192,85602,1,8,0:0:0:0:
256,192,85752,1,0,0:0:0:0:
256,192,85902,1,0,0:0:0:0:
256,192,85977,1,8,0:0:0:0:
256,192,86052,1,0,0:0:0:0:
256,192,86202,1,8,0:0:0:0:
256,192,86352,1,8,0:0:0:0:
256,192,86427,1,8,0:0:0:0:
256,192,86502,1,4,0:0:0:0:
256,192,86802,1,0,0:0:0:0:
256,192,86952,1,8,0:0:0:0:
256,192,87102,1,0,0:0:0:0:
256,192,87177,1,8,0:0:0:0:
256,192,87252,1,8,0:0:0:0:
256,192,87327,1,8,0:0:0:0:
256,192,87402,1,0,0:0:0:0:
256,192,87552,1,8,0:0:0:0:
256,192,87702,1,0,0:0:0:0:
256,192,87852,1,8,0:0:0:0:
256,192,87927,1,8,0:0:0:0:
256,192,88002,1,0,0:0:0:0:
256,192,88152,1,8,0:0:0:0:
256,192,88302,1,0,0:0:0:0:
256,192,88452,1,0,0:0:0:0:
256,192,88602,1,8,0:0:0:0:
256,192,88902,1,8,0:0:0:0:
256,192,88977,1,8,0:0:0:0:
256,192,89052,1,8,0:0:0:0:
256,192,89127,1,8,0:0:0:0:
256,192,89202,1,4,0:0:0:0:
256,192,89502,1,0,0:0:0:0:
256,192,89577,1,0,0:0:0:0:
256,192,89652,1,0,0:0:0:0:
256,192,89727,1,0,0:0:0:0:
256,192,89802,1,12,0:0:0:0:
256,192,89952,1,8,0:0:0:0:
256,192,90102,1,4,0:0:0:0:
256,192,90252,1,0,0:0:0:0:
256,192,90327,1,0,0:0:0:0:
256,192,90402,1,8,0:0:0:0:
256,192,90552,1,0,0:0:0:0:
256,192,90702,1,0,0:0:0:0:
256,192,90777,1,8,0:0:0:0:
256,192,90852,1,8,0:0:0:0:
256,192,91002,1,8,0:0:0:0:
256,192,91152,1,8,0:0:0:0:
256,192,91227,1,8,0:0:0:0:
256,192,91302,5,4,0:0:0:0:
256,192,91602,1,0,0:0:0:0:
256,192,91752,1,8,0:0:0:0:
256,192,91902,1,0,0:0:0:0:
256,192,92052,1,8,0:0:0:0:
256,192,92202,1,8,0:0:0:0:
256,192,92352,1,0,0:0:0:0:
256,192,92502,1,8,0:0:0:0:
256,192,92652,1,8,0:0:0:0:
256,192,92802,1,0,0:0:0:0:
256,192,92952,1,0,0:0:0:0:
256,192,93102,1,8,0:0:0:0:
256,192,93402,1,0,0:0:0:0:
256,192,93702,1,12,0:0:0:0:
256,192,93852,1,0,0:0:0:0:
256,192,94002,1,8,0:0:0:0:
256,192,94152,1,8,0:0:0:0:
256,192,94302,1,0,0:0:0:0:
256,192,94452,1,0,0:0:0:0:
256,192,94602,1,8,0:0:0:0:
256,192,94752,1,0,0:0:0:0:
256,192,95052,1,8,0:0:0:0:
256,192,95127,1,8,0:0:0:0:
256,192,95202,1,0,0:0:0:0:
256,192,95352,1,8,0:0:0:0:
256,192,95502,1,0,0:0:0:0:
256,192,95802,1,0,0:0:0:0:
256,192,95877,1,0,0:0:0:0:
256,192,95952,1,8,0:0:0:0:
256,192,96102,1,4,0:0:0:0:
256,192,96402,1,0,0:0:0:0:
256,192,96552,1,8,0:0:0:0:
256,192,96702,1,0,0:0:0:0:
256,192,96852,1,8,0:0:0:0:
256,192,97002,1,8,0:0:0:0:
256,192,97152,1,0,0:0:0:0:
256,192,97302,1,8,0:0:0:0:
256,192,97452,1,0,0:0:0:0:
256,192,97602,1,8,0:0:0:0:
256,192,97752,1,8,0:0:0:0:
256,192,97902,1,0,0:0:0:0:
256,192,98202,1,8,0:0:0:0:
256,192,98502,1,4,0:0:0:0:
256,192,98802,1,8,0:0:0:0:
256,192,99102,1,0,0:0:0:0:
256,192,99402,1,8,0:0:0:0:
256,192,99702,1,12,0:0:0:0:
256,192,99927,1,8,0:0:0:0:
256,192,100002,1,0,0:0:0:0:
256,192,100152,1,8,0:0:0:0:
256,192,100302,1,0,0:0:0:0:
256,192,100377,1,8,0:0:0:0:
256,192,100452,1,8,0:0:0:0:
256,192,100527,1,8,0:0:0:0:
256,192,100602,1,0,0:0:0:0:
256,192,100752,1,8,0:0:0:0:
256,192,100902,1,4,0:0:0:0:
256,192,101202,1,12,0:0:0:0:
256,192,101502,1,4,0:0:0:0:
256,192,101652,1,4,0:0:0:0:
256,192,101802,1,12,0:0:0:0:
256,192,102852,1,0,0:0:0:0:
256,192,102927,1,0,0:0:0:0:
256,192,103002,1,8,0:0:0:0:
256,192,103302,5,12,0:0:0:0:
256,192,103452,1,0,0:0:0:0:
256,192,103527,1,0,0:0:0:0:
256,192,103602,1,0,0:0:0:0:
256,192,103752,1,8,0:0:0:0:
256,192,103902,1,0,0:0:0:0:
256,192,103977,1,0,0:0:0:0:
256,192,104052,1,8,0:0:0:0:
256,192,104127,1,8,0:0:0:0:
256,192,104202,1,0,0:0:0:0:
256,192,104352,1,8,0:0:0:0:
256,192,104502,1,0,0:0:0:0:
256,192,104652,1,8,0:0:0:0:
256,192,104727,1,8,0:0:0:0:
256,192,104802,1,0,0:0:0:0:
256,192,104952,1,8,0:0:0:0:
256,192,105102,1,0,0:0:0:0:
256,192,105177,1,0,0:0:0:0:
256,192,105252,1,8,0:0:0:0:
256,192,105327,1,0,0:0:0:0:
256,192,105402,1,8,0:0:0:0:
256,192,105552,1,8,0:0:0:0:
256,192,105702,1,0,0:0:0:0:
256,192,105852,1,8,0:0:0:0:
256,192,106002,1,0,0:0:0:0:
256,192,106077,1,0,0:0:0:0:
256,192,106152,1,8,0:0:0:0:
256,192,106302,1,0,0:0:0:0:
256,192,106452,1,8,0:0:0:0:
256,192,106527,1,8,0:0:0:0:
256,192,106602,1,0,0:0:0:0:
256,192,106677,1,0,0:0:0:0:
256,192,106752,1,8,0:0:0:0:
256,192,106902,1,8,0:0:0:0:
256,192,107052,1,0,0:0:0:0:
256,192,107127,1,0,0:0:0:0:
256,192,107202,1,8,0:0:0:0:
256,192,107277,1,8,0:0:0:0:
256,192,107352,1,0,0:0:0:0:
256,192,107502,1,8,0:0:0:0:
256,192,107802,1,0,0:0:0:0:
256,192,107877,1,0,0:0:0:0:
256,192,107952,1,0,0:0:0:0:
256,192,108027,1,0,0:0:0:0:
256,192,108102,1,12,0:0:0:0:
256,192,108402,1,0,0:0:0:0:
256,192,108552,1,8,0:0:0:0:
256,192,108702,1,0,0:0:0:0:
256,192,108777,1,0,0:0:0:0:
256,192,108852,1,8,0:0:0:0:
256,192,109002,1,0,0:0:0:0:
256,192,109152,1,8,0:0:0:0:
256,192,109227,1,0,0:0:0:0:
256,192,109302,1,0,0:0:0:0:
256,192,109452,1,8,0:0:0:0:
256,192,109602,1,8,0:0:0:0:
256,192,109677,1,8,0:0:0:0:
256,192,109752,1,0,0:0:0:0:
256,192,109902,1,0,0:0:0:0:
256,192,110202,1,0,0:0:0:0:
256,192,110352,1,0,0:0:0:0:
256,192,110502,1,12,0:0:0:0:
256,192,110652,1,8,0:0:0:0:
256,192,110802,1,0,0:0:0:0:
256,192,110877,1,0,0:0:0:0:
256,192,110952,1,8,0:0:0:0:
256,192,111102,1,0,0:0:0:0:
256,192,111252,1,8,0:0:0:0:
256,192,111327,1,8,0:0:0:0:
256,192,111402,1,0,0:0:0:0:
256,192,111477,1,8,0:0:0:0:
256,192,111552,1,0,0:0:0:0:
256,192,111702,1,4,0:0:0:0:
256,192,111852,1,0,0:0:0:0:
256,192,112002,1,12,0:0:0:0:
256,192,112152,1,8,0:0:0:0:
256,192,112302,1,0,0:0:0:0:
256,192,112452,1,0,0:0:0:0:
256,192,112527,1,0,0:0:0:0:
256,192,112602,1,8,0:0:0:0:
256,192,112677,1,8,0:0:0:0:
256,192,112752,1,0,0:0:0:0:
256,192,112902,1,12,0:0:0:0:
256,192,113052,1,0,0:0:0:0:
256,192,113127,1,0,0:0:0:0:
256,192,113202,1,8,0:0:0:0:
256,192,113352,1,0,0:0:0:0:
256,192,113502,1,8,0:0:0:0:
256,192,113577,1,8,0:0:0:0:
256,192,113652,1,0,0:0:0:0:
256,192,113727,1,0,0:0:0:0:
256,192,113802,1,8,0:0:0:0:
256,192,113952,1,8,0:0:0:0:
256,192,114102,1,0,0:0:0:0:
256,192,114252,1,8,0:0:0:0:
256,192,114327,1,0,0:0:0:0:
256,192,114402,1,8,0:0:0:0:
256,192,114552,1,0,0:0:0:0:
256,192,114702,1,8,0:0:0:0:
256,192,114777,1,0,0:0:0:0:
256,192,114852,1,0,0:0:0:0:
256,192,114927,1,0,0:0:0:0:
256,192,115002,1,8,0:0:0:0:
256,192,115152,1,8,0:0:0:0:
256,192,115302,1,4,0:0:0:0:
256,192,115602,1,8,0:0:0:0:
256,192,115752,1,0,0:0:0:0:
256,192,115902,1,12,0:0:0:0:
256,192,116202,1,0,0:0:0:0:
256,192,116352,1,8,0:0:0:0:
256,192,116502,1,4,0:0:0:0:
256,192,116652,1,0,0:0:0:0:
256,192,116802,1,12,0:0:0:0:
256,192,116952,1,8,0:0:0:0:
256,192,117102,1,0,0:0:0:0:
256,192,117402,1,12,0:0:0:0:
256,192,117552,1,8,0:0:0:0:
256,192,117627,1,8,0:0:0:0:
256,192,117702,1,4,0:0:0:0:
256,192,118152,1,0,0:0:0:0:
256,192,118302,1,8,0:0:0:0:
256,192,118902,1,12,0:0:0:0:
256,192,119202,1,0,0:0:0:0:
256,192,119502,1,8,0:0:0:0:
256,192,119802,1,0,0:0:0:0:
256,192,119952,1,8,0:0:0:0:
256,192,120102,1,4,0:0:0:0:
256,192,120252,1,4,0:0:0:0:
256,192,120402,1,12,0:0:0:0:
256,192,120702,1,4,0:0:0:0:
256,192,120852,1,12,0:0:0:0:
256,192,121152,1,4,0:0:0:0:
256,192,121452,1,12,0:0:0:0:
256,192,121752,1,4,0:0:0:0:
256,192,121902,1,4,0:0:0:0:
256,192,122202,1,8,0:0:0:0:
256,192,122277,1,8,0:0:0:0:
256,192,122352,1,8,0:0:0:0:
256,192,122427,1,8,0:0:0:0:
256,192,122502,1,8,0:0:0:0:
256,192,122802,1,12,0:0:0:0:
256,192,123102,1,4,0:0:0:0:
256,192,123402,1,8,0:0:0:0:
256,192,123477,1,8,0:0:0:0:
256,192,123552,1,8,0:0:0:0:
256,192,123627,1,8,0:0:0:0:
256,192,123702,1,4,0:0:0:0:
256,192,124002,1,12,0:0:0:0:
256,192,124302,1,4,0:0:0:0:
256,192,124902,5,12,0:0:0:0:
256,192,125296,1,0,0:0:0:0:
256,192,125494,1,8,0:0:0:0:
256,192,125691,1,0,0:0:0:0:
256,192,125790,1,0,0:0:0:0:
256,192,125888,1,8,0:0:0:0:
256,192,125987,1,8,0:0:0:0:
256,192,126086,1,0,0:0:0:0:
256,192,126283,1,0,0:0:0:0:
256,192,126480,1,8,0:0:0:0:
256,192,126875,1,0,0:0:0:0:
256,192,127073,1,8,0:0:0:0:
256,192,127270,1,8,0:0:0:0:
256,192,127369,1,8,0:0:0:0:
256,192,127467,1,0,0:0:0:0:
256,192,127566,1,0,0:0:0:0:
256,192,127665,1,8,0:0:0:0:
256,192,127862,1,0,0:0:0:0:
256,192,128059,1,8,0:0:0:0:
256,192,128454,1,0,0:0:0:0:
256,192,128652,1,8,0:0:0:0:
256,192,128849,1,0,0:0:0:0:
256,192,128948,1,0,0:0:0:0:
256,192,129046,1,8,0:0:0:0:
256,192,129145,1,8,0:0:0:0:
256,192,129244,1,0,0:0:0:0:
256,192,129441,1,0,0:0:0:0:
256,192,129638,1,8,0:0:0:0:
256,192,130033,1,0,0:0:0:0:
256,192,130230,1,8,0:0:0:0:
256,192,130428,1,8,0:0:0:0:
256,192,130527,1,8,0:0:0:0:
256,192,130625,1,8,0:0:0:0:
256,192,130724,1,8,0:0:0:0:
256,192,130823,1,0,0:0:0:0:
256,192,131217,1,12,0:0:0:0:
256,192,131612,1,0,0:0:0:0:
256,192,131809,1,8,0:0:0:0:
256,192,132007,1,8,0:0:0:0:
256,192,132105,1,0,0:0:0:0:
256,192,132204,1,8,0:0:0:0:
256,192,132303,1,8,0:0:0:0:
256,192,132402,1,0,0:0:0:0:
256,192,132599,1,0,0:0:0:0:
256,192,132796,1,8,0:0:0:0:
256,192,133191,1,0,0:0:0:0:
256,192,133388,1,8,0:0:0:0:
256,192,133586,1,0,0:0:0:0:
256,192,133684,1,8,0:0:0:0:
256,192,133783,1,0,0:0:0:0:
256,192,133882,1,0,0:0:0:0:
256,192,133980,1,8,0:0:0:0:
256,192,134178,1,0,0:0:0:0:
256,192,134375,1,8,0:0:0:0:
256,192,134770,1,0,0:0:0:0:
256,192,134967,1,8,0:0:0:0:
256,192,135165,1,8,0:0:0:0:
256,192,135263,1,0,0:0:0:0:
256,192,135362,1,8,0:0:0:0:
256,192,135461,1,8,0:0:0:0:
256,192,135559,1,0,0:0:0:0:
256,192,135757,1,0,0:0:0:0:
256,192,135954,1,8,0:0:0:0:
256,192,136349,1,0,0:0:0:0:
256,192,136546,1,8,0:0:0:0:
256,192,136744,1,0,0:0:0:0:
256,192,136842,1,8,0:0:0:0:
256,192,136941,1,8,0:0:0:0:
256,192,137040,1,0,0:0:0:0:
256,192,137138,1,8,0:0:0:0:
256,192,137336,1,0,0:0:0:0:
256,192,137533,5,12,0:0:0:0:
256,192,137928,1,8,0:0:0:0:
256,192,138125,1,0,0:0:0:0:
256,192,138224,1,0,0:0:0:0:
256,192,138323,1,0,0:0:0:0:
256,192,138520,1,0,0:0:0:0:
256,192,138717,1,8,0:0:0:0:
256,192,138816,1,8,0:0:0:0:
256,192,138915,1,0,0:0:0:0:
256,192,139112,1,8,0:0:0:0:
256,192,139211,1,0,0:0:0:0:
256,192,139309,1,0,0:0:0:0:
256,192,139408,1,0,0:0:0:0:
256,192,139507,1,8,0:0:0:0:
256,192,139704,1,0,0:0:0:0:
256,192,140099,1,0,0:0:0:0:
256,192,140296,1,8,0:0:0:0:
256,192,140395,1,8,0:0:0:0:
256,192,140494,1,0,0:0:0:0:
256,192,140691,1,8,0:0:0:0:
256,192,140987,1,8,0:0:0:0:
256,192,141086,1,0,0:0:0:0:
256,192,141283,1,8,0:0:0:0:
256,192,141480,1,0,0:0:0:0:
256,192,141579,1,0,0:0:0:0:
256,192,141678,1,0,0:0:0:0:
256,192,141875,1,8,0:0:0:0:
256,192,142073,1,0,0:0:0:0:
256,192,142270,1,8,0:0:0:0:
256,192,142467,1,8,0:0:0:0:
256,192,142566,1,0,0:0:0:0:
256,192,142665,1,8,0:0:0:0:
256,192,142763,1,0,0:0:0:0:
256,192,142862,1,0,0:0:0:0:
256,192,143257,1,8,0:0:0:0:
256,192,143355,1,0,0:0:0:0:
256,192,143454,1,8,0:0:0:0:
256,192,143553,1,8,0:0:0:0:
256,192,143652,1,0,0:0:0:0:
256,192,143849,1,12,0:0:0:0:
256,192,144244,1,0,0:0:0:0:
256,192,144441,1,8,0:0:0:0:
256,192,144638,1,8,0:0:0:0:
256,192,144836,1,0,0:0:0:0:
256,192,144934,1,0,0:0:0:0:
256,192,145033,1,8,0:0:0:0:
256,192,145132,1,8,0:0:0:0:
256,192,145230,1,0,0:0:0:0:
256,192,145428,1,8,0:0:0:0:
256,192,145823,1,8,0:0:0:0:
256,192,146020,1,0,0:0:0:0:
256,192,146217,1,8,0:0:0:0:
256,192,146316,1,8,0:0:0:0:
256,192,146415,1,0,0:0:0:0:
256,192,146612,1,8,0:0:0:0:
256,192,147007,1,0,0:0:0:0:
256,192,147303,1,0,0:0:0:0:
256,192,147402,1,8,0:0:0:0:
256,192,147599,1,0,0:0:0:0:
256,192,147796,1,0,0:0:0:0:
256,192,147895,1,0,0:0:0:0:
256,192,147994,1,8,0:0:0:0:
256,192,148092,1,0,0:0:0:0:
256,192,148191,1,8,0:0:0:0:
256,192,148388,1,0,0:0:0:0:
256,192,148783,1,0,0:0:0:0:
256,192,148980,1,8,0:0:0:0:
256,192,149178,1,0,0:0:0:0:
256,192,149277,1,8,0:0:0:0:
256,192,149375,1,8,0:0:0:0:
256,192,149573,1,0,0:0:0:0:
256,192,149671,1,0,0:0:0:0:
256,192,149770,1,8,0:0:0:0:
256,192,149967,1,0,0:0:0:0:
256,192,150165,5,12,0:0:0:0:
256,192,150461,1,0,0:0:0:0:
256,192,150559,1,8,0:0:0:0:
256,192,150757,1,8,0:0:0:0:
256,192,150855,1,0,0:0:0:0:
256,192,150954,1,8,0:0:0:0:
256,192,151152,1,0,0:0:0:0:
256,192,151250,1,0,0:0:0:0:
256,192,151349,1,8,0:0:0:0:
256,192,151546,1,0,0:0:0:0:
256,192,151744,1,8,0:0:0:0:
256,192,151842,1,8,0:0:0:0:
256,192,151941,1,0,0:0:0:0:
256,192,152040,1,8,0:0:0:0:
256,192,152138,1,0,0:0:0:0:
256,192,152336,1,8,0:0:0:0:
256,192,152730,1,0,0:0:0:0:
256,192,152928,1,8,0:0:0:0:
256,192,153125,1,0,0:0:0:0:
256,192,153323,1,8,0:0:0:0:
256,192,153717,1,0,0:0:0:0:
256,192,153915,1,8,0:0:0:0:
256,192,154112,1,0,0:0:0:0:
256,192,154211,1,0,0:0:0:0:
256,192,154309,1,0,0:0:0:0:
256,192,154507,1,8,0:0:0:0:
256,192,154704,1,0,0:0:0:0:
256,192,154902,1,0,0:0:0:0:
256,192,155000,1,0,0:0:0:0:
256,192,155099,1,8,0:0:0:0:
256,192,155198,1,0,0:0:0:0:
256,192,155296,1,8,0:0:0:0:
256,192,155494,1,0,0:0:0:0:
256,192,155888,1,0,0:0:0:0:
256,192,156086,1,8,0:0:0:0:
256,192,156283,1,0,0:0:0:0:
256,192,156480,1,12,0:0:0:0:
256,192,156777,1,0,0:0:0:0:
256,192,156875,1,8,0:0:0:0:
256,192,157073,1,0,0:0:0:0:
256,192,157270,1,8,0:0:0:0:
256,192,157369,1,8,0:0:0:0:
256,192,157467,1,0,0:0:0:0:
256,192,157665,1,8,0:0:0:0:
256,192,157862,1,0,0:0:0:0:
256,192,157961,1,0,0:0:0:0:
256,192,158059,1,8,0:0:0:0:
256,192,158257,1,0,0:0:0:0:
256,192,158454,1,0,0:0:0:0:
256,192,158553,1,0,0:0:0:0:
256,192,158652,1,8,0:0:0:0:
256,192,158750,1,8,0:0:0:0:
256,192,158849,1,0,0:0:0:0:
256,192,159046,1,8,0:0:0:0:
256,192,159244,1,0,0:0:0:0:
256,192,159441,1,8,0:0:0:0:
256,192,159638,1,8,0:0:0:0:
256,192,160033,1,0,0:0:0:0:
256,192,160230,1,8,0:0:0:0:
256,192,160329,1,0,0:0:0:0:
256,192,160428,1,0,0:0:0:0:
256,192,160625,1,8,0:0:0:0:
256,192,160823,1,8,0:0:0:0:
256,192,160921,1,8,0:0:0:0:
256,192,161020,1,0,0:0:0:0:
256,192,161217,1,12,0:0:0:0:
256,192,161612,1,8,0:0:0:0:
256,192,161809,1,0,0:0:0:0:
256,192,162007,1,12,0:0:0:0:
256,192,162402,1,0,0:0:0:0:
256,192,162599,1,8,0:0:0:0:
256,192,162796,5,4,0:0:0:0:
256,192,163096,1,8,0:0:0:0:
256,192,163396,1,0,0:0:0:0:
256,192,163546,1,8,0:0:0:0:
256,192,163621,1,8,0:0:0:0:
256,192,163696,1,0,0:0:0:0:
256,192,163846,1,8,0:0:0:0:
256,192,163996,1,4,0:0:0:0:
256,192,164296,1,12,0:0:0:0:
256,192,164596,1,4,0:0:0:0:
256,192,164896,1,12,0:0:0:0:
256,192,165196,1,4,0:0:0:0:
256,192,165496,1,8,0:0:0:0:
256,192,165796,1,0,0:0:0:0:
256,192,165946,1,8,0:0:0:0:
256,192,166021,1,8,0:0:0:0:
256,192,166096,1,0,0:0:0:0:
256,192,166246,1,8,0:0:0:0:
256,192,166396,1,4,0:0:0:0:
256,192,166696,1,12,0:0:0:0:
256,192,166996,1,4,0:0:0:0:
256,192,167296,1,12,0:0:0:0:
256,192,167596,1,4,0:0:0:0:
256,192,167896,1,8,0:0:0:0:
256,192,168196,1,0,0:0:0:0:
256,192,168346,1,8,0:0:0:0:
256,192,168421,1,8,0:0:0:0:
256,192,168496,1,0,0:0:0:0:
256,192,168646,1,8,0:0:0:0:
256,192,168796,1,4,0:0:0:0:
256,192,169096,1,12,0:0:0:0:
256,192,169396,1,4,0:0:0:0:
256,192,169696,1,12,0:0:0:0:
256,192,169996,1,12,0:0:0:0:
256,192,170296,1,0,0:0:0:0:
256,192,170446,1,0,0:0:0:0:
256,192,170596,1,8,0:0:0:0:
256,192,170671,1,8,0:0:0:0:
256,192,170746,1,0,0:0:0:0:
256,192,170821,1,0,0:0:0:0:
256,192,170896,1,8,0:0:0:0:
256,192,171046,1,0,0:0:0:0:
256,192,171196,1,12,0:0:0:0:
256,192,171496,1,4,0:0:0:0:
256,192,171796,1,12,0:0:0:0:
256,192,172096,1,4,0:0:0:0:
256,192,172396,1,12,0:0:0:0:
256,192,172996,1,8,0:0:0:0:
256,192,173746,1,8,0:0:0:0:
256,192,173896,1,0,0:0:0:0:
256,192,174046,1,0,0:0:0:0:
256,192,174196,1,8,0:0:0:0:
256,192,174496,1,8,0:0:0:0:
256,192,174571,1,8,0:0:0:0:
256,192,174646,1,0,0:0:0:0:
256,192,174796,5,12,0:0:0:0:
256,192,174946,1,0,0:0:0:0:
256,192,175021,1,8,0:0:0:0:
256,192,175096,1,0,0:0:0:0:
256,192,175246,1,8,0:0:0:0:
256,192,175396,1,0,0:0:0:0:
256,192,175471,1,8,0:0:0:0:
256,192,175546,1,8,0:0:0:0:
256,192,175621,1,0,0:0:0:0:
256,192,175696,1,8,0:0:0:0:
256,192,175846,1,0,0:0:0:0:
256,192,175996,1,8,0:0:0:0:
256,192,176071,1,0,0:0:0:0:
256,192,176146,1,8,0:0:0:0:
256,192,176221,1,8,0:0:0:0:
256,192,176296,1,0,0:0:0:0:
256,192,176446,1,0,0:0:0:0:
256,192,176596,1,8,0:0:0:0:
256,192,176896,1,0,0:0:0:0:
256,192,176971,1,0,0:0:0:0:
256,192,177046,1,0,0:0:0:0:
256,192,177121,1,0,0:0:0:0:
256,192,177196,1,12,0:0:0:0:
256,192,177496,1,0,0:0:0:0:
256,192,177646,1,8,0:0:0:0:
256,192,177721,1,0,0:0:0:0:
256,192,177796,1,0,0:0:0:0:
256,192,177946,1,8,0:0:0:0:
256,192,178096,1,0,0:0:0:0:
256,192,178171,1,0,0:0:0:0:
256,192,178246,1,8,0:0:0:0:
256,192,178321,1,0,0:0:0:0:
256,192,178396,1,0,0:0:0:0:
256,192,178546,1,8,0:0:0:0:
256,192,178621,1,8,0:0:0:0:
256,192,178696,1,0,0:0:0:0:
256,192,178771,1,0,0:0:0:0:
256,192,178846,1,8,0:0:0:0:
256,192,178996,1,0,0:0:0:0:
256,192,179296,1,0,0:0:0:0:
256,192,179446,1,0,0:0:0:0:
256,192,179596,1,12,0:0:0:0:
256,192,179746,1,0,0:0:0:0:
256,192,179821,1,0,0:0:0:0:
256,192,179896,1,8,0:0:0:0:
256,192,179971,1,0,0:0:0:0:
256,192,180046,1,8,0:0:0:0:
256,192,180196,1,0,0:0:0:0:
256,192,180346,1,8,0:0:0:0:
256,192,180496,1,0,0:0:0:0:
256,192,180571,1,0,0:0:0:0:
256,192,180646,1,8,0:0:0:0:
256,192,180721,1,8,0:0:0:0:
256,192,180796,1,4,0:0:0:0:
256,192,180946,1,0,0:0:0:0:
256,192,181096,1,12,0:0:0:0:
256,192,181246,1,8,0:0:0:0:
256,192,181396,1,0,0:0:0:0:
256,192,181546,1,8,0:0:0:0:
256,192,181621,1,0,0:0:0:0:
256,192,181696,1,8,0:0:0:0:
256,192,181771,1,8,0:0:0:0:
256,192,181846,1,0,0:0:0:0:
256,192,181996,1,12,0:0:0:0:
256,192,182146,1,0,0:0:0:0:
256,192,182221,1,0,0:0:0:0:
256,192,182296,1,8,0:0:0:0:
256,192,182446,1,8,0:0:0:0:
256,192,182596,1,0,0:0:0:0:
256,192,182671,1,0,0:0:0:0:
256,192,182746,1,8,0:0:0:0:
256,192,182821,1,0,0:0:0:0:
256,192,182896,1,8,0:0:0:0:
256,192,183046,1,8,0:0:0:0:
256,192,183196,1,0,0:0:0:0:
256,192,183346,1,0,0:0:0:0:
256,192,183421,1,0,0:0:0:0:
256,192,183496,1,8,0:0:0:0:
256,192,183646,1,0,0:0:0:0:
256,192,183796,1,8,0:0:0:0:
256,192,183871,1,8,0:0:0:0:
256,192,183946,1,0,0:0:0:0:
256,192,184021,1,0,0:0:0:0:
256,192,184096,1,8,0:0:0:0:
256,192,184246,1,8,0:0:0:0:
256,192,184396,1,4,0:0:0:0:
256,192,184696,1,0,0:0:0:0:
256,192,184846,1,0,0:0:0:0:
256,192,184996,1,12,0:0:0:0:
256,192,185296,1,0,0:0:0:0:
256,192,185446,1,8,0:0:0:0:
256,192,185596,1,4,0:0:0:0:
256,192,185746,1,8,0:0:0:0:
256,192,185896,1,12,0:0:0:0:
256,192,186046,1,0,0:0:0:0:
256,192,186196,1,8,0:0:0:0:
256,192,186496,1,12,0:0:0:0:
256,192,186646,1,0,0:0:0:0:
256,192,186796,1,4,0:0:0:0:
256,192,187246,1,0,0:0:0:0:
256,192,187396,1,8,0:0:0:0:
256,192,187996,1,12,0:0:0:0:
256,192,188296,1,0,0:0:0:0:
256,192,188596,1,8,0:0:0:0:
256,192,188896,1,0,0:0:0:0:
256,192,189046,1,8,0:0:0:0:
256,192,189196,1,4,0:0:0:0:
256,192,189346,12,0,190996,0:0:0:0:
256,192,191146,5,0,0:0:0:0:
256,192,191296,1,8,0:0:0:0:
256,192,191596,5,4,0:0:0:0:
256,192,191896,1,0,0:0:0:0:
256,192,192046,1,0,0:0:0:0:
256,192,192121,1,0,0:0:0:0:
256,192,192196,1,8,0:0:0:0:
256,192,192271,1,8,0:0:0:0:
256,192,192346,1,0,0:0:0:0:
256,192,192496,1,8,0:0:0:0:
256,192,192571,1,8,0:0:0:0:
256,192,192646,1,0,0:0:0:0:
256,192,192796,1,4,0:0:0:0:
256,192,193096,1,0,0:0:0:0:
256,192,193171,1,0,0:0:0:0:
256,192,193246,1,8,0:0:0:0:
256,192,193321,1,0,0:0:0:0:
256,192,193396,1,8,0:0:0:0:
256,192,193546,1,0,0:0:0:0:
256,192,193696,1,8,0:0:0:0:
256,192,193771,1,0,0:0:0:0:
256,192,193846,1,8,0:0:0:0:
256,192,193996,1,4,0:0:0:0:
256,192,194296,1,8,0:0:0:0:
256,192,194371,1,8,0:0:0:0:
256,192,194446,1,0,0:0:0:0:
256,192,194521,1,8,0:0:0:0:
256,192,194596,1,0,0:0:0:0:
256,192,194746,1,8,0:0:0:0:
256,192,194896,1,0,0:0:0:0:
256,192,194971,1,8,0:0:0:0:
256,192,195046,1,0,0:0:0:0:
256,192,195196,1,12,0:0:0:0:
256,192,195496,1,0,0:0:0:0:
256,192,195571,1,0,0:0:0:0:
256,192,195646,1,8,0:0:0:0:
256,192,195796,1,0,0:0:0:0:
256,192,195871,1,0,0:0:0:0:
256,192,195946,1,0,0:0:0:0:
256,192,196021,1,0,0:0:0:0:
256,192,196096,1,8,0:0:0:0:
256,192,196246,1,8,0:0:0:0:
256,192,196321,1,8,0:0:0:0:
256,192,196396,1,4,0:0:0:0:
256,192,196696,1,0,0:0:0:0:
256,192,196846,1,8,0:0:0:0:
256,192,196921,1,8,0:0:0:0:
256,192,196996,1,0,0:0:0:0:
256,192,197071,1,0,0:0:0:0:
256,192,197146,1,8,0:0:0:0:
256,192,197296,1,8,0:0:0:0:
256,192,197371,1,8,0:0:0:0:
256,192,197446,1,0,0:0:0:0:
256,192,197596,1,4,0:0:0:0:
256,192,197896,1,0,0:0:0:0:
256,192,197971,1,0,0:0:0:0:
256,192,198046,1,8,0:0:0:0:
256,192,198121,1,0,0:0:0:0:
256,192,198196,1,8,0:0:0:0:
256,192,198346,1,0,0:0:0:0:
256,192,198496,1,8,0:0:0:0:
256,192,198571,1,0,0:0:0:0:
256,192,198646,1,8,0:0:0:0:
256,192,198796,1,4,0:0:0:0:
256,192,199096,1,8,0:0:0:0:
256,192,199171,1,8,0:0:0:0:
256,192,199246,1,0,0:0:0:0:
256,192,199321,1,8,0:0:0:0:
256,192,199396,1,0,0:0:0:0:
256,192,199546,1,8,0:0:0:0:
256,192,199696,1,0,0:0:0:0:
256,192,199771,1,8,0:0:0:0:
256,192,199846,1,0,0:0:0:0:
256,192,199996,1,12,0:0:0:0:
256,192,200296,1,0,0:0:0:0:
256,192,200371,1,0,0:0:0:0:
256,192,200446,1,8,0:0:0:0:
256,192,200521,1,8,0:0:0:0:
256,192,200596,1,0,0:0:0:0:
256,192,200746,1,8,0:0:0:0:
256,192,200821,1,8,0:0:0:0:
256,192,200896,1,0,0:0:0:0:
256,192,200971,1,0,0:0:0:0:
256,192,201046,1,8,0:0:0:0:
256,192,201196,1,12,0:0:0:0:
256,192,201496,1,4,0:0:0:0:
256,192,201796,1,12,0:0:0:0:
256,192,202096,1,4,0:0:0:0:
256,192,202396,1,12,0:0:0:0:
256,192,202696,1,4,0:0:0:0:
256,192,202996,1,12,0:0:0:0:
256,192,203296,1,4,0:0:0:0:
