osu file format v14

[General]
AudioFilename: audio.mp3
AudioLeadIn: 0
PreviewTime: 40852
Countdown: 0
SampleSet: Normal
StackLeniency: 0.7
Mode: 1
LetterboxInBreaks: 0
WidescreenStoryboard: 1

[Editor]
Bookmarks: 1552,12052,31252,43252,62452,74452,91252,103252,124852,137483,162746,191546
DistanceSpacing: 0.6
BeatDivisor: 4
GridSize: 32
TimelineZoom: 2.899999

[Metadata]
Title:Hello Dystopia
TitleUnicode:ハローディストピア
Artist:mafumafu
ArtistUnicode:まふまふ
Creator:JarvisGaming
Version:Capu's Muzukashii
Source:
Tags:electronic pop jpop j-pop 歌ってみた utattemita self cover vocaloid 鏡音 リン レン kagamine rin len skull_kid callmelyra capu jaltzu japanese イザナワレトラベラー After the Rain distopia skid
BeatmapID:2522094
BeatmapSetID:809048

[Difficulty]
HPDrainRate:5
CircleSize:2
OverallDifficulty:5
ApproachRate:10
SliderMultiplier:1.4
SliderTickRate:1

[Events]
//Background and Video events
0,0,"BG.jpg",0,100
//Break Periods
2,72302,80052
2,172596,174346
//Storyboard Layer 0 (Background)
//Storyboard Layer 1 (Fail)
//Storyboard Layer 2 (Pass)
//Storyboard Layer 3 (Foreground)
//Storyboard Layer 4 (Overlay)
//Storyboard Sound Samples

[TimingPoints]
102,300,4,1,0,40,1,0
2427,-100,4,1,0,90,0,0
12027,-100,4,1,0,55,0,0
20427,-100,4,1,0,80,0,0
31377,-100,4,1,0,50,0,0
42777,-100,4,1,0,65,0,0
43227,-100,4,1,0,85,0,0
43302,-100,4,1,0,90,0,1
62202,-100,4,1,0,90,0,0
72402,-100,4,1,0,15,0,0
74427,-100,4,1,0,20,0,0
75627,-100,4,1,0,25,0,0
76827,-100,4,1,0,35,0,0
78027,-100,4,1,0,45,0,0
79227,-100,4,1,0,60,0,0
80427,-100,4,1,0,80,0,0
91302,-100,4,1,0,50,0,0
102702,-100,4,1,0,65,0,0
103302,-100,4,1,0,90,0,1
120102,-100,4,1,0,90,0,0
124902,394.736842105263,4,1,0,80,1,0
162796,300,4,1,0,80,1,0
172696,-100,4,1,0,60,0,0
174721,-100,4,1,0,90,0,0
174796,-100,4,1,0,90,0,1
191296,-100,4,1,0,90,0,0

[HitObjects]
272,192,2502,5,4,0:0:0:0:
272,192,2802,1,0,0:0:0:0:
272,192,2952,1,8,0:0:0:0:
272,192,3027,1,8,0:0:0:0:
272,192,3102,1,8,0:0:0:0:
272,192,3252,1,0,0:0:0:0:
272,192,3402,1,0,0:0:0:0:
272,192,3552,1,8,0:0:0:0:
256,192,4002,1,0,0:0:0:0:
256,192,4077,1,0,0:0:0:0:
256,192,4152,1,0,0:0:0:0:
256,192,4302,1,8,0:0:0:0:
256,192,4452,1,8,0:0:0:0:
256,192,4602,1,0,0:0:0:0:
256,192,4752,1,8,0:0:0:0:
256,192,4902,1,0,0:0:0:0:
256,192,5202,1,8,0:0:0:0:
256,192,5352,1,0,0:0:0:0:
256,192,5502,1,0,0:0:0:0:
256,192,5652,1,8,0:0:0:0:
256,192,5802,1,0,0:0:0:0:
256,192,5952,1,8,0:0:0:0:
256,192,6102,1,12,0:0:0:0:
256,192,6402,1,12,0:0:0:0:
256,192,6702,1,4,0:0:0:0:
256,192,7002,1,4,0:0:0:0:
256,192,7302,1,12,0:0:0:0:
272,192,7602,1,0,0:0:0:0:
272,192,7752,1,8,0:0:0:0:
272,192,7827,1,8,0:0:0:0:
272,192,7902,1,8,0:0:0:0:
272,192,8052,1,0,0:0:0:0:
272,192,8202,1,0,0:0:0:0:
272,192,8352,1,8,0:0:0:0:
256,192,8802,1,0,0:0:0:0:
256,192,8877,1,0,0:0:0:0:
256,192,8952,1,0,0:0:0:0:
256,192,9102,1,8,0:0:0:0:
256,192,9252,1,8,0:0:0:0:
256,192,9402,1,0,0:0:0:0:
256,192,9552,1,8,0:0:0:0:
256,192,9702,1,0,0:0:0:0:
256,192,10002,1,8,0:0:0:0:
256,192,10152,1,0,0:0:0:0:
256,192,10302,1,0,0:0:0:0:
256,192,10452,1,8,0:0:0:0:
256,192,10602,1,0,0:0:0:0:
256,192,10752,1,8,0:0:0:0:
256,192,10902,1,12,0:0:0:0:
256,192,11202,1,0,0:0:0:0:
256,192,11352,1,8,0:0:0:0:
256,192,11427,1,8,0:0:0:0:
256,192,11502,1,8,0:0:0:0:
256,192,11802,1,0,0:0:0:0:
256,192,11952,1,0,0:0:0:0:
256,192,12102,1,12,0:0:0:0:
256,192,12402,1,8,0:0:0:0:
256,192,12602,1,8,0:0:0:0:
256,192,12702,1,0,0:0:0:0:
256,192,13002,1,8,0:0:0:0:
256,192,13302,1,0,0:0:0:0:
256,192,13452,1,0,0:0:0:0:
256,192,13602,1,8,0:0:0:0:
256,192,13752,1,8,0:0:0:0:
256,192,13902,1,0,0:0:0:0:
256,192,14502,1,8,0:0:0:0:
256,192,14802,1,8,0:0:0:0:
256,192,15002,1,0,0:0:0:0:
256,192,15102,1,8,0:0:0:0:
256,192,15402,1,8,0:0:0:0:
256,192,15702,1,8,0:0:0:0:
256,192,15852,1,8,0:0:0:0:
256,192,16002,1,0,0:0:0:0:
256,192,16152,1,8,0:0:0:0:
256,192,16302,1,0,0:0:0:0:
256,192,16902,1,8,0:0:0:0:
256,192,17202,1,0,0:0:0:0:
256,192,17352,1,0,0:0:0:0:
256,192,17502,1,8,0:0:0:0:
256,192,17802,1,0,0:0:0:0:
256,192,18102,1,8,0:0:0:0:
256,192,18252,1,8,0:0:0:0:
256,192,18402,1,0,0:0:0:0:
256,192,18552,1,0,0:0:0:0:
256,192,18702,1,8,0:0:0:0:
256,192,19302,1,8,0:0:0:0:
256,192,19602,1,0,0:0:0:0:
256,192,19902,1,0,0:0:0:0:
256,192,20202,1,8,0:0:0:0:
256,192,20502,1,4,0:0:0:0:
256,192,20652,1,8,0:0:0:0:
256,192,20802,1,8,0:0:0:0:
256,192,20952,1,0,0:0:0:0:
256,192,21102,1,8,0:0:0:0:
256,192,21327,1,0,0:0:0:0:
256,192,21402,1,8,0:0:0:0:
256,192,21552,1,8,0:0:0:0:
256,192,21702,1,4,0:0:0:0:
256,192,21852,1,0,0:0:0:0:
256,192,22002,1,8,0:0:0:0:
256,192,22302,1,0,0:0:0:0:
256,192,22452,1,0,0:0:0:0:
256,192,22602,1,8,0:0:0:0:
256,192,22902,1,8,0:0:0:0:
256,192,23052,1,0,0:0:0:0:
256,192,23127,1,0,0:0:0:0:
256,192,23202,1,0,0:0:0:0:
256,192,23352,1,8,0:0:0:0:
256,192,23502,1,0,0:0:0:0:
256,192,23652,1,0,0:0:0:0:
256,192,23802,1,8,0:0:0:0:
256,192,24102,1,0,0:0:0:0:
256,192,24252,1,8,0:0:0:0:
256,192,24402,1,0,0:0:0:0:
256,192,24702,1,8,0:0:0:0:
256,192,24852,1,8,0:0:0:0:
256,192,25002,1,0,0:0:0:0:
256,192,25152,1,0,0:0:0:0:
256,192,25302,1,8,0:0:0:0:
256,192,25377,1,8,0:0:0:0:
256,192,25452,1,8,0:0:0:0:
256,192,25602,1,0,0:0:0:0:
256,192,25752,1,0,0:0:0:0:
256,192,25902,1,8,0:0:0:0:
256,192,26502,1,12,0:0:0:0:
256,192,26652,1,8,0:0:0:0:
256,192,26802,1,0,0:0:0:0:
256,192,27102,1,8,0:0:0:0:
256,192,27252,1,0,0:0:0:0:
256,192,27402,1,8,0:0:0:0:
256,192,27702,1,8,0:0:0:0:
256,192,27852,1,0,0:0:0:0:
256,192,27927,1,0,0:0:0:0:
256,192,28002,1,0,0:0:0:0:
256,192,28152,1,8,0:0:0:0:
256,192,28302,1,0,0:0:0:0:
256,192,28452,1,0,0:0:0:0:
256,192,28602,1,8,0:0:0:0:
256,192,28902,1,8,0:0:0:0:
256,192,29052,1,0,0:0:0:0:
256,192,29202,1,12,0:0:0:0:
256,192,29502,1,0,0:0:0:0:
256,192,29652,1,0,0:0:0:0:
256,192,29802,1,12,0:0:0:0:
256,192,30102,1,8,0:0:0:0:
256,192,30252,1,0,0:0:0:0:
256,192,30402,1,8,0:0:0:0:
256,192,30552,1,8,0:0:0:0:
256,192,30702,1,0,0:0:0:0:
256,192,31002,1,8,0:0:0:0:
256,192,31452,1,0,0:0:0:0:
256,192,31602,1,0,0:0:0:0:
256,192,31752,1,8,0:0:0:0:
256,192,31902,1,8,0:0:0:0:
256,192,32052,1,0,0:0:0:0:
256,192,32202,1,8,0:0:0:0:
256,192,32352,1,0,0:0:0:0:
256,192,32502,1,8,0:0:0:0:
256,192,32652,1,8,0:0:0:0:
256,192,32802,1,0,0:0:0:0:
256,192,32952,1,0,0:0:0:0:
256,192,33102,1,8,0:0:0:0:
256,192,33702,1,4,0:0:0:0:
256,192,34002,1,8,0:0:0:0:
256,192,34152,1,8,0:0:0:0:
256,192,34302,1,0,0:0:0:0:
256,192,34452,1,8,0:0:0:0:
256,192,34602,1,0,0:0:0:0:
256,192,34752,1,8,0:0:0:0:
256,192,35052,1,8,0:0:0:0:
256,192,35352,1,0,0:0:0:0:
256,192,35502,1,8,0:0:0:0:
256,192,36102,1,4,0:0:0:0:
256,192,36402,1,8,0:0:0:0:
256,192,36552,1,0,0:0:0:0:
256,192,36702,1,8,0:0:0:0:
256,192,36852,1,0,0:0:0:0:
256,192,37002,1,8,0:0:0:0:
256,192,37152,1,8,0:0:0:0:
256,192,37302,1,0,0:0:0:0:
256,192,37452,1,0,0:0:0:0:
256,192,37602,1,8,0:0:0:0:
256,192,37752,1,0,0:0:0:0:
256,192,37902,1,8,0:0:0:0:
256,192,38202,1,8,0:0:0:0:
256,192,38502,1,4,0:0:0:0:
256,192,38802,1,8,0:0:0:0:
256,192,39102,1,0,0:0:0:0:
256,192,39402,1,8,0:0:0:0:
256,192,39702,1,12,0:0:0:0:
256,192,39927,1,8,0:0:0:0:
256,192,40002,1,0,0:0:0:0:
256,192,40152,1,8,0:0:0:0:
256,192,40302,1,0,0:0:0:0:
256,192,40377,1,0,0:0:0:0:
256,192,40452,1,0,0:0:0:0:
256,192,40602,1,8,0:0:0:0:
256,192,40752,1,8,0:0:0:0:
256,192,40902,1,0,0:0:0:0:
256,192,41202,1,0,0:0:0:0:
256,192,41502,1,0,0:0:0:0:
256,192,41652,1,0,0:0:0:0:
256,192,41802,1,0,0:0:0:0:
256,192,42852,1,0,0:0:0:0:
256,192,43002,1,12,0:0:0:0:
256,192,43302,1,12,0:0:0:0:
256,192,43452,1,0,0:0:0:0:
256,192,43527,1,0,0:0:0:0:
256,192,43602,1,0,0:0:0:0:
256,192,43752,1,0,0:0:0:0:
256,192,43902,1,8,0:0:0:0:
256,192,44052,1,0,0:0:0:0:
256,192,44127,1,0,0:0:0:0:
256,192,44202,1,0,0:0:0:0:
256,192,44352,1,8,0:0:0:0:
256,192,44652,1,8,0:0:0:0:
256,192,44802,1,0,0:0:0:0:
256,192,44952,1,0,0:0:0:0:
256,192,45102,1,8,0:0:0:0:
256,192,45402,1,8,0:0:0:0:
256,192,45702,1,0,0:0:0:0:
256,192,45852,1,8,0:0:0:0:
256,192,45927,1,8,0:0:0:0:
256,192,46002,1,8,0:0:0:0:
256,192,46152,1,8,0:0:0:0:
256,192,46302,1,0,0:0:0:0:
256,192,46452,1,8,0:0:0:0:
256,192,46527,1,8,0:0:0:0:
256,192,46602,1,8,0:0:0:0:
256,192,46752,1,8,0:0:0:0:
256,192,46902,1,0,0:0:0:0:
256,192,47052,1,8,0:0:0:0:
256,192,47202,1,8,0:0:0:0:
256,192,47352,1,0,0:0:0:0:
256,192,47502,1,8,0:0:0:0:
256,192,47802,1,8,0:0:0:0:
256,192,47952,1,0,0:0:0:0:
256,192,48102,1,12,0:0:0:0:
256,192,48402,1,8,0:0:0:0:
256,192,48702,1,0,0:0:0:0:
256,192,48852,1,0,0:0:0:0:
256,192,49002,1,8,0:0:0:0:
256,192,49152,1,0,0:0:0:0:
256,192,49302,1,8,0:0:0:0:
256,192,49602,1,0,0:0:0:0:
256,192,49902,1,8,0:0:0:0:
256,192,50352,1,0,0:0:0:0:
256,192,50502,1,12,0:0:0:0:
256,192,50652,1,0,0:0:0:0:
256,192,50802,1,8,0:0:0:0:
256,192,50952,1,8,0:0:0:0:
256,192,51102,1,0,0:0:0:0:
256,192,51252,1,0,0:0:0:0:
256,192,51402,1,8,0:0:0:0:
256,192,51552,1,8,0:0:0:0:
256,192,51702,1,4,0:0:0:0:
256,192,52302,1,0,0:0:0:0:
256,192,52452,1,0,0:0:0:0:
256,192,52602,1,8,0:0:0:0:
256,192,52752,1,0,0:0:0:0:
256,192,52902,1,12,0:0:0:0:
256,192,53052,1,8,0:0:0:0:
256,192,53202,1,0,0:0:0:0:
256,192,53277,1,0,0:0:0:0:
256,192,53352,1,0,0:0:0:0:
256,192,53502,1,8,0:0:0:0:
256,192,53652,1,8,0:0:0:0:
256,192,53802,1,0,0:0:0:0:
256,192,53877,1,0,0:0:0:0:
256,192,53952,1,0,0:0:0:0:
256,192,54252,1,8,0:0:0:0:
256,192,54402,1,0,0:0:0:0:
256,192,54552,1,0,0:0:0:0:
256,192,54702,1,8,0:0:0:0:
256,192,55002,1,8,0:0:0:0:
256,192,55302,1,4,0:0:0:0:
256,192,55752,1,0,0:0:0:0:
256,192,55902,1,12,0:0:0:0:
256,192,56352,1,8,0:0:0:0:
256,192,56502,1,8,0:0:0:0:
256,192,56652,1,8,0:0:0:0:
256,192,56727,1,8,0:0:0:0:
256,192,56802,1,8,0:0:0:0:
256,192,56952,1,8,0:0:0:0:
256,192,57102,1,8,0:0:0:0:
256,192,57402,1,0,0:0:0:0:
256,192,57702,1,12,0:0:0:0:
256,192,58302,1,8,0:0:0:0:
256,192,58902,1,4,0:0:0:0:
256,192,59202,1,8,0:0:0:0:
256,192,59502,1,8,0:0:0:0:
256,192,59802,1,0,0:0:0:0:
256,192,60102,12,4,62202,0:0:0:0:
272,192,62502,5,4,0:0:0:0:
272,192,62802,1,0,0:0:0:0:
272,192,62952,1,8,0:0:0:0:
272,192,63027,1,8,0:0:0:0:
272,192,63102,1,8,0:0:0:0:
272,192,63252,1,0,0:0:0:0:
272,192,63402,1,0,0:0:0:0:
272,192,63552,1,8,0:0:0:0:
256,192,64002,1,0,0:0:0:0:
256,192,64077,1,0,0:0:0:0:
256,192,64152,1,0,0:0:0:0:
256,192,64302,1,8,0:0:0:0:
256,192,64452,1,8,0:0:0:0:
256,192,64602,1,0,0:0:0:0:
256,192,64752,1,8,0:0:0:0:
256,192,64902,1,0,0:0:0:0:
256,192,65202,1,8,0:0:0:0:
256,192,65352,1,0,0:0:0:0:
256,192,65502,1,0,0:0:0:0:
256,192,65652,1,8,0:0:0:0:
256,192,65802,1,0,0:0:0:0:
256,192,65952,1,8,0:0:0:0:
256,192,66102,1,12,0:0:0:0:
256,192,66402,1,12,0:0:0:0:
256,192,66702,1,4,0:0:0:0:
256,192,67002,1,4,0:0:0:0:
256,192,67302,1,12,0:0:0:0:
272,192,67602,1,0,0:0:0:0:
272,192,67752,1,8,0:0:0:0:
272,192,67827,1,8,0:0:0:0:
272,192,67902,1,8,0:0:0:0:
272,192,68052,1,0,0:0:0:0:
272,192,68202,1,0,0:0:0:0:
272,192,68352,1,8,0:0:0:0:
256,192,68802,1,0,0:0:0:0:
256,192,68877,1,0,0:0:0:0:
256,192,68952,1,0,0:0:0:0:
256,192,69102,1,8,0:0:0:0:
256,192,69252,1,8,0:0:0:0:
256,192,69402,1,0,0:0:0:0:
256,192,69552,1,8,0:0:0:0:
256,192,69702,1,0,0:0:0:0:
256,192,70002,1,8,0:0:0:0:
256,192,70152,1,0,0:0:0:0:
256,192,70302,1,0,0:0:0:0:
256,192,70452,1,8,0:0:0:0:
256,192,70602,1,0,0:0:0:0:
256,192,70752,1,8,0:0:0:0:
256,192,70902,1,12,0:0:0:0:
256,192,71202,1,0,0:0:0:0:
256,192,71352,1,8,0:0:0:0:
256,192,71427,1,8,0:0:0:0:
256,192,71502,1,8,0:0:0:0:
256,192,71802,1,0,0:0:0:0:
256,192,71952,1,0,0:0:0:0:
256,192,72102,1,8,0:0:0:0:
256,192,80502,5,4,0:0:0:0:
256,192,80652,1,8,0:0:0:0:
256,192,80802,1,8,0:0:0:0:
256,192,80952,1,0,0:0:0:0:
256,192,81102,1,8,0:0:0:0:
256,192,81327,1,0,0:0:0:0:
256,192,81402,1,8,0:0:0:0:
256,192,81552,1,0,0:0:0:0:
256,192,81702,1,12,0:0:0:0:
256,192,81852,1,8,0:0:0:0:
256,192,82002,1,0,0:0:0:0:
256,192,82302,1,0,0:0:0:0:
256,192,82452,1,0,0:0:0:0:
256,192,82602,1,8,0:0:0:0:
256,192,82902,1,8,0:0:0:0:
256,192,83052,1,0,0:0:0:0:
256,192,83202,1,0,0:0:0:0:
256,192,83352,1,8,0:0:0:0:
256,192,83502,1,0,0:0:0:0:
256,192,83577,1,0,0:0:0:0:
256,192,83652,1,0,0:0:0:0:
256,192,83802,1,8,0:0:0:0:
256,192,84102,1,0,0:0:0:0:
256,192,84252,1,8,0:0:0:0:
256,192,84402,1,0,0:0:0:0:
256,192,84702,1,8,0:0:0:0:
256,192,84852,1,0,0:0:0:0:
256,192,85002,1,0,0:0:0:0:
256,192,85152,1,8,0:0:0:0:
256,192,85302,1,8,0:0:0:0:
256,192,85377,1,8,0:0:0:0:
256,192,85452,1,8,0:0:0:0:
256,192,85602,1,0,0:0:0:0:
256,192,85752,1,0,0:0:0:0:
256,192,85902,1,8,0:0:0:0:
256,192,86502,1,12,0:0:0:0:
256,192,86652,1,8,0:0:0:0:
256,192,86802,1,0,0:0:0:0:
256,192,87102,1,8,0:0:0:0:
256,192,87252,1,0,0:0:0:0:
256,192,87402,1,8,0:0:0:0:
256,192,87702,1,8,0:0:0:0:
256,192,87852,1,8,0:0:0:0:
256,192,88002,1,0,0:0:0:0:
256,192,88152,1,8,0:0:0:0:
256,192,88302,1,0,0:0:0:0:
256,192,88377,1,0,0:0:0:0:
256,192,88452,1,0,0:0:0:0:
256,192,88602,1,8,0:0:0:0:
256,192,88902,1,8,0:0:0:0:
256,192,89052,1,0,0:0:0:0:
256,192,89202,1,12,0:0:0:0:
256,192,89502,1,0,0:0:0:0:
256,192,89652,1,0,0:0:0:0:
256,192,89802,1,8,0:0:0:0:
256,192,89952,1,4,0:0:0:0:
256,192,90252,1,4,0:0:0:0:
256,192,90402,1,12,0:0:0:0:
256,192,90702,1,4,0:0:0:0:
256,192,91002,1,8,0:0:0:0:
256,192,91452,1,0,0:0:0:0:
256,192,91602,1,0,0:0:0:0:
256,192,91752,1,8,0:0:0:0:
256,192,91902,1,8,0:0:0:0:
256,192,92052,1,0,0:0:0:0:
256,192,92202,1,8,0:0:0:0:
256,192,92352,1,0,0:0:0:0:
256,192,92502,1,8,0:0:0:0:
256,192,92652,1,8,0:0:0:0:
256,192,92802,1,0,0:0:0:0:
256,192,92952,1,0,0:0:0:0:
256,192,93102,1,8,0:0:0:0:
256,192,93702,1,4,0:0:0:0:
256,192,94002,1,8,0:0:0:0:
256,192,94152,1,8,0:0:0:0:
256,192,94302,1,0,0:0:0:0:
256,192,94452,1,8,0:0:0:0:
256,192,94602,1,0,0:0:0:0:
256,192,94752,1,8,0:0:0:0:
256,192,95052,1,8,0:0:0:0:
256,192,95352,1,0,0:0:0:0:
256,192,95502,1,8,0:0:0:0:
256,192,96102,1,4,0:0:0:0:
256,192,96402,1,8,0:0:0:0:
256,192,96552,1,0,0:0:0:0:
256,192,96702,1,8,0:0:0:0:
256,192,96852,1,0,0:0:0:0:
256,192,97002,1,8,0:0:0:0:
256,192,97152,1,8,0:0:0:0:
256,192,97302,1,0,0:0:0:0:
256,192,97452,1,0,0:0:0:0:
256,192,97602,1,8,0:0:0:0:
256,192,97752,1,0,0:0:0:0:
256,192,97902,1,8,0:0:0:0:
256,192,98202,1,8,0:0:0:0:
256,192,98502,1,4,0:0:0:0:
256,192,98802,1,8,0:0:0:0:
256,192,99102,1,0,0:0:0:0:
256,192,99402,1,8,0:0:0:0:
256,192,99702,1,12,0:0:0:0:
256,192,99927,1,8,0:0:0:0:
256,192,100002,1,0,0:0:0:0:
256,192,100152,1,0,0:0:0:0:
256,192,100302,1,8,0:0:0:0:
256,192,100377,1,8,0:0:0:0:
256,192,100452,1,8,0:0:0:0:
256,192,100602,1,0,0:0:0:0:
256,192,100752,1,0,0:0:0:0:
256,192,100902,1,8,0:0:0:0:
256,192,101202,1,8,0:0:0:0:
256,192,101502,1,8,0:0:0:0:
256,192,101652,1,8,0:0:0:0:
256,192,101802,1,8,0:0:0:0:
256,192,102852,1,0,0:0:0:0:
256,192,103002,1,12,0:0:0:0:
256,192,103302,1,0,0:0:0:0:
256,192,103377,1,0,0:0:0:0:
256,192,103452,1,0,0:0:0:0:
256,192,103602,1,8,0:0:0:0:
256,192,103752,1,8,0:0:0:0:
256,192,103902,1,0,0:0:0:0:
256,192,103977,1,0,0:0:0:0:
256,192,104052,1,0,0:0:0:0:
256,192,104202,1,8,0:0:0:0:
256,192,104352,1,8,0:0:0:0:
256,192,104652,1,8,0:0:0:0:
256,192,104802,1,0,0:0:0:0:
256,192,104952,1,8,0:0:0:0:
256,192,105027,1,8,0:0:0:0:
256,192,105102,1,8,0:0:0:0:
256,192,105252,1,0,0:0:0:0:
256,192,105402,1,8,0:0:0:0:
256,192,105702,1,8,0:0:0:0:
256,192,105777,1,8,0:0:0:0:
256,192,105852,1,8,0:0:0:0:
256,192,106002,1,0,0:0:0:0:
256,192,106152,1,0,0:0:0:0:
256,192,106302,1,8,0:0:0:0:
256,192,106377,1,8,0:0:0:0:
256,192,106452,1,8,0:0:0:0:
256,192,106602,1,0,0:0:0:0:
256,192,106752,1,0,0:0:0:0:
256,192,106902,1,8,0:0:0:0:
256,192,107052,1,0,0:0:0:0:
256,192,107202,1,8,0:0:0:0:
256,192,107352,1,0,0:0:0:0:
256,192,107502,1,8,0:0:0:0:
256,192,107802,1,0,0:0:0:0:
256,192,107952,1,0,0:0:0:0:
256,192,108102,1,12,0:0:0:0:
256,192,108402,1,0,0:0:0:0:
256,192,108702,1,8,0:0:0:0:
256,192,109002,1,0,0:0:0:0:
256,192,109152,1,0,0:0:0:0:
256,192,109302,1,8,0:0:0:0:
256,192,109602,1,8,0:0:0:0:
256,192,109902,1,8,0:0:0:0:
256,192,110352,1,0,0:0:0:0:
256,192,110502,1,12,0:0:0:0:
256,192,110802,1,8,0:0:0:0:
256,192,110952,1,0,0:0:0:0:
256,192,111102,1,8,0:0:0:0:
256,192,111252,1,0,0:0:0:0:
256,192,111402,1,0,0:0:0:0:
256,192,111552,1,8,0:0:0:0:
256,192,111702,1,4,0:0:0:0:
256,192,112302,1,0,0:0:0:0:
256,192,112452,1,0,0:0:0:0:
256,192,112602,1,8,0:0:0:0:
256,192,112752,1,0,0:0:0:0:
256,192,112902,1,12,0:0:0:0:
256,192,113052,1,0,0:0:0:0:
256,192,113127,1,0,0:0:0:0:
256,192,113202,1,0,0:0:0:0:
256,192,113352,1,0,0:0:0:0:
256,192,113502,1,8,0:0:0:0:
256,192,113652,1,0,0:0:0:0:
256,192,113727,1,0,0:0:0:0:
256,192,113802,1,0,0:0:0:0:
256,192,113952,1,8,0:0:0:0:
256,192,114252,1,8,0:0:0:0:
256,192,114402,1,0,0:0:0:0:
256,192,114552,1,0,0:0:0:0:
256,192,114702,1,8,0:0:0:0:
256,192,115002,1,8,0:0:0:0:
256,192,115302,1,4,0:0:0:0:
256,192,115752,1,0,0:0:0:0:
256,192,115902,1,12,0:0:0:0:
256,192,116352,1,8,0:0:0:0:
256,192,116502,1,8,0:0:0:0:
256,192,116652,1,8,0:0:0:0:
256,192,116727,1,8,0:0:0:0:
256,192,116802,1,8,0:0:0:0:
256,192,116952,1,8,0:0:0:0:
256,192,117102,1,8,0:0:0:0:
256,192,117402,1,0,0:0:0:0:
256,192,117702,1,12,0:0:0:0:
256,192,118302,1,8,0:0:0:0:
256,192,118902,1,12,0:0:0:0:
256,192,119202,1,0,0:0:0:0:
256,192,119502,1,0,0:0:0:0:
256,192,119802,1,8,0:0:0:0:
256,192,120102,1,0,0:0:0:0:
256,192,120252,1,0,0:0:0:0:
256,192,120402,1,0,0:0:0:0:
256,192,120702,1,0,0:0:0:0:
256,192,120852,1,0,0:0:0:0:
256,192,121152,1,0,0:0:0:0:
256,192,121452,1,0,0:0:0:0:
256,192,121752,1,0,0:0:0:0:
256,192,121902,1,0,0:0:0:0:
256,192,122202,1,8,0:0:0:0:
256,192,122277,1,8,0:0:0:0:
256,192,122352,1,8,0:0:0:0:
256,192,122427,1,8,0:0:0:0:
256,192,122502,1,8,0:0:0:0:
256,192,122802,1,4,0:0:0:0:
256,192,123102,1,4,0:0:0:0:
256,192,123402,1,8,0:0:0:0:
256,192,123477,1,8,0:0:0:0:
256,192,123552,1,8,0:0:0:0:
256,192,123702,1,4,0:0:0:0:
256,192,124002,1,4,0:0:0:0:
256,192,124302,1,12,0:0:0:0:
256,192,124902,1,4,0:0:0:0:
256,192,125099,1,0,0:0:0:0:
256,192,125296,1,8,0:0:0:0:
256,192,125494,1,0,0:0:0:0:
256,192,125888,1,0,0:0:0:0:
256,192,126086,1,8,0:0:0:0:
256,192,126283,1,8,0:0:0:0:
256,192,126480,1,0,0:0:0:0:
256,192,126678,1,0,0:0:0:0:
256,192,126875,1,8,0:0:0:0:
256,192,127073,1,0,0:0:0:0:
256,192,127467,1,0,0:0:0:0:
256,192,127665,1,8,0:0:0:0:
256,192,127862,1,0,0:0:0:0:
256,192,128059,1,8,0:0:0:0:
256,192,128257,1,8,0:0:0:0:
256,192,128454,1,0,0:0:0:0:
256,192,128652,1,8,0:0:0:0:
256,192,129046,1,0,0:0:0:0:
256,192,129244,1,8,0:0:0:0:
256,192,129441,1,8,0:0:0:0:
256,192,129638,1,0,0:0:0:0:
256,192,129836,1,0,0:0:0:0:
256,192,130033,1,8,0:0:0:0:
256,192,130230,1,0,0:0:0:0:
256,192,130428,1,8,0:0:0:0:
256,192,130625,1,8,0:0:0:0:
256,192,130823,1,8,0:0:0:0:
256,192,131217,1,4,0:0:0:0:
256,192,131415,1,8,0:0:0:0:
256,192,131612,1,8,0:0:0:0:
256,192,131809,1,0,0:0:0:0:
256,192,132204,1,0,0:0:0:0:
256,192,132402,1,0,0:0:0:0:
256,192,132599,1,0,0:0:0:0:
256,192,132796,1,8,0:0:0:0:
256,192,132994,1,8,0:0:0:0:
256,192,133191,1,0,0:0:0:0:
256,192,133388,1,8,0:0:0:0:
256,192,133783,1,8,0:0:0:0:
256,192,133980,1,8,0:0:0:0:
256,192,134178,1,0,0:0:0:0:
256,192,134375,1,8,0:0:0:0:
256,192,134573,1,0,0:0:0:0:
256,192,134770,1,0,0:0:0:0:
256,192,134967,1,8,0:0:0:0:
256,192,135362,1,8,0:0:0:0:
256,192,135559,1,0,0:0:0:0:
256,192,135757,1,0,0:0:0:0:
256,192,135954,1,8,0:0:0:0:
256,192,136152,1,8,0:0:0:0:
256,192,136349,1,0,0:0:0:0:
256,192,136546,1,8,0:0:0:0:
256,192,136744,1,8,0:0:0:0:
256,192,136941,1,0,0:0:0:0:
256,192,137138,1,8,0:0:0:0:
256,192,137336,1,8,0:0:0:0:
256,192,137533,1,4,0:0:0:0:
256,192,137928,1,8,0:0:0:0:
256,192,138125,1,0,0:0:0:0:
256,192,138520,1,0,0:0:0:0:
256,192,138717,1,8,0:0:0:0:
256,192,138915,1,0,0:0:0:0:
256,192,139112,1,8,0:0:0:0:
256,192,139309,1,8,0:0:0:0:
256,192,139507,1,0,0:0:0:0:
256,192,139704,1,8,0:0:0:0:
256,192,140099,1,8,0:0:0:0:
256,192,140296,1,0,0:0:0:0:
256,192,140494,1,0,0:0:0:0:
256,192,140691,1,8,0:0:0:0:
256,192,141086,1,8,0:0:0:0:
256,192,141283,1,0,0:0:0:0:
256,192,141678,1,0,0:0:0:0:
256,192,142073,1,0,0:0:0:0:
256,192,142270,1,8,0:0:0:0:
256,192,142467,1,8,0:0:0:0:
256,192,142665,1,8,0:0:0:0:
256,192,142862,1,0,0:0:0:0:
256,192,143257,1,8,0:0:0:0:
256,192,143454,1,8,0:0:0:0:
256,192,143652,1,0,0:0:0:0:
256,192,143849,1,12,0:0:0:0:
256,192,144244,1,0,0:0:0:0:
256,192,144441,1,8,0:0:0:0:
256,192,144836,1,8,0:0:0:0:
256,192,145033,1,8,0:0:0:0:
256,192,145230,1,0,0:0:0:0:
256,192,145428,1,8,0:0:0:0:
256,192,145625,1,0,0:0:0:0:
256,192,145823,1,0,0:0:0:0:
256,192,146020,1,8,0:0:0:0:
256,192,146415,1,8,0:0:0:0:
256,192,146612,1,0,0:0:0:0:
256,192,147007,1,8,0:0:0:0:
256,192,147402,1,0,0:0:0:0:
256,192,147599,1,8,0:0:0:0:
256,192,147994,1,8,0:0:0:0:
256,192,148388,1,0,0:0:0:0:
256,192,148783,1,8,0:0:0:0:
256,192,148980,1,0,0:0:0:0:
256,192,149178,1,8,0:0:0:0:
256,192,149573,1,0,0:0:0:0:
256,192,149770,1,8,0:0:0:0:
256,192,149967,1,0,0:0:0:0:
256,192,150165,1,12,0:0:0:0:
256,192,150559,1,0,0:0:0:0:
256,192,150757,1,8,0:0:0:0:
256,192,151152,1,8,0:0:0:0:
256,192,151546,1,0,0:0:0:0:
256,192,151941,1,8,0:0:0:0:
256,192,152138,1,8,0:0:0:0:
256,192,152336,1,0,0:0:0:0:
256,192,152730,1,0,0:0:0:0:
256,192,152928,1,8,0:0:0:0:
256,192,153125,1,0,0:0:0:0:
256,192,153323,1,8,0:0:0:0:
256,192,153717,1,8,0:0:0:0:
256,192,153915,1,0,0:0:0:0:
256,192,154309,1,0,0:0:0:0:
256,192,154704,1,8,0:0:0:0:
256,192,155099,1,0,0:0:0:0:
256,192,155296,1,8,0:0:0:0:
256,192,155494,1,0,0:0:0:0:
256,192,155888,1,8,0:0:0:0:
256,192,156086,1,0,0:0:0:0:
256,192,156283,1,0,0:0:0:0:
256,192,156480,1,12,0:0:0:0:
256,192,156875,1,0,0:0:0:0:
256,192,157073,1,8,0:0:0:0:
256,192,157467,1,8,0:0:0:0:
256,192,157862,1,8,0:0:0:0:
256,192,158059,1,0,0:0:0:0:
256,192,158257,1,0,0:0:0:0:
256,192,158454,1,8,0:0:0:0:
256,192,158652,1,0,0:0:0:0:
256,192,159046,1,0,0:0:0:0:
256,192,159244,1,8,0:0:0:0:
256,192,159441,1,0,0:0:0:0:
256,192,159638,1,8,0:0:0:0:
256,192,160033,1,8,0:0:0:0:
256,192,160230,1,8,0:0:0:0:
256,192,160625,1,0,0:0:0:0:
256,192,160823,1,0,0:0:0:0:
256,192,161020,1,8,0:0:0:0:
256,192,161217,1,4,0:0:0:0:
256,192,161415,1,8,0:0:0:0:
256,192,161612,1,8,0:0:0:0:
256,192,161809,1,0,0:0:0:0:
256,192,162007,1,12,0:0:0:0:
256,192,162204,1,8,0:0:0:0:
256,192,162402,1,0,0:0:0:0:
256,192,162599,1,0,0:0:0:0:
256,192,162796,1,12,0:0:0:0:
256,192,163096,1,8,0:0:0:0:
256,192,163396,1,8,0:0:0:0:
256,192,163696,1,8,0:0:0:0:
256,192,163996,1,12,0:0:0:0:
256,192,164296,1,12,0:0:0:0:
256,192,164596,1,12,0:0:0:0:
256,192,164896,1,12,0:0:0:0:
256,192,165196,1,4,0:0:0:0:
256,192,165496,1,8,0:0:0:0:
256,192,165796,1,8,0:0:0:0:
256,192,166096,1,8,0:0:0:0:
256,192,166396,1,12,0:0:0:0:
256,192,166696,1,12,0:0:0:0:
256,192,166996,1,12,0:0:0:0:
256,192,167296,1,12,0:0:0:0:
256,192,167596,1,4,0:0:0:0:
256,192,167896,1,8,0:0:0:0:
256,192,168196,1,8,0:0:0:0:
256,192,168496,1,8,0:0:0:0:
256,192,168796,1,12,0:0:0:0:
256,192,169096,1,12,0:0:0:0:
256,192,169396,1,12,0:0:0:0:
256,192,169696,1,12,0:0:0:0:
256,192,169996,1,12,0:0:0:0:
256,192,170296,1,0,0:0:0:0:
256,192,170446,1,0,0:0:0:0:
256,192,170596,1,8,0:0:0:0:
256,192,170746,1,0,0:0:0:0:
256,192,170896,1,8,0:0:0:0:
256,192,171046,1,8,0:0:0:0:
256,192,171196,1,12,0:0:0:0:
256,192,171496,1,12,0:0:0:0:
256,192,171796,1,12,0:0:0:0:
256,192,172096,1,12,0:0:0:0:
256,192,172396,1,4,0:0:0:0:
256,192,174796,5,12,0:0:0:0:
256,192,174946,1,0,0:0:0:0:
256,192,175021,1,0,0:0:0:0:
256,192,175096,1,0,0:0:0:0:
256,192,175246,1,8,0:0:0:0:
256,192,175396,1,0,0:0:0:0:
256,192,175546,1,8,0:0:0:0:
256,192,175621,1,8,0:0:0:0:
256,192,175696,1,8,0:0:0:0:
256,192,175846,1,0,0:0:0:0:
256,192,175996,1,8,0:0:0:0:
256,192,176071,1,8,0:0:0:0:
256,192,176146,1,8,0:0:0:0:
256,192,176296,1,0,0:0:0:0:
256,192,176371,1,0,0:0:0:0:
256,192,176446,1,0,0:0:0:0:
256,192,176596,1,8,0:0:0:0:
256,192,176896,1,8,0:0:0:0:
256,192,177046,1,0,0:0:0:0:
256,192,177196,1,12,0:0:0:0:
256,192,177496,1,0,0:0:0:0:
256,192,177796,1,8,0:0:0:0:
256,192,178096,1,8,0:0:0:0:
256,192,178246,1,8,0:0:0:0:
256,192,178396,1,0,0:0:0:0:
256,192,178696,1,8,0:0:0:0:
256,192,178996,1,8,0:0:0:0:
256,192,179446,1,0,0:0:0:0:
256,192,179596,1,12,0:0:0:0:
256,192,179746,1,0,0:0:0:0:
256,192,179896,1,8,0:0:0:0:
256,192,180196,1,0,0:0:0:0:
256,192,180346,1,0,0:0:0:0:
256,192,180496,1,8,0:0:0:0:
256,192,180646,1,8,0:0:0:0:
256,192,180796,1,4,0:0:0:0:
256,192,181396,1,8,0:0:0:0:
256,192,181546,1,0,0:0:0:0:
256,192,181696,1,0,0:0:0:0:
256,192,181846,1,8,0:0:0:0:
256,192,181996,1,0,0:0:0:0:
256,192,182071,1,0,0:0:0:0:
256,192,182146,1,0,0:0:0:0:
256,192,182296,1,8,0:0:0:0:
256,192,182371,1,8,0:0:0:0:
256,192,182446,1,8,0:0:0:0:
256,192,182596,1,0,0:0:0:0:
256,192,182671,1,0,0:0:0:0:
256,192,182746,1,0,0:0:0:0:
256,192,182896,1,8,0:0:0:0:
256,192,182971,1,8,0:0:0:0:
256,192,183046,1,8,0:0:0:0:
256,192,183346,1,8,0:0:0:0:
256,192,183496,1,0,0:0:0:0:
256,192,183646,1,0,0:0:0:0:
256,192,183796,1,8,0:0:0:0:
256,192,184096,1,8,0:0:0:0:
256,192,184396,1,4,0:0:0:0:
256,192,184846,1,0,0:0:0:0:
256,192,184996,1,12,0:0:0:0:
256,192,185446,1,8,0:0:0:0:
256,192,185596,1,8,0:0:0:0:
256,192,185746,1,8,0:0:0:0:
256,192,185821,1,8,0:0:0:0:
256,192,185896,1,8,0:0:0:0:
256,192,186046,1,8,0:0:0:0:
256,192,186196,1,8,0:0:0:0:
256,192,186496,1,0,0:0:0:0:
256,192,186796,1,12,0:0:0:0:
256,192,187396,1,8,0:0:0:0:
256,192,187996,1,4,0:0:0:0:
256,192,188296,1,8,0:0:0:0:
256,192,188596,1,8,0:0:0:0:
256,192,188896,1,0,0:0:0:0:
256,192,189196,12,4,191296,0:0:0:0:
272,192,191596,5,4,0:0:0:0:
272,192,191896,1,0,0:0:0:0:
272,192,192046,1,8,0:0:0:0:
272,192,192121,1,8,0:0:0:0:
272,192,192196,1,8,0:0:0:0:
272,192,192346,1,0,0:0:0:0:
272,192,192496,1,0,0:0:0:0:
272,192,192646,1,8,0:0:0:0:
256,192,193096,1,0,0:0:0:0:
256,192,193171,1,0,0:0:0:0:
256,192,193246,1,0,0:0:0:0:
256,192,193396,1,8,0:0:0:0:
256,192,193546,1,8,0:0:0:0:
256,192,193696,1,0,0:0:0:0:
256,192,193846,1,8,0:0:0:0:
256,192,193996,1,0,0:0:0:0:
256,192,194296,1,8,0:0:0:0:
256,192,194446,1,0,0:0:0:0:
256,192,194596,1,0,0:0:0:0:
256,192,194746,1,8,0:0:0:0:
256,192,194896,1,0,0:0:0:0:
256,192,195046,1,8,0:0:0:0:
256,192,195196,1,12,0:0:0:0:
256,192,195496,1,12,0:0:0:0:
256,192,195796,1,4,0:0:0:0:
256,192,196096,1,4,0:0:0:0:
256,192,196396,1,12,0:0:0:0:
272,192,196696,1,0,0:0:0:0:
272,192,196846,1,8,0:0:0:0:
272,192,196921,1,8,0:0:0:0:
272,192,196996,1,8,0:0:0:0:
272,192,197146,1,0,0:0:0:0:
272,192,197296,1,0,0:0:0:0:
272,192,197446,1,8,0:0:0:0:
256,192,197896,1,0,0:0:0:0:
256,192,197971,1,0,0:0:0:0:
256,192,198046,1,0,0:0:0:0:
256,192,198196,1,8,0:0:0:0:
256,192,198346,1,8,0:0:0:0:
256,192,198496,1,0,0:0:0:0:
256,192,198646,1,8,0:0:0:0:
256,192,198796,1,0,0:0:0:0:
256,192,199096,1,8,0:0:0:0:
256,192,199246,1,0,0:0:0:0:
256,192,199396,1,0,0:0:0:0:
256,192,199546,1,8,0:0:0:0:
256,192,199696,1,0,0:0:0:0:
256,192,199846,1,8,0:0:0:0:
256,192,199996,1,12,0:0:0:0:
256,192,200296,1,0,0:0:0:0:
256,192,200446,1,8,0:0:0:0:
256,192,200521,1,8,0:0:0:0:
256,192,200596,1,8,0:0:0:0:
256,192,200896,1,0,0:0:0:0:
256,192,201046,1,8,0:0:0:0:
256,192,201196,1,4,0:0:0:0:
256,192,201496,1,4,0:0:0:0:
256,192,201796,1,4,0:0:0:0:
256,192,202096,1,4,0:0:0:0:
256,192,202396,1,4,0:0:0:0:
256,192,202696,1,12,0:0:0:0:
256,192,202996,1,12,0:0:0:0:
256,192,203296,1,12,0:0:0:0:
