osu file format v14

[General]
AudioFilename: audio.mp3
AudioLeadIn: 0
PreviewTime: 60817
Countdown: 0
SampleSet: Soft
StackLeniency: 0.7
Mode: 0
LetterboxInBreaks: 0
WidescreenStoryboard: 0

[Editor]
Bookmarks: 16751,22073,24654,27234,36267,37557,47880,55621,60783,71105,81267,86589,89170
DistanceSpacing: 0.8
BeatDivisor: 4
GridSize: 4
TimelineZoom: 2.2

[Metadata]
Title:Heart no Atoaji
TitleUnicode:ハートの後味
Artist:mafumafu
ArtistUnicode:まふまふ
Creator:Left
Version:sahuang's Insane
Source:
Tags:Beomsan sahuang Oread VINXIS IA vocaloid utaite Cut version
BeatmapID:1056709
BeatmapSetID:496176

[Difficulty]
HPDrainRate:5.5
CircleSize:3.6
OverallDifficulty:7.5
ApproachRate:8.6
SliderMultiplier:1.6
SliderTickRate:1

[Events]
//Background and Video events
0,0,"bg.jpg",0,0
//Break Periods
2,22388,23948
2,86904,88465
//Storyboard Layer 0 (Background)
//Storyboard Layer 1 (Fail)
//Storyboard Layer 2 (Pass)
//Storyboard Layer 3 (Foreground)
//Storyboard Sound Samples

[TimingPoints]
15737,322.58064516129,4,2,1,40,1,0
16866,-100,4,2,1,70,0,0
22188,-100,4,2,0,30,0,0
24607,-100,4,2,1,50,0,0
24769,-100,4,2,1,60,0,0
27349,-125,4,2,0,35,0,0
36220,-90.9090909090909,4,2,1,75,0,0
37672,-100,4,2,1,70,0,0
42349,-100,4,2,0,70,0,0
42511,-100,4,2,1,70,0,0
42591,-100,4,2,0,70,0,0
42833,-100,4,2,1,70,0,0
47995,-117.647058823529,4,2,1,60,0,0
53156,-200,4,2,2,45,0,0
53236,-200,4,2,1,45,0,0
54769,-133.333333333333,4,2,1,55,0,0
55736,-95.2380952380952,4,2,1,70,0,0
59930,-166.666666666667,4,2,1,70,0,0
60817,-166.666666666667,4,2,1,5,0,0
60898,-86.9565217391304,4,2,1,80,0,1
65736,-86.9565217391304,4,2,1,70,0,1
65817,-86.9565217391304,4,2,1,60,0,1
65898,-86.9565217391304,4,2,1,50,0,1
65978,-86.9565217391304,4,2,1,40,0,1
66059,-86.9565217391304,4,2,1,80,0,1
68075,-86.9565217391304,4,2,0,80,0,1
68317,-86.9565217391304,4,2,1,80,0,1
68398,-86.9565217391304,4,2,0,80,0,1
68640,-86.9565217391304,4,2,1,80,0,1
76382,-86.9565217391304,4,2,3,80,0,1
76866,-86.9565217391304,4,2,3,50,0,1
77027,-86.9565217391304,4,2,3,55,0,1
77349,-86.9565217391304,4,2,3,60,0,1
77672,-86.9565217391304,4,2,3,65,0,1
77995,-86.9565217391304,4,2,3,70,0,1
78317,-86.9565217391304,4,2,3,75,0,1
78640,-86.9565217391304,4,2,3,80,0,1
78962,-86.9565217391304,4,2,1,85,0,1
79285,-86.9565217391304,4,2,1,90,0,1
80253,-86.9565217391304,4,2,3,55,0,1
81382,-100,4,2,1,70,0,0
86704,-100,4,2,0,30,0,0
89124,-100,4,2,1,50,0,0
89285,-111.111111111111,4,2,1,60,0,0
96704,-100,4,2,1,5,0,0

[Colours]
Combo1 : 255,153,204
Combo2 : 166,255,255
Combo3 : 255,255,172

[HitObjects]
343,263,16866,6,0,P|267:286|194:260,1,160,4|0,0:0|0:0,0:0:0:0:
119,141,17349,1,8,0:0:0:0:
270,140,17511,1,0,0:0:0:0:
270,140,17591,1,0,0:0:0:0:
270,140,17672,2,0,L|346:116,2,80,2|2|8,0:0|0:0|0:0,0:0:0:0:
392,23,18156,6,0,P|444:80|441:159,1,160,6|0,0:0|0:0,0:0:0:0:
352,254,18640,1,8,0:0:0:0:
226,235,18801,2,0,P|173:177|176:98,1,160,0|2,0:0|0:0,0:0:0:0:
270,140,19285,1,8,0:0:0:0:
137,191,19446,6,0,L|42:191,1,80,6|0,0:0|0:0,0:0:0:0:
3,263,19769,1,0,0:0:0:0:
3,263,19930,2,0,P|-6:301|5:339,1,80,8|0,0:0|0:0,0:0:0:0:
139,267,20253,2,0,P|148:229|137:191,2,80,2|2|8,0:0|0:0|0:0,0:0:0:0:
220,330,20737,6,0,P|275:319|380:359,1,160,6|2,0:0|0:0,0:0:0:0:
468,312,21220,2,0,P|484:272|479:226,1,80,12|0,0:0|0:0,0:0:0:0:
408,161,21543,5,0,3:1:0:0:
379,147,21624,1,0,3:1:0:0:
347,140,21704,1,0,3:1:0:0:
316,139,21785,1,0,3:1:0:0:
284,145,21866,2,0,B|240:156|240:156|202:151|172:135|172:135|194:186,1,160,4|2,0:0|0:0,0:0:0:0:
305,115,24607,5,2,0:0:0:0:
305,115,24688,1,0,0:0:0:0:
305,115,24769,2,0,L|398:114,2,80,6|0|0,0:0|0:0|0:0,0:0:0:0:
198,78,25253,1,2,0:0:0:0:
216,218,25414,2,0,L|400:216,1,160,6|0,0:0|0:0,0:0:0:0:
271,257,25898,6,0,L|191:257,1,80,6|0,0:0|0:0,0:0:0:0:
108,193,26220,1,2,0:0:0:0:
122,320,26382,1,2,0:0:0:0:
216,218,26543,1,2,0:0:0:0:
25,275,26704,5,8,0:0:0:0:
220,337,26866,1,8,0:0:0:0:
220,337,27349,6,0,P|282:320|348:336,1,128,2|2,0:0|0:0,0:0:0:0:
419,380,27833,1,0,0:0:0:0:
419,380,27995,2,0,L|418:308,1,64,2|0,0:0|0:0,0:0:0:0:
479,250,28317,2,0,L|479:186,1,64,2|0,0:0|0:0,0:0:0:0:
419,117,28640,6,0,P|389:110|358:116,2,64,2|0|2,0:0|0:0|0:0,0:0:0:0:
479,186,29124,1,0,0:0:0:0:
416,250,29285,2,0,P|385:256|354:248,1,64,2|0,0:0|0:0,0:0:0:0:
298,179,29607,2,0,P|267:171|236:177,1,64,2|0,0:0|0:0,0:0:0:0:
174,243,29930,6,0,L|170:314,1,64,2|0,0:0|0:0,0:0:0:0:
76,349,30253,1,2,0:0:0:0:
76,349,30414,1,0,0:0:0:0:
71,246,30575,1,2,0:0:0:0:
174,243,30736,2,0,B|234:261|234:261|300:245,1,128
234,164,31220,6,0,L|234:100,1,64,2|0,0:0|0:0,0:0:0:0:
134,125,31543,2,0,L|134:61,1,64,2|0,0:0|0:0,0:0:0:0:
34,86,31866,2,0,L|34:22,1,64,2|0,0:0|0:0,0:0:0:0:
134,61,32188,1,2,0:0:0:0:
234,100,32349,1,0,0:0:0:0:
334,61,32511,6,0,B|372:50|372:50|464:57,1,128,2|2,0:0|0:0,0:0:0:0:
511,130,32995,1,0,0:0:0:0:
449,194,33156,2,0,B|433:219|433:219|449:265|430:323,1,128,2|2,0:0|0:0,0:0:0:0:
348,357,33640,1,0,0:0:0:0:
348,357,33801,6,0,L|270:365,1,64,2|0,0:0|0:0,0:0:0:0:
172,280,34124,2,0,L|236:287,1,64,2|0,0:0|0:0,0:0:0:0:
325,242,34446,1,2,0:0:0:0:
325,242,34607,2,0,P|333:202|330:173,2,64,0|2|0,0:0|0:0|0:0,0:0:0:0:
325,242,36220,6,0,B|289:163|360:161|315:67,1,176.000005371094,4|0,0:0|1:0,0:0:0:0:
218,124,36704,1,0,1:0:0:0:
425,203,36866,1,0,1:0:0:0:
217,234,37027,1,0,1:0:0:0:
317,71,37188,1,0,1:0:0:0:
317,71,37672,6,0,L|152:78,1,160,6|8,0:0|0:0,0:0:0:0:
66,156,38156,1,0,0:0:0:0:
66,156,38236,1,0,0:0:0:0:
66,156,38317,2,0,L|75:244,1,80,2|2,0:0|0:0,0:0:0:0:
91,338,38640,1,8,0:0:0:0:
91,338,38801,1,2,0:0:0:0:
188,255,38962,6,0,P|234:246|271:249,1,80,0|0,0:0|0:0,0:0:0:0:
339,344,39285,2,0,P|378:345|417:337,1,80,8|2,0:0|0:0,0:0:0:0:
458,311,39527,1,8,0:0:0:0:
458,311,39607,1,0,0:0:0:0:
364,162,39769,1,2,0:0:0:0:
480,216,39930,1,8,0:0:0:0:
292,260,40091,1,0,0:0:0:0:
364,162,40253,6,0,L|355:79,1,80,2|0,0:0|0:0,0:0:0:0:
207,21,40575,2,0,L|198:100,1,80,8|0,0:0|0:0,0:0:0:0:
191,147,40817,1,0,0:0:0:0:
191,147,40898,2,0,P|146:145|105:156,1,80,2|2,0:0|0:0,0:0:0:0:
167,302,41220,2,0,P|205:310|245:308,1,80,8|2,0:0|0:0,0:0:0:0:
315,203,41543,5,0,0:0:0:0:
343,369,41704,1,2,0:0:0:0:
245,307,41866,1,8,0:0:0:0:
437,310,42027,2,0,L|484:321,2,40,2|8|0,0:0|0:0|0:0,0:0:0:0:
397,130,42349,1,2,0:0:0:0:
378,95,42429,1,2,0:0:0:0:
346,72,42510,1,8,0:0:0:0:
307,63,42590,1,0,0:0:0:0:
268,70,42671,1,2,0:0:0:0:
235,92,42752,1,0,0:0:0:0:
214,126,42833,6,0,L|214:291,1,160,6|8,0:0|0:0,0:0:0:0:
291,194,43317,2,0,P|220:161|139:197,1,160,0|2,0:0|0:0,0:0:0:0:
76,264,43801,1,8,0:0:0:0:
145,341,43962,6,0,P|216:374|292:338,1,160,2|2,0:0|0:0,0:0:0:0:
355,264,44446,1,8,0:0:0:0:
433,332,44607,1,0,0:0:0:0:
433,332,44688,1,8,0:0:0:0:
433,332,44769,2,0,L|518:341,1,80,2|2,0:0|0:0,0:0:0:0:
485,177,45091,2,0,L|405:185,1,80,8|0,0:0|0:0,0:0:0:0:
355,264,45414,5,2,0:0:0:0:
387,85,45575,1,2,0:0:0:0:
450,227,45736,1,8,0:0:0:0:
284,140,45898,1,0,0:0:0:0:
284,140,45978,1,0,0:0:0:0:
284,140,46059,2,0,P|245:136|197:140,2,80,2|2|8,0:0|0:0|0:0,0:0:0:0:
135,214,46543,6,0,P|99:145|123:71,1,160,6|0,0:0|1:0,0:0:0:0:
204,138,47027,1,0,1:0:0:0:
20,178,47188,1,0,1:0:0:0:
205,258,47349,1,0,1:0:0:0:
123,71,47510,1,0,1:0:0:0:
123,71,47995,6,0,L|262:69,1,136.000002593994,2|2,0:3|0:0,0:0:0:0:
181,180,48640,2,0,L|45:181,1,136.000002593994,2|2,0:0|0:0,0:0:0:0:
107,302,49285,5,2,0:0:0:0:
305,183,49607,1,2,0:0:0:0:
107,302,49930,1,2,0:0:0:0:
305,183,50252,1,2,0:0:0:0:
306,332,50575,6,0,P|370:350|435:331,1,136.000002593994,2|2,0:0|0:0,0:0:0:0:
434,183,51220,2,0,P|369:164|305:183,1,136.000002593994,2|2,0:0|0:0,0:0:0:0:
306,332,51704,1,0,0:0:0:0:
241,258,51866,5,2,0:0:0:0:
384,84,52188,1,2,0:0:0:0:
241,258,52511,1,2,0:0:0:0:
384,84,52833,1,2,0:0:0:0:
162,122,53156,6,0,P|105:246|241:258,1,320,8|0,0:0|0:0,0:0:0:0:
178,205,54769,6,0,L|44:207,2,120.000004577637
426,136,55736,6,0,P|435:95|425:54,1,83.9999974365235,6|2,0:0|0:0,0:0:0:0:
245,112,56059,2,0,P|235:152|245:193,1,83.9999974365235,8|0,0:0|0:0,0:0:0:0:
275,233,56301,1,8,0:0:0:0:
275,233,56382,1,0,0:0:0:0:
341,101,56543,1,2,0:0:0:0:
149,84,56705,1,8,0:0:0:0:
163,265,56866,1,0,0:0:0:0:
163,265,56946,1,0,0:0:0:0:
163,265,57027,6,0,L|69:269,1,83.9999974365235,6|0,0:0|0:0,0:0:0:0:
229,370,57349,2,0,L|312:373,1,83.9999974365235,8|0,0:0|0:0,0:0:0:0:
363,375,57591,1,8,0:0:0:0:
363,375,57672,1,0,0:0:0:0:
461,208,57833,1,2,0:0:0:0:
469,335,57995,1,8,0:0:0:0:
334,180,58156,1,0,0:0:0:0:
334,180,58236,1,0,0:0:0:0:
334,180,58317,6,0,P|290:172|244:180,1,83.9999974365235,4|0,0:0|0:0,0:0:0:0:
141,267,58640,1,0,1:0:0:0:
141,267,58801,1,0,1:0:0:0:
139,100,58962,5,0,1:0:0:0:
48,202,59124,1,0,1:0:0:0:
251,177,59285,1,0,1:0:0:0:
172,352,59446,1,0,1:0:0:0:
172,352,59930,6,0,P|220:259|253:358,1,263.99999194336,4|0,0:0|0:0,0:0:0:0:
216,317,60898,6,0,L|220:203,1,92.0000017547608,2|0,0:0|0:0,0:0:0:0:
351,99,61220,2,0,L|355:213,1,92.0000017547608,8|0,0:0|0:0,0:0:0:0:
390,11,61543,2,0,P|346:1|303:16,1,92.0000017547608,2|0,0:0|0:0,0:0:0:0:
219,225,61866,2,0,P|175:235|132:220,1,92.0000017547608,8|0,0:0|0:0,0:0:0:0:
191,48,62188,6,0,P|259:44|336:131,1,184.000003509522,2|8,0:0|0:0,0:0:0:0:
219,225,62672,1,0,0:0:0:0:
334,122,62833,2,0,B|380:117|380:117|431:125,1,92.0000017547608,2|0,0:0|0:0,0:0:0:0:
334,252,63156,2,0,B|380:257|380:257|431:249,1,92.0000017547608,8|0,0:0|0:0,0:0:0:0:
270,194,63478,6,0,P|249:236|254:284,1,92.0000017547608,6|0,0:0|0:0,0:0:0:0:
122,368,63801,2,0,P|101:326|106:278,1,92.0000017547608,8|0,0:0|0:0,0:0:0:0:
252,279,64124,5,6,0:0:0:0:
163,174,64285,1,0,0:0:0:0:
301,150,64446,1,8,0:0:0:0:
252,279,64607,1,0,0:0:0:0:
163,174,64769,5,6,0:0:0:0:
255,65,64930,2,0,L|245:-4,2,46.0000008773804,8|8|8,0:0|0:0|0:0,0:0:0:0:
351,236,65253,1,8,0:3:0:0:
351,236,65333,1,8,0:3:0:0:
351,236,65414,2,0,L|415:224,3,46.0000008773804,8|0|4|4,0:3|0:0|0:3|0:3,0:0:0:0:
415,325,65736,2,0,L|479:337,3,46.0000008773804,4|4|4|4,0:3|0:3|0:3|0:3,0:0:0:0:
512,223,66059,6,0,B|512:120|512:120|505:73|485:35,1,184.000003509522,6|8,0:0|0:0,0:0:0:0:
360,13,66543,1,0,0:0:0:0:
406,145,66704,2,0,L|406:247,1,92.0000017547608,2|0,0:0|0:0,0:0:0:0:
301,343,67027,2,0,L|296:233,1,92.0000017547608,8|0,0:0|0:0,0:0:0:0:
192,161,67349,6,0,B|104:134|106:200|-2:154,1,184.000003509522,2|8,0:0|0:0,0:0:0:0:
65,67,67833,1,0,0:0:0:0:
150,254,67995,2,0,L|156:299,3,46.0000008773804,2|2|2|0,0:0|0:0|0:0|0:0,0:0:0:0:
239,365,68317,2,0,L|245:319,3,46.0000008773804,8|2|0|2,0:0|0:0|0:0|0:0,0:0:0:0:
297,214,68640,6,0,P|347:207|389:212,1,92.0000017547608,6|0,0:0|0:0,0:0:0:0:
443,302,68962,1,8,0:0:0:0:
427,125,69124,1,0,0:0:0:0:
297,214,69285,6,0,P|247:221|205:216,1,92.0000017547608,2|0,0:0|0:0,0:0:0:0:
151,130,69607,1,8,0:0:0:0:
158,303,69769,1,0,0:0:0:0:
158,303,69849,1,0,0:0:0:0:
157,303,69930,6,0,P|88:354|13:310,1,184.000003509522,6|8,0:0|0:0,0:0:0:0:
60,138,70414,1,0,0:0:0:0:
60,138,70495,1,0,0:0:0:0:
60,138,70575,2,0,L|65:71,1,46.0000008773804,2|0,0:0|0:0,0:0:0:0:
129,2,70736,2,0,L|134:69,1,46.0000008773804,8|8,0:3|0:3,0:0:0:0:
173,131,70898,5,4,0:3:0:0:
218,136,70978,1,4,0:3:0:0:
262,124,71059,1,4,0:3:0:0:
297,94,71140,1,4,0:3:0:0:
317,54,71220,6,0,L|324:160,1,92.0000017547608,6|0,0:0|0:0,0:0:0:0:
402,312,71543,2,0,L|408:206,1,92.0000017547608,8|0,0:0|0:0,0:0:0:0:
265,345,71866,2,0,P|216:351|169:339,1,92.0000017547608,2|0,0:0|0:0,0:0:0:0:
107,172,72188,2,0,L|115:73,1,92.0000017547608,8|0,0:0|0:0,0:0:0:0:
224,218,72511,6,0,P|320:211|417:222,1,184.000003509522,2|8,0:0|0:0,0:0:0:0:
461,318,72995,1,0,0:0:0:0:
306,262,73156,2,0,B|301:216|301:216|309:165,1,92.0000017547608,2|0,0:0|0:0,0:0:0:0:
182,77,73478,2,0,B|187:123|187:123|179:174,1,92.0000017547608,8|0,0:0|0:0,0:0:0:0:
72,318,73801,6,0,L|178:314,1,92.0000017547608,6|0,0:0|0:0,0:0:0:0:
306,262,74124,2,0,L|412:266,1,92.0000017547608,8|0,0:0|0:0,0:0:0:0:
290,157,74446,1,6,0:0:0:0:
259,345,74607,1,0,0:0:0:0:
179,168,74769,1,8,0:0:0:0:
163,314,74930,1,0,0:0:0:0:
351,292,75092,5,6,0:0:0:0:
290,157,75253,2,0,P|289:127|294:98,2,46.0000008773804,8|8|4,0:3|0:3|0:3,0:0:0:0:
153,238,75575,1,4,0:3:0:0:
153,238,75656,1,4,0:3:0:0:
153,238,75736,2,0,L|59:245,1,92.0000017547608,6|2,0:0|0:0,0:0:0:0:
30,90,76059,2,0,L|121:96,1,92.0000017547608,4|0,0:0|0:0,0:0:0:0:
271,142,76382,6,0,P|318:205|290:333,1,184.000003509522,6|0,0:0|0:0,0:0:0:0:
194,247,76866,1,2,0:0:0:0:
351,206,77027,2,0,L|446:210,1,92.0000017547608,2|2,0:0|0:0,0:0:0:0:
349,52,77349,2,0,L|257:55,1,92.0000017547608,2|2,0:0|0:0,0:0:0:0:
142,133,77672,6,0,P|135:178|148:221,1,92.0000017547608,2|2,0:0|0:0,0:0:0:0:
261,367,77995,2,0,P|274:323|267:278,1,92.0000017547608,2|2,0:0|0:0,0:0:0:0:
148,221,78317,2,0,L|42:227,1,92.0000017547608,2|2,0:0|0:0,0:0:0:0:
200,110,78640,2,0,L|315:112,1,92.0000017547608,2|2,0:0|0:0,0:0:0:0:
406,310,78962,6,0,P|418:260|405:202,1,92.0000017547608,2|2,1:1|1:1,0:0:0:0:
200,110,79285,2,0,P|188:160|201:218,1,92.0000017547608,2|2,1:1|1:1,0:0:0:0:
314,259,79607,1,2,1:1:0:0:
306,79,79768,1,2,1:1:0:0:
240,286,79930,1,2,1:1:0:0:
200,110,80091,1,2,1:1:0:0:
399,172,80253,5,2,0:0:0:0:
22,87,81382,6,0,B|76:81|76:81|129:94|129:94|189:85,1,160,6|0,0:0|0:0,0:0:0:0:
296,63,81865,1,8,0:0:0:0:
205,189,82027,1,0,0:0:0:0:
205,189,82107,1,0,0:0:0:0:
205,189,82188,2,0,L|122:205,2,80,2|2|8,0:0|0:0|0:0,0:0:0:0:
74,297,82672,6,0,P|22:236|29:159,1,160,6|0,0:0|0:0,0:0:0:0:
129,81,83156,1,8,0:0:0:0:
256,96,83317,2,0,P|308:153|306:231,1,160,0|2,0:0|0:0,0:0:0:0:
208,301,83801,1,8,0:0:0:0:
306,231,83962,6,0,L|386:231,1,80,6|0,0:0|0:0,0:0:0:0:
500,137,84285,1,0,0:0:0:0:
500,137,84446,2,0,P|508:98|497:60,1,80,8|0,0:0|0:0,0:0:0:0:
383,154,84769,2,0,P|374:192|385:230,2,80,2|2|8,0:0|0:0|0:0,0:0:0:0:
280,63,85253,6,0,P|221:73|114:28,1,160,6|2,0:0|0:0,0:0:0:0:
27,88,85736,2,0,P|20:136|29:177,1,80,12|0,0:0|0:0,0:0:0:0:
74,269,86059,5,0,3:1:0:0:
98,290,86140,1,0,3:1:0:0:
127,300,86220,1,0,3:1:0:0:
159,297,86301,1,0,3:1:0:0:
186,279,86382,2,0,B|172:217|196:173|196:173|242:198,1,160,4|2,0:0|0:0,0:0:0:0:
68,243,89124,5,2,0:0:0:0:
68,243,89204,1,0,0:0:0:0:
68,243,89285,2,0,L|234:238,1,143.999995605469,6|0,0:0|0:0,0:0:0:0:
276,316,89769,1,2,0:0:0:0:
147,314,89930,2,0,P|114:253|128:184,1,143.999995605469,6|0,0:0|0:0,0:0:0:0:
214,86,90414,6,0,L|213:4,1,71.9999978027344,6|0,0:0|0:0,0:0:0:0:
101,94,90736,1,2,0:0:0:0:
294,140,90898,1,2,0:0:0:0:
128,184,91059,1,2,0:0:0:0:
213,14,91220,5,8,0:0:0:0:
239,233,91382,1,8,0:0:0:0:
256,192,91704,12,0,96704,0:0:0:0:
