osu file format v14

[General]
AudioFilename: audio.mp3
AudioLeadIn: 0
PreviewTime: 60817
Countdown: 0
SampleSet: Soft
StackLeniency: 0.7
Mode: 0
LetterboxInBreaks: 0
WidescreenStoryboard: 0

[Editor]
DistanceSpacing: 0.7
BeatDivisor: 4
GridSize: 4
TimelineZoom: 1

[Metadata]
Title:Heart no Atoaji
TitleUnicode:ハートの後味
Artist:mafumafu
ArtistUnicode:まふまふ
Creator:Left
Version:Memory of First Love
Source:
Tags:Beomsan sahuang Oread VINXIS IA vocaloid utaite Cut version
BeatmapID:1056140
BeatmapSetID:496176

[Difficulty]
HPDrainRate:6.5
CircleSize:4
OverallDifficulty:9
ApproachRate:9.3
SliderMultiplier:2
SliderTickRate:1

[Events]
//Background and Video events
0,0,"BG.jpg",0,0
//Break Periods
2,53356,55182
//Storyboard Layer 0 (Background)
//Storyboard Layer 1 (Fail)
//Storyboard Layer 2 (Pass)
//Storyboard Layer 3 (Foreground)
//Storyboard Sound Samples

[TimingPoints]
15737,322.58064516129,4,2,1,40,1,0
16866,-90.9090909090909,4,2,1,75,0,0
22188,-166.666666666667,4,2,0,30,0,0
24607,-166.666666666667,4,2,1,60,0,0
24769,-125,4,2,1,75,0,0
27349,-125,4,2,0,35,0,0
36220,-90.9090909090909,4,2,1,70,0,0
42349,-90.9090909090909,4,2,0,70,0,0
42511,-90.9090909090909,4,2,1,70,0,0
42591,-90.9090909090909,4,2,0,70,0,0
42833,-90.9090909090909,4,2,1,70,0,0
47995,-125,4,2,1,55,0,0
53156,-125,4,2,2,55,0,0
55736,-90.9090909090909,4,2,1,70,0,0
59930,-166.666666666667,4,2,1,70,0,0
60898,-83.3333333333333,4,2,1,80,0,1
65736,-83.3333333333333,4,2,1,70,0,1
65817,-83.3333333333333,4,2,1,60,0,1
65898,-83.3333333333333,4,2,1,50,0,1
65978,-83.3333333333333,4,2,1,40,0,1
66059,-83.3333333333333,4,2,1,80,0,1
68075,-83.3333333333333,4,2,0,80,0,1
68317,-83.3333333333333,4,2,1,80,0,1
68398,-83.3333333333333,4,2,0,80,0,1
68640,-83.3333333333333,4,2,1,80,0,1
75736,-83.3333333333333,4,2,1,70,0,1
75817,-83.3333333333333,4,2,1,60,0,1
75898,-83.3333333333333,4,2,1,50,0,1
75978,-83.3333333333333,4,2,1,40,0,1
76059,-83.3333333333333,4,2,1,80,0,1
76382,-83.3333333333333,4,2,3,80,0,1
76704,-83.3333333333333,4,2,3,55,0,1
77027,-83.3333333333333,4,2,3,60,0,1
77349,-83.3333333333333,4,2,3,65,0,1
77672,-83.3333333333333,4,2,3,70,0,1
77995,-83.3333333333333,4,2,3,75,0,1
78317,-83.3333333333333,4,2,3,80,0,1
78640,-83.3333333333333,4,2,3,85,0,1
78962,-83.3333333333333,4,1,1,90,0,1
80253,-83.3333333333333,4,2,3,55,0,1
80575,-83.3333333333333,4,2,1,70,0,1
81382,-90.9090909090909,4,2,1,75,0,0
86704,-166.666666666667,4,2,0,30,0,0
89124,-125,4,2,1,75,0,0
96704,-125,4,2,1,5,0,0

[Colours]
Combo1 : 255,153,204
Combo2 : 166,255,255
Combo3 : 255,255,172

[HitObjects]
223,300,15737,5,4,0:0:0:0:
126,223,15938,2,0,L|123:190,3,25,0|0|0|8,0:0|0:0|0:0|0:0,0:0:0:0:
225,325,16220,5,8,0:3:0:0:
223,300,16301,1,8,0:3:0:0:
220,275,16382,1,4,0:3:0:0:
218,250,16462,1,4,0:3:0:0:
215,225,16542,1,8,0:0:0:0:
213,200,16624,1,8,0:3:0:0:
211,175,16704,1,4,0:3:0:0:
208,150,16784,1,4,0:3:0:0:
206,127,16866,6,0,P|106:94|24:160,1,220.000006713867,4|0,0:0|0:0,0:0:0:0:
280,316,17349,2,0,P|291:255|294:196,1,110.000003356934,8|0,0:0|0:0,0:0:0:0:
305,134,17591,1,0,0:0:0:0:
305,134,17672,1,2,0:0:0:0:
369,273,17833,1,2,0:0:0:0:
205,251,17995,1,8,0:0:0:0:
487,166,18156,6,0,P|408:101|282:170,1,220.000006713867,6|0,0:0|0:0,0:0:0:0:
142,314,18640,2,0,P|123:240|134:174,1,110.000003356934,8|0,0:0|0:0,0:0:0:0:
261,63,18962,1,2,0:0:0:0:
261,63,19124,1,2,0:0:0:0:
205,251,19285,1,8,0:0:0:0:
358,67,19446,6,0,P|278:152|162:88,1,220.000006713867,6|0,0:0|0:0,0:0:0:0:
13,222,19930,2,0,P|68:212|144:212,1,110.000003356934,8|0,0:0|0:0,0:0:0:0:
383,317,20253,2,0,P|330:306|252:307,1,110.000003356934,2|2,0:0|0:0,0:0:0:0:
201,317,20495,1,0,0:0:0:0:
201,317,20575,1,8,0:0:0:0:
432,160,20737,6,0,P|375:107|278:124,1,165.000005035401,6|0,0:0|0:0,0:0:0:0:
235,164,21059,1,2,0:0:0:0:
160,13,21220,6,0,L|168:126,1,110.000003356934,12|0,0:0|0:0,0:0:0:0:
128,301,21543,2,0,L|222:237,1,110.000003356934,12|0,0:0|0:0,0:0:0:0:
404,186,21866,2,0,L|301:135,1,110.000003356934,12|0,0:0|0:0,0:0:0:0:
218,239,22188,6,0,L|229:306,3,59.9999981689454,2|0|0|0,0:0|0:0|0:0|0:0,0:0:0:0:
130,249,22833,6,0,L|141:182,3,59.9999981689454,2|0|0|0,0:0|0:0|0:0|0:0,0:0:0:0:
373,189,23478,6,0,L|382:248,3,59.9999981689454,2|0|0|0,0:0|0:0|0:0|0:0,0:0:0:0:
284,298,24124,6,0,L|294:239,1,59.9999981689454,2|0,0:0|0:0,0:0:0:0:
199,281,24446,1,0,0:0:0:0:
185,101,24607,5,2,0:0:0:0:
185,101,24688,1,0,0:0:0:0:
185,101,24769,2,0,P|259:130|340:89,1,160,6|0,0:0|0:0,0:0:0:0:
256,32,25253,1,2,0:0:0:0:
122,223,25414,2,0,L|98:53,1,160,6|0,0:0|0:0,0:0:0:0:
390,223,25898,6,0,L|402:115,1,80,6|0,0:0|0:0,0:0:0:0:
353,322,26220,1,2,0:0:0:0:
315,168,26382,1,2,0:0:0:0:
207,278,26543,1,2,0:0:0:0:
473,217,26704,5,8,0:0:0:0:
207,278,26866,1,8,0:0:0:0:
66,306,27349,6,0,P|117:267|217:285,1,160,2|2,0:0|0:0,0:0:0:0:
283,334,27833,1,0,0:0:0:0:
283,334,27995,2,0,P|290:287|289:240,1,80,2|0,0:0|0:0,0:0:0:0:
382,253,28317,2,0,P|366:213|346:181,1,80,2|0,0:0|0:0,0:0:0:0:
306,52,28640,6,0,P|369:26|452:58,1,160,2|2,0:0|0:0,0:0:0:0:
256,126,29124,1,0,0:0:0:0:
216,50,29285,2,0,P|177:38|127:36,1,80,2|0,0:0|0:0,0:0:0:0:
65,89,29607,1,2,0:0:0:0:
65,89,29769,1,0,0:0:0:0:
122,205,29930,6,0,P|139:146|132:92,2,80,2|0|2,0:0|0:0|0:0,0:0:0:0:
82,282,30414,1,0,0:0:0:0:
82,282,30575,2,0,P|120:285|187:301,1,80,2|0,0:0|0:0,0:0:0:0:
235,352,30898,2,0,P|249:294|251:244,1,80,2|0,0:0|0:0,0:0:0:0:
354,298,31220,6,0,P|445:304|491:230,1,160,2|2,0:0|0:0,0:0:0:0:
402,222,31704,1,0,0:0:0:0:
458,89,31866,2,0,P|461:131|477:197,1,80,2|0,0:0|0:0,0:0:0:0:
402,222,32188,1,2,0:0:0:0:
402,222,32349,1,0,0:0:0:0:
331,80,32511,6,0,P|253:54|166:98,1,160,2|2,0:0|0:0,0:0:0:0:
122,146,32995,1,0,0:0:0:0:
122,146,33156,2,0,P|129:185|132:242,2,80,2|0|2,0:0|0:0|0:0,0:0:0:0:
53,87,33640,1,0,0:0:0:0:
69,290,33801,5,2,0:0:0:0:
131,225,33962,1,0,0:0:0:0:
217,232,34124,1,2,0:0:0:0:
270,303,34285,2,0,P|319:315|374:310,1,80,0|2,0:0|0:0,0:0:0:0:
69,290,34607,5,0,0:0:0:0:
217,232,34769,1,2,0:0:0:0:
181,376,34930,1,0,0:0:0:0:
161,111,36220,6,0,P|244:67|360:124,1,220.000006713867,4|0,0:0|1:0,0:0:0:0:
182,212,36704,1,0,1:0:0:0:
135,14,36866,1,0,1:0:0:0:
330,212,37027,1,0,1:0:0:0:
377,14,37189,1,0,1:0:0:0:
330,212,37672,6,0,P|349:274|352:355,1,110.000003356934,6|0,0:0|0:0,0:0:0:0:
256,138,37995,2,0,P|311:123|382:121,1,110.000003356934,8|0,0:0|0:0,0:0:0:0:
439,131,38236,1,0,0:0:0:0:
439,131,38317,1,2,0:0:0:0:
330,212,38478,1,2,0:0:0:0:
298,41,38640,1,8,0:0:0:0:
177,168,38801,6,0,P|121:152|59:146,1,110.000003356934,2|0,0:0|0:0,0:0:0:0:
109,235,39124,1,0,0:0:0:0:
144,70,39285,1,8,0:0:0:0:
275,190,39446,1,2,0:0:0:0:
275,190,39527,1,8,0:0:0:0:
275,190,39607,1,0,0:0:0:0:
144,70,39769,5,2,0:0:0:0:
127,154,39930,1,8,0:0:0:0:
109,235,40091,1,0,0:0:0:0:
338,257,40253,6,0,P|359:196|356:128,1,110.000003356934,2|0,0:0|0:0,0:0:0:0:
190,212,40575,2,0,P|193:267|213:329,1,110.000003356934,8|0,0:0|0:0,0:0:0:0:
254,383,40817,1,0,0:0:0:0:
254,383,40898,1,2,0:0:0:0:
304,255,41059,1,2,0:0:0:0:
104,290,41220,1,8,0:0:0:0:
304,255,41382,6,0,P|312:199|303:122,1,110.000003356934,2|0,0:0|0:0,0:0:0:0:
225,79,41704,1,2,0:0:0:0:
123,230,41866,2,0,P|171:227|254:243,1,110.000003356934,8|2,0:0|0:0,0:0:0:0:
304,255,42107,1,8,0:0:0:0:
304,255,42188,1,0,0:0:0:0:
423,120,42349,5,2,0:0:0:0:
458,148,42429,1,2,0:0:0:0:
475,190,42511,1,8,0:0:0:0:
471,235,42590,1,0,0:0:0:0:
445,273,42671,1,2,0:0:0:0:
405,294,42752,1,0,0:0:0:0:
360,293,42833,6,0,P|352:234|354:169,1,110.000003356934,6|0,0:0|0:0,0:0:0:0:
254,58,43156,2,0,P|262:117|260:182,1,110.000003356934,8|0,0:0|0:0,0:0:0:0:
253,244,43398,1,0,0:0:0:0:
253,244,43478,1,2,0:0:0:0:
340,40,43640,1,2,0:0:0:0:
181,123,43801,1,8,0:0:0:0:
354,184,43962,6,0,P|364:241|361:294,1,110.000003356934,2|0,0:0|0:0,0:0:0:0:
54,243,44285,1,2,0:0:0:0:
258,211,44446,1,8,0:0:0:0:
150,292,44607,1,0,0:0:0:0:
150,292,44688,1,8,0:0:0:0:
150,292,44769,2,0,P|148:237|158:184,1,110.000003356934,2|2,0:0|0:0,0:0:0:0:
260,61,45091,1,8,0:0:0:0:
260,61,45253,1,0,0:0:0:0:
353,187,45414,5,2,0:0:0:0:
169,91,45575,1,2,0:0:0:0:
353,187,45736,2,0,P|416:189|491:159,1,110.000003356934,8|0,0:0|0:0,0:0:0:0:
486,162,45978,1,0,0:0:0:0:
486,162,46059,1,2,0:0:0:0:
418,275,46220,1,2,0:0:0:0:
397,97,46382,1,8,0:0:0:0:
464,362,46543,6,0,P|401:364|326:334,1,110.000003356934,6|0,0:0|0:0,0:0:0:0:
138,213,46866,1,0,1:0:0:0:
306,143,47027,1,0,1:0:0:0:
277,324,47188,1,0,1:0:0:0:
55,208,47349,5,0,1:0:0:0:
374,246,47511,1,0,1:0:0:0:
98,54,47995,6,0,P|103:94|104:153,1,80,2|0,0:3|0:0,0:0:0:0:
55,208,48317,2,0,P|110:224|153:217,1,80,2|0,0:0|0:0,0:0:0:0:
201,150,48640,2,0,P|279:109|357:134,1,160,2|2,0:0|0:0,0:0:0:0:
429,173,49124,1,0,0:0:0:0:
352,297,49285,6,0,L|344:204,1,80,2|0,0:0|0:0,0:0:0:0:
429,173,49607,2,0,L|436:253,1,80,2|0,0:0|0:0,0:0:0:0:
269,332,49930,2,0,L|255:169,1,160,2|2,0:0|0:0,0:0:0:0:
242,77,50414,1,0,0:0:0:0:
406,107,50575,6,0,P|360:120|321:113,1,80,2|0,0:0|0:0,0:0:0:0:
242,77,50898,2,0,P|202:73|164:85,1,80,2|0,0:0|0:0,0:0:0:0:
86,139,51220,2,0,P|73:101|76:55,1,80,2|0,0:0|0:0,0:0:0:0:
174,180,51543,1,2,0:0:0:0:
174,180,51704,1,0,0:0:0:0:
145,270,51866,6,0,P|190:271|241:249,1,80,2|0,0:0|0:0,0:0:0:0:
303,120,52188,2,0,P|293:161|300:221,1,80,2|0,0:0|0:0,0:0:0:0:
377,376,52511,1,2,0:0:0:0:
399,221,52672,1,0,0:0:0:0:
307,290,52833,1,2,0:0:0:0:
467,309,52995,1,0,0:0:0:0:
399,221,53156,5,8,0:0:0:0:
256,176,55736,5,6,0:0:0:0:
453,144,55898,1,2,0:0:0:0:
362,219,56059,2,0,P|349:157|346:90,1,110.000003356934,8|0,0:0|0:0,0:0:0:0:
348,37,56301,1,8,0:0:0:0:
348,37,56382,1,0,0:0:0:0:
256,176,56543,1,2,0:0:0:0:
453,144,56705,1,8,0:0:0:0:
379,306,56866,1,0,0:0:0:0:
379,306,56946,1,0,0:0:0:0:
379,306,57027,5,6,0:0:0:0:
348,109,57188,1,0,0:0:0:0:
201,234,57349,2,0,P|136:230|80:216,1,110.000003356934,8|0,0:0|0:0,0:0:0:0:
25,198,57591,1,8,0:0:0:0:
25,198,57672,1,0,0:0:0:0:
159,331,57833,1,2,0:0:0:0:
257,140,57995,1,8,0:0:0:0:
353,331,58156,1,0,0:0:0:0:
353,331,58236,1,0,0:0:0:0:
353,331,58317,6,0,P|417:331|483:303,1,110.000003356934,4|0,0:0|0:0,0:0:0:0:
256,109,58640,5,0,1:0:0:0:
256,369,58801,1,0,1:0:0:0:
123,154,58962,5,0,1:0:0:0:
389,154,59124,1,0,1:0:0:0:
91,273,59285,5,0,1:0:0:0:
421,273,59446,1,0,1:0:0:0:
421,273,59930,6,0,P|377:192|358:314,1,299.999990844727,4|0,0:0|0:0,0:0:0:0:
437,131,60898,6,0,P|362:111|292:132,1,119.999996337891,2|0,0:0|0:0,0:0:0:0:
143,222,61220,2,0,L|166:349,1,119.999996337891,8|0,0:0|0:0,0:0:0:0:
190,118,61543,2,0,P|131:111|75:131,1,119.999996337891,2|0,0:0|0:0,0:0:0:0:
347,340,61866,2,0,L|369:222,1,119.999996337891,8|0,0:0|0:0,0:0:0:0:
249,15,62188,6,0,P|191:103|278:213,1,239.999992675781,2|8,0:0|0:0,0:0:0:0:
368,222,62672,1,0,0:0:0:0:
156,341,62833,2,0,P|146:275|145:208,1,119.999996337891,2|0,0:0|0:0,0:0:0:0:
367,221,63156,2,0,P|365:281|356:341,1,119.999996337891,8|0,0:0|0:0,0:0:0:0:
134,118,63478,5,6,0:0:0:0:
134,118,63640,1,0,0:0:0:0:
282,279,63801,1,8,0:0:0:0:
56,328,63962,1,0,0:0:0:0:
273,145,64124,5,6,0:0:0:0:
273,145,64286,1,0,0:0:0:0:
183,376,64446,1,8,0:0:0:0:
22,199,64608,1,0,0:0:0:0:
282,279,64769,5,6,0:0:0:0:
165,109,64930,2,0,P|165:74|170:33,2,59.9999981689454,8|8|8,0:0|0:0|0:0,0:0:0:0:
366,230,65253,1,8,0:3:0:0:
329,185,65333,1,8,0:3:0:0:
274,170,65414,1,8,0:3:0:0:
224,195,65495,1,0,0:0:0:0:
172,218,65575,1,4,0:3:0:0:
116,203,65656,1,4,0:3:0:0:
82,158,65736,6,0,P|71:207|73:240,1,59.9999981689454,4|4,0:3|0:3,0:0:0:0:
190,311,65898,2,0,P|187:281|180:251,1,59.9999981689454,4|4,0:3|0:3,0:0:0:0:
165,109,66059,6,0,P|224:94|286:96,1,119.999996337891,6|0,0:0|0:0,0:0:0:0:
143,244,66382,1,8,0:0:0:0:
42,86,66543,1,0,0:0:0:0:
77,326,66704,2,0,P|151:343|224:326,1,119.999996337891,2|0,0:0|0:0,0:0:0:0:
398,251,67027,2,0,L|380:380,1,119.999996337891,8|0,0:0|0:0,0:0:0:0:
201,131,67349,6,0,B|245:175|245:175|463:148,1,239.999992675781,2|8,0:0|0:0,0:0:0:0:
494,228,67833,1,0,0:0:0:0:
273,339,67995,5,2,0:0:0:0:
238,312,68075,1,2,0:0:0:0:
229,268,68156,1,2,0:0:0:0:
248,228,68236,1,0,0:0:0:0:
305,207,68317,5,8,0:0:0:0:
325,151,68398,1,2,0:0:0:0:
301,97,68478,1,0,0:0:0:0:
243,80,68559,1,2,0:0:0:0:
188,102,68640,6,0,P|126:102|68:90,1,119.999996337891,6|0,0:0|0:0,0:0:0:0:
348,233,68962,1,8,0:0:0:0:
258,36,69124,1,0,0:0:0:0:
164,233,69285,1,2,0:0:0:0:
164,233,69446,1,0,0:0:0:0:
324,102,69607,2,0,P|386:102|444:90,1,119.999996337891,8|0,0:0|0:0,0:0:0:0:
512,63,69849,1,0,0:0:0:0:
512,63,69930,5,6,0:0:0:0:
351,267,70091,1,0,0:0:0:0:
257,13,70253,1,8,0:0:0:0:
122,186,70414,1,0,0:0:0:0:
122,186,70495,1,0,0:0:0:0:
122,186,70575,2,0,L|198:183,1,59.9999981689454,2|0,0:0|0:0,0:0:0:0:
382,169,70736,5,8,0:3:0:0:
435,206,70816,1,8,0:3:0:0:
455,269,70897,1,4,0:3:0:0:
434,332,70977,1,4,0:3:0:0:
377,368,71058,1,4,0:3:0:0:
311,362,71139,1,4,0:3:0:0:
264,319,71220,6,0,P|206:311|110:326,1,119.999996337891,6|0,0:0|0:0,0:0:0:0:
41,123,71543,2,0,P|106:108|174:112,1,119.999996337891,8|0,0:0|0:0,0:0:0:0:
353,233,71866,1,2,0:0:0:0:
353,233,72027,1,0,0:0:0:0:
257,58,72188,1,8,0:0:0:0:
159,233,72349,1,0,0:0:0:0:
361,93,72511,6,0,P|426:93|468:256,1,239.999992675781,2|8,0:0|0:0,0:0:0:0:
510,37,72995,1,0,0:0:0:0:
395,187,73156,2,0,P|386:247|391:307,1,119.999996337891,2|0,0:0|0:0,0:0:0:0:
121,305,73478,2,0,P|125:246|117:187,1,119.999996337891,8|0,0:0|0:0,0:0:0:0:
322,39,73801,5,6,0:0:0:0:
322,39,73962,1,0,0:0:0:0:
256,260,74124,1,8,0:0:0:0:
196,43,74285,1,0,0:0:0:0:
391,162,74446,5,6,0:0:0:0:
391,162,74607,1,0,0:0:0:0:
121,162,74769,1,8,0:0:0:0:
258,371,74930,1,0,0:0:0:0:
257,127,75091,5,6,0:0:0:0:
91,248,75253,1,8,0:3:0:0:
51,219,75333,1,8,0:3:0:0:
31,173,75414,1,4,0:3:0:0:
39,124,75494,1,4,0:3:0:0:
70,86,75575,1,4,0:3:0:0:
117,70,75656,1,4,0:3:0:0:
165,81,75736,5,6,0:0:0:0:
164,96,75816,1,2,0:0:0:0:
162,111,75897,1,2,0:0:0:0:
161,126,75977,1,2,0:0:0:0:
161,141,76059,2,0,L|175:11,1,119.999996337891,4|0,0:0|0:0,0:0:0:0:
322,292,76382,5,6,0:0:0:0:
322,292,76704,5,0,0:0:0:0:
256,219,76866,1,2,0:0:0:0:
158,370,77027,5,2,0:0:0:0:
242,300,77188,1,2,0:0:0:0:
87,192,77349,5,2,0:0:0:0:
159,287,77511,1,2,0:0:0:0:
284,113,77672,5,2,0:0:0:0:
170,203,77833,1,2,0:0:0:0:
375,347,77995,5,2,0:0:0:0:
256,196,78156,1,2,0:0:0:0:
137,347,78317,5,2,0:0:0:0:
403,200,78478,1,2,0:0:0:0:
109,200,78640,5,2,0:0:0:0:
375,347,78801,1,2,0:0:0:0:
321,45,78962,5,2,0:0:0:0:
181,342,79124,1,2,0:0:0:0:
191,45,79285,5,2,0:0:0:0:
331,342,79447,1,2,0:0:0:0:
333,32,79607,5,2,0:0:0:0:
173,356,79769,1,2,0:0:0:0:
179,32,79930,5,2,0:0:0:0:
339,356,80092,1,2,0:0:0:0:
254,187,80253,5,2,0:0:0:0:
86,308,80575,6,0,P|72:237|75:158,1,119.999996337891,4|8,0:0|0:3,0:0:0:0:
84,117,80817,1,8,0:3:0:0:
84,117,80898,1,4,0:3:0:0:
168,290,81059,2,0,P|167:319|159:353,2,59.9999981689454,4|4|2,0:3|0:3|0:0,0:0:0:0:
6,60,81382,6,0,P|76:23|182:119,1,220.000006713867,6|0,0:0|0:0,0:0:0:0:
102,361,81866,2,0,P|90:301|90:211,1,110.000003356934,8|0,0:0|0:0,0:0:0:0:
97,183,82107,1,0,0:0:0:0:
97,183,82188,1,2,0:0:0:0:
182,297,82349,1,2,0:0:0:0:
5,318,82511,1,8,0:0:0:0:
179,97,82672,6,0,P|253:24|352:59,1,220.000006713867,6|0,0:0|0:0,0:0:0:0:
107,168,83156,2,0,P|89:114|91:45,1,110.000003356934,8|0,0:0|0:0,0:0:0:0:
132,251,83478,1,2,0:0:0:0:
132,251,83640,1,2,0:0:0:0:
273,110,83801,1,8,0:0:0:0:
312,319,83962,6,0,P|434:373|504:295,1,220.000006713867,6|0,0:0|0:0,0:0:0:0:
310,221,84446,2,0,P|253:210|190:216,1,110.000003356934,8|0,0:0|0:0,0:0:0:0:
404,284,84769,2,0,P|416:225|401:127,1,110.000003356934,2|2,0:0|0:0,0:0:0:0:
387,108,85011,1,0,0:0:0:0:
387,108,85091,1,8,0:0:0:0:
198,318,85253,6,0,P|111:377|45:346,1,165.000005035401,6|0,0:0|0:0,0:0:0:0:
1,320,85575,1,2,0:0:0:0:
176,136,85736,6,0,L|191:248,1,110.000003356934,12|0,0:0|0:0,0:0:0:0:
402,235,86059,2,0,L|304:184,1,110.000003356934,12|0,0:0|0:0,0:0:0:0:
210,376,86382,2,0,L|302:316,1,110.000003356934,12|0,0:0|0:0,0:0:0:0:
190,245,86704,6,0,L|114:231,3,59.9999981689454,2|0|0|0,0:0|0:0|0:0|0:0,0:0:0:0:
185,156,87349,6,0,L|261:142,3,59.9999981689454,2|0|0|0,0:0|0:0|0:0|0:0,0:0:0:0:
91,303,87995,6,0,L|98:362,3,59.9999981689454,2|0|0|0,0:0|0:0|0:0|0:0,0:0:0:0:
179,321,88640,6,0,L|186:261,1,59.9999981689454,2|0,0:0|0:0,0:0:0:0:
236,382,88962,1,0,0:0:0:0:
330,213,89124,5,2,0:0:0:0:
330,213,89204,1,0,0:0:0:0:
330,213,89285,2,0,P|387:163|468:178,1,160,6|0,0:0|0:0,0:0:0:0:
414,253,89769,1,2,0:0:0:0:
255,16,89930,2,0,L|257:185,1,160,6|0,0:0|0:0,0:0:0:0:
46,175,90414,6,0,P|123:162|155:172,1,80,6|0,0:0|0:0,0:0:0:0:
256,175,90736,1,2,0:0:0:0:
94,250,90898,1,2,0:0:0:0:
105,71,91059,1,2,0:0:0:0:
217,323,91220,5,8,0:0:0:0:
357,72,91382,1,8,0:0:0:0:
256,192,91704,12,0,96704,0:0:0:0:
