osu file format v14

[General]
AudioFilename: audio.mp3
AudioLeadIn: 0
PreviewTime: 36128
Countdown: 0
SampleSet: Soft
StackLeniency: 0.5
Mode: 0
LetterboxInBreaks: 0
WidescreenStoryboard: 1

[Editor]
Bookmarks: 1276,2687,13981,25275,36570,59158,70452,81746,93040,104334,126923,138217,160805,170687
DistanceSpacing: 1.2
BeatDivisor: 4
GridSize: 4
TimelineZoom: 2.1

[Metadata]
Title:Good-bye sengen
TitleUnicode:グッバイ宣言
Artist:mafumafu
ArtistUnicode:まふまふ
Creator:Mononymous
Version:Normal
Source:
Tags:Good bye Goodbye declaration v-flower vflower v flower vocaloid ボーカロイド japanese pop jpop j-pop utaite cover male vocal
BeatmapID:3053635
BeatmapSetID:1489661

[Difficulty]
HPDrainRate:4
CircleSize:3.4
OverallDifficulty:4
ApproachRate:5
SliderMultiplier:1
SliderTickRate:1

[Events]
//Background and Video events
0,0,"Don't Mind Me.png",0,0
//Break Periods
2,70452,80546
//Storyboard Layer 0 (Background)
//Storyboard Layer 1 (Fail)
//Storyboard Layer 2 (Pass)
//Storyboard Layer 3 (Foreground)
//Storyboard Layer 4 (Overlay)
//Storyboard Sound Samples

[TimingPoints]
1276,352.941176470588,4,2,1,60,1,0
1276,-100,4,2,1,60,0,0
2687,-100,4,2,1,70,0,0
13981,-100,4,2,1,60,0,0
25275,-100,4,2,1,65,0,0
30923,-100,4,2,1,65,0,0
36570,-100,4,2,1,80,0,1
67628,-100,4,2,1,60,0,0
70452,-100,4,2,1,70,0,0
81746,-100,4,2,1,60,0,0
93040,-100,4,2,1,65,0,0
98687,-100,4,2,1,70,0,0
104334,-100,4,2,1,65,0,0
114923,-100,4,2,1,70,0,0
115628,-100,4,2,1,70,0,0
125511,-100,4,2,1,70,0,0
126923,-100,4,2,1,60,0,0
132393,-100,4,2,1,75,0,0
135217,-100,4,2,1,80,0,0
136099,-100,4,2,1,5,0,0
136805,-100,4,2,1,40,0,0
137158,-100,4,2,1,50,0,0
137511,-100,4,2,1,60,0,0
137687,-100,4,2,1,65,0,0
137864,-100,4,2,1,70,0,0
138040,-100,4,2,1,75,0,0
138217,-100,4,2,1,80,0,1
151628,-100,4,2,1,85,0,1
153570,-100,4,2,1,80,0,1
165217,-100,4,2,1,85,0,1
169275,-100,4,2,1,70,0,0
169981,-100,4,2,1,60,0,0
170687,-100,4,2,1,50,0,0

[Colours]
Combo1 : 239,210,143
Combo2 : 198,198,198
Combo3 : 145,200,200
Combo4 : 255,53,53

[HitObjects]
159,78,1276,6,0,L|257:96,1,100,2|2,3:2|3:2,0:0:0:0:
376,79,1981,2,0,P|384:124|361:181,1,100,0|2,3:0|0:0,0:0:0:0:
255,221,2687,6,0,L|152:199,1,100,6|10,1:2|1:2,0:0:0:0:
99,180,3217,1,2,0:0:0:0:
3,248,3570,1,2,1:2:0:0:
3,248,3746,2,0,P|-2:297|17:342,1,100,10|2,1:2|1:2,0:0:0:0:
70,365,4275,1,2,0:0:0:0:
179,316,4628,1,2,0:0:0:0:
179,316,4805,2,0,L|280:336,1,100,2|10,1:2|1:2,0:0:0:0:
374,264,5511,6,0,P|391:218|385:169,1,100,2|10,1:2|0:0,0:0:0:0:
351,120,6040,2,0,L|360:66,2,50,2|0|2,0:0|1:0|0:0,0:0:0:0:
292,136,6570,2,0,P|230:131|184:156,1,100,10|2,0:0|1:2,0:0:0:0:
95,210,7275,6,0,L|35:194,2,50,10|2|6,0:0|0:0|0:0,0:0:0:0:
193,278,7981,2,0,L|253:264,1,50,10|2,0:0|1:2,0:0:0:0:
296,241,8334,6,0,L|399:259,1,100,6|10,1:2|0:0,0:0:0:0:
452,275,8864,1,2,0:0:0:0:
501,167,9217,1,2,1:2:0:0:
501,167,9393,2,0,P|500:117|472:76,1,100,10|2,1:2|1:2,0:0:0:0:
418,49,9923,1,2,0:0:0:0:
313,106,10275,1,2,0:0:0:0:
313,106,10452,2,0,L|209:85,1,100,2|10,1:2|0:0,0:0:0:0:
108,27,11158,6,0,P|73:61|62:112,1,100,2|10,1:2|1:2,0:0:0:0:
98,157,11687,1,2,0:0:0:0:
200,220,12040,2,0,L|262:210,1,50,2|10,0:0|0:0,0:0:0:0:
308,200,12393,1,2,0:0:0:0:
308,200,12570,2,0,P|356:201|386:239,1,100,2|10,1:2|0:0,0:0:0:0:
409,295,13099,1,2,0:0:0:0:
493,210,13452,1,2,0:0:0:0:
493,210,13628,2,0,L|487:160,1,50,2|2,3:0|3:0,0:0:0:0:
470,102,13981,6,0,P|411:59|342:81,1,150,6|2,1:2|0:0,0:0:0:0:
254,161,14864,1,0,0:0:0:0:
254,161,15040,2,0,L|236:6,1,150,2|2,1:2|0:0,0:0:0:0:
88,114,16099,2,0,L|96:169,1,50,2|2,1:2|0:0,0:0:0:0:
138,205,16452,2,0,L|130:260,1,50,2|2,1:2|0:0,0:0:0:0:
99,305,16805,6,0,P|146:318|233:276,1,150,2|2,1:2|0:0,0:0:0:0:
352,246,17687,1,2,0:0:0:0:
352,246,17864,2,0,L|332:86,1,150,2|2,1:2|0:0,0:0:0:0:
300,47,18570,1,2,1:2:0:0:
180,37,18923,1,2,1:2:0:0:
125,143,19275,1,2,1:2:0:0:
199,237,19628,6,0,L|275:208,2,75,6|2|2,1:2|0:0|0:0,0:0:0:0:
150,273,20334,2,0,L|74:244,2,75,2|2|2,1:2|0:0|0:0,0:0:0:0:
185,321,21040,2,0,L|285:294,1,100,2|0,1:2|1:0,0:0:0:0:
371,215,21746,1,2,1:2:0:0:
483,257,22099,1,2,1:2:0:0:
508,374,22452,6,0,P|460:373|423:341,1,100,2|2,1:2|1:2,0:0:0:0:
315,284,23158,2,0,P|266:284|229:316,1,100,2|2,1:2|1:2,0:0:0:0:
116,359,23864,1,2,1:2:0:0:
5,311,24217,1,2,1:2:0:0:
56,202,24570,2,0,L|67:143,1,50,2|0,1:2|0:0,0:0:0:0:
78,95,24923,1,8,0:0:0:0:
180,32,25275,6,0,L|195:134,1,100,6|8,0:0|0:0,0:0:0:0:
174,188,25805,2,0,P|219:204|264:185,1,100,2|2,0:0|0:0,0:0:0:0:
294,132,26334,1,10,0:0:0:0:
375,227,26687,1,0,1:0:0:0:
375,227,26864,2,0,L|434:215,2,50,2|10|2,1:2|0:0|0:0,0:0:0:0:
318,247,27393,1,2,1:2:0:0:
215,309,27746,1,10,0:0:0:0:
123,230,28099,6,0,P|154:193|202:181,1,100,2|8,0:0|0:0,0:0:0:0:
256,208,28628,2,0,P|287:245|335:257,1,100,2|0,0:0|0:0,0:0:0:0:
388,227,29158,1,8,0:0:0:0:
481,150,29511,1,0,1:0:0:0:
481,150,29687,2,0,L|473:99,2,50,2|10|2,0:0|0:0|0:0,0:0:0:0:
504,205,30217,1,2,1:2:0:0:
439,305,30570,1,10,0:0:0:0:
320,288,30923,6,0,L|245:297,2,75,6|2|2,0:0|0:0|0:0,0:0:0:0:
351,237,31628,2,0,L|425:246,2,75,2|2|2,1:2|0:0|0:0,0:0:0:0:
305,197,32334,1,2,1:2:0:0:
408,135,32687,2,0,P|402:100|391:81,1,50,8|2,0:0|0:0,0:0:0:0:
373,31,33040,2,0,L|423:37,2,50,2|2|10,1:2|0:0|0:0,0:0:0:0:
316,9,33570,6,0,P|271:30|252:75,1,100,4|2,0:0|1:2,0:0:0:0:
303,188,34275,1,2,0:0:0:0:
303,188,34452,2,0,L|273:289,1,100,2|10,1:2|1:2,0:0:0:0:
252,339,34981,1,6,1:2:0:0:
364,381,35334,1,2,1:2:0:0:
443,291,35687,1,2,1:2:0:0:
443,291,35864,1,2,1:2:0:0:
203,276,36570,6,0,L|212:220,1,50,6|2,1:2|0:0,0:0:0:0:
225,168,36923,2,0,L|216:112,1,50,10|2,0:0|0:0,0:0:0:0:
176,74,37275,1,2,1:2:0:0:
294,42,37628,1,10,0:0:0:0:
294,42,37805,2,0,P|342:37|372:79,1,100,2|2,0:0|0:0,0:0:0:0:
383,133,38334,1,10,0:0:0:0:
485,70,38687,2,0,L|492:17,2,50,2|2|10,1:2|0:0|0:0,0:0:0:0:
509,130,39217,5,2,0:0:0:0:
509,130,39393,2,0,P|473:156|456:210,1,100,2|8,1:2|0:0,0:0:0:0:
453,271,39923,1,2,0:0:0:0:
453,271,40099,2,0,L|346:291,1,100,2|8,1:2|0:0,0:0:0:0:
296,296,40628,1,2,0:0:0:0:
296,296,40805,1,2,1:2:0:0:
178,245,41158,1,10,0:0:0:0:
252,151,41511,2,0,L|300:161,1,50,2|8,1:2|0:0,0:0:0:0:
359,173,41864,1,8,0:0:0:0:
449,94,42217,6,0,L|390:73,1,50,2|2,1:2|0:0,0:0:0:0:
356,37,42570,2,0,L|296:49,1,50,10|2,0:0|0:0,0:0:0:0:
248,60,42923,1,2,1:2:0:0:
139,23,43275,1,10,0:0:0:0:
139,23,43452,2,0,P|116:62|121:120,1,100,2|2,0:0|0:0,0:0:0:0:
157,161,43981,1,10,0:0:0:0:
63,236,44334,2,0,L|6:224,2,50,2|2|10,1:2|0:0|0:0,0:0:0:0:
121,266,44864,5,2,0:0:0:0:
121,266,45040,2,0,L|237:247,1,100,2|8,1:2|0:0,0:0:0:0:
279,240,45570,1,2,0:0:0:0:
279,240,45746,2,0,P|313:208|324:142,1,100,2|10,1:2|0:0,0:0:0:0:
259,57,46452,2,0,L|197:46,1,50,2|2,1:2|0:0,0:0:0:0:
153,27,46805,2,0,L|91:38,1,50,10|2,0:0|0:0,0:0:0:0:
49,62,47158,2,0,L|69:170,1,100,2|8,1:2|0:1,0:0:0:0:
112,271,47864,6,0,L|166:258,1,50,6|2,1:2|0:0,0:0:0:0:
212,228,48217,2,0,L|266:241,1,50,10|2,0:0|0:0,0:0:0:0:
315,264,48570,1,2,1:2:0:0:
432,239,48923,1,10,0:0:0:0:
432,239,49099,2,0,P|461:278|467:327,1,100,2|2,0:0|0:0,0:0:0:0:
416,360,49628,1,10,0:0:0:0:
309,303,49981,2,0,L|258:312,2,50,2|2|10,1:2|0:0|0:0,0:0:0:0:
358,267,50511,5,2,0:0:0:0:
358,267,50687,2,0,P|352:220|315:183,1,100,2|8,1:2|0:0,0:0:0:0:
257,167,51217,1,2,0:0:0:0:
257,167,51393,2,0,L|150:187,1,100,2|8,1:2|0:0,0:0:0:0:
100,203,51923,1,2,0:0:0:0:
100,203,52099,1,2,1:2:0:0:
26,297,52452,1,10,0:0:0:0:
121,370,52805,2,0,L|230:344,1,100,2|8,1:2|0:0,0:0:0:0:
338,356,53511,6,0,L|349:306,1,50,2|2,1:2|0:0,0:0:0:0:
393,266,53864,2,0,L|382:216,1,50,10|2,0:0|0:0,0:0:0:0:
349,166,54217,1,2,1:2:0:0:
279,74,54570,1,10,0:0:0:0:
279,74,54746,2,0,P|229:69|185:92,1,100,2|2,0:0|0:0,0:0:0:0:
143,134,55275,1,10,0:0:0:0:
39,73,55628,2,0,L|48:16,2,50,2|2|10,1:0|0:0|0:0,0:0:0:0:
11,126,56158,5,2,0:0:0:0:
11,126,56334,2,0,P|61:139|83:194,1,100,2|8,1:2|0:0,0:0:0:0:
85,239,56864,1,2,0:0:0:0:
85,239,57040,2,0,L|192:213,1,100,2|8,1:2|0:0,0:0:0:0:
301,230,57746,6,0,L|314:171,2,50,6|2|10,1:2|0:0|0:1,0:0:0:0:
257,270,58275,1,2,1:2:0:0:
257,270,58452,2,0,L|276:375,1,100,10|0,0:1|1:0,0:0:0:0:
158,338,59158,6,0,P|100:336|64:300,1,100,6|8,0:0|0:0,0:0:0:0:
34,261,59687,2,0,L|53:153,1,100,2|0,0:0|1:0,0:0:0:0:
71,105,60217,1,10,0:0:0:0:
185,156,60570,1,0,1:0:0:0:
185,156,60746,2,0,L|244:144,2,50,2|10|2,0:0|0:0|0:0,0:0:0:0:
143,202,61275,2,0,P|158:248|200:272,1,100,2|10,1:2|0:0,0:0:0:0:
308,326,61981,6,0,L|411:304,1,100,6|8,0:0|0:0,0:0:0:0:
461,280,62511,2,0,P|479:231|473:183,1,100,2|0,0:0|1:0,0:0:0:0:
427,145,63040,1,10,0:0:0:0:
308,166,63393,1,0,1:0:0:0:
308,166,63570,2,0,L|245:151,2,50,2|10|2,0:0|0:0|0:0,0:0:0:0:
344,214,64099,2,0,P|327:269|289:303,1,100,2|10,1:2|0:0,0:0:0:0:
189,350,64805,6,0,L|84:329,1,100,6|8,0:0|0:0,0:0:0:0:
36,301,65334,2,0,P|35:252|51:205,1,100,2|0,0:0|1:0,0:0:0:0:
92,160,65864,1,10,0:0:0:0:
198,103,66217,1,0,1:0:0:0:
198,103,66393,2,0,L|189:49,2,50,2|10|2,0:0|0:0|0:0,0:0:0:0:
234,151,66923,5,2,1:2:0:0:
234,151,67099,2,0,P|278:137|334:148,1,100,2|2,0:0|0:0,0:0:0:0:
376,184,67628,2,0,P|410:137|405:81,1,100,2|2,1:2|0:0,0:0:0:0:
325,11,68334,1,2,1:2:0:0:
220,69,68687,1,2,1:2:0:0:
252,184,69040,1,2,1:2:0:0:
36,203,81746,6,0,P|24:151|79:74,1,150,6|2,1:2|0:0,0:0:0:0:
184,25,82628,1,0,0:0:0:0:
184,25,82805,2,0,L|332:50,1,150,2|2,1:2|0:0,0:0:0:0:
450,69,83687,1,0,0:0:0:0:
450,69,83864,2,0,L|480:16,2,50,2|2|2,1:2|0:0|1:2,0:0:0:0:
411,115,84393,5,2,0:0:0:0:
411,115,84570,2,0,L|460:264,1,150,2|2,1:2|0:0,0:0:0:0:
363,331,85452,1,2,0:0:0:0:
363,331,85628,2,0,P|289:335|230:291,1,150,2|2,1:2|0:0,0:0:0:0:
213,233,86334,1,2,1:2:0:0:
113,299,86687,1,2,1:2:0:0:
6,244,87040,1,2,1:2:0:0:
43,129,87393,6,0,L|28:55,2,75,6|2|2,1:2|0:0|0:0,0:0:0:0:
89,167,88099,2,0,L|74:240,2,75,2|2|2,1:2|0:0|0:0,0:0:0:0:
138,134,88805,2,0,P|183:113|230:126,1,100,2|0,1:2|1:0,0:0:0:0:
341,171,89511,2,0,L|398:161,2,50,2|2|2,1:2|0:0|1:2,0:0:0:0:
292,206,90040,5,2,0:0:0:0:
292,206,90217,2,0,P|286:256|307:300,1,100,2|2,1:2|1:2,0:0:0:0:
404,370,90923,2,0,P|424:325|419:276,1,100,2|2,1:2|1:2,0:0:0:0:
390,223,91452,1,2,0:0:0:0:
390,223,91628,6,0,L|406:121,1,100,2|2,1:2|1:2,0:0:0:0:
436,72,92158,1,2,0:0:0:0:
436,72,92334,2,0,P|386:88|337:83,1,100,2|2,1:2|1:2,0:0:0:0:
231,30,93040,6,0,P|218:92|229:136,1,100,6|8,0:0|0:0,0:0:0:0:
262,174,93570,2,0,L|153:153,1,100,2|0,0:0|0:0,0:0:0:0:
104,145,94099,1,10,0:0:0:0:
35,53,94452,1,0,1:0:0:0:
35,53,94628,2,0,L|23:-7,2,50,2|10|2,0:0|0:0|0:0,0:0:0:0:
2,103,95158,1,2,1:2:0:0:
45,214,95511,1,10,0:0:0:0:
162,190,95864,6,0,P|157:239|138:285,1,100,2|8,0:0|0:0,0:0:0:0:
101,333,96393,2,0,L|224:309,1,100,2|0,0:0|0:0,0:0:0:0:
258,304,96923,1,10,0:0:0:0:
361,243,97275,1,0,1:0:0:0:
361,243,97452,2,0,L|417:261,2,50,2|10|2,0:0|0:0|0:0,0:0:0:0:
313,205,97981,2,0,L|257:223,2,50,2|10|8,1:2|0:0|0:0,0:0:0:0:
435,188,98687,5,4,0:0:0:0:
435,188,98864,2,0,P|435:138|460:95,1,100,2|2,0:0|0:0,0:0:0:0:
497,48,99393,2,0,L|401:16,1,100,2|10,1:2|0:0,0:0:0:0:
347,34,99923,1,2,0:0:0:0:
347,34,100099,2,0,L|268:52,2,75,2|2|2,1:0|0:0|0:0,0:0:0:0:
402,16,100805,1,2,1:2:0:0:
496,89,101158,1,10,0:0:0:0:
411,174,101511,6,0,L|312:149,1,100,6|10,1:2|1:2,0:0:0:0:
235,58,102217,2,0,P|180:65|144:110,1,100,2|10,1:2|1:2,0:0:0:0:
55,170,102923,2,0,L|79:276,1,100,14|8,1:0|1:0,0:0:0:0:
176,334,103628,2,0,L|163:398,2,50,2|0|0,1:2|1:0|1:0,0:0:0:0:
190,278,104158,5,0,1:0:0:0:
190,278,104334,1,4,1:2:0:0:
264,183,104687,2,0,P|313:181|357:203,1,100,2|0,1:2|0:0,0:0:0:0:
462,263,105393,1,2,1:2:0:0:
508,152,105746,1,0,1:0:0:0:
422,67,106099,1,0,0:0:0:0:
305,95,106452,2,0,L|202:80,1,100,2|2,1:2|1:2,0:0:0:0:
165,43,106981,5,2,0:0:0:0:
165,43,107158,2,0,P|121:64|71:63,1,100,2|0,1:2|1:0,0:0:0:0:
16,35,107687,2,0,L|34:141,1,100,2|0,0:0|1:0,0:0:0:0:
41,193,108217,1,2,0:0:0:0:
107,293,108570,2,0,L|95:351,2,50,0|2|2,1:0|0:0|1:2,0:0:0:0:
155,256,109099,1,2,0:0:0:0:
155,256,109275,2,0,P|203:269|251:255,1,100,2|2,1:2|1:2,0:0:0:0:
322,159,109981,6,0,P|369:145|417:157,1,100,2|0,1:2|1:0,0:0:0:0:
453,205,110511,2,0,L|431:308,1,100,2|0,0:0|0:0,0:0:0:0:
413,359,111040,1,2,1:2:0:0:
325,276,111393,2,0,L|243:289,2,75,2|2|2,1:2|0:0|0:0,0:0:0:0:
366,232,112099,2,0,L|448:245,2,75,2|2|2,0:0|0:0|0:0,0:0:0:0:
319,193,112805,6,0,P|317:144|342:102,1,100,2|2,0:0|1:2,0:0:0:0:
383,58,113334,1,2,0:0:0:0:
383,58,113511,2,0,L|275:69,1,100,2|2,1:2|1:2,0:0:0:0:
182,133,114217,2,0,P|148:117|126:87,2,75,2|2|2,1:2|0:0|0:0,0:0:0:0:
231,175,114923,1,12,0:1:0:0:
231,175,115099,2,0,L|239:224,2,50,8|12|8,0:1|1:0|0:1,0:0:0:0:
270,129,115628,1,4,0:0:0:0:
369,196,115981,6,0,L|418:184,2,50,2|2|2,1:0|0:0|1:2,0:0:0:0:
323,235,116511,1,2,0:0:0:0:
323,235,116687,1,2,1:2:0:0:
215,181,117040,2,0,L|203:132,2,50,2|2|2,1:2|0:0|1:2,0:0:0:0:
180,231,117570,1,2,0:0:0:0:
180,231,117746,1,2,1:2:0:0:
116,333,118099,1,2,1:2:0:0:
0,298,118452,6,0,P|-7:248|10:202,1,100,2|2,1:2|1:2,0:0:0:0:
123,163,119158,2,0,P|129:113|112:67,1,100,2|2,1:2|1:2,0:0:0:0:
71,23,119687,1,2,0:0:0:0:
23,133,120040,2,0,L|35:189,2,50,2|2|2,0:0|1:2|0:0,0:0:0:0:
134,83,120746,1,2,0:0:0:0:
134,83,120923,2,0,L|194:97,1,50,2|2,1:2|0:0,0:0:0:0:
238,71,121275,6,0,P|274:106|290:158,1,100,2|0,1:2|1:0,0:0:0:0:
325,201,121805,2,0,P|317:250|285:294,1,100,2|2,0:0|0:0,0:0:0:0:
234,314,122333,1,2,1:2:0:0:
348,362,122687,1,0,1:0:0:0:
348,362,122864,2,0,P|394:333|440:336,1,100,2|2,0:0|0:0,0:0:0:0:
504,236,123570,1,2,0:0:0:0:
504,236,123746,2,0,L|489:137,1,100,2|0,0:0|1:0,0:0:0:0:
467,77,124275,1,2,0:0:0:0:
351,88,124628,5,0,0:0:0:0:
351,88,124805,2,0,L|335:28,2,50,2|2|2,1:2|0:0|1:2,0:0:0:0:
253,158,125511,2,0,L|248:207,2,50,4|8|8,0:0|0:1|0:1,0:0:0:0:
213,118,126040,1,8,1:0:0:0:
213,118,126217,2,0,P|165:95|115:103,1,100,8|12,0:1|0:1,0:0:0:0:
70,132,126746,5,8,0:1:0:0:
70,132,126923,1,4,0:0:0:0:
3,232,127275,1,10,0:0:0:0:
50,342,127628,1,2,0:0:0:0:
169,337,127981,1,10,0:0:0:0:
244,243,128334,2,0,L|346:267,1,100,2|10,1:2|0:0,0:0:0:0:
401,275,128864,1,2,0:0:0:0:
501,209,129217,2,0,P|504:159|485:114,1,100,2|2,0:0|0:0,0:0:0:0:
404,33,129923,5,2,0:0:0:0:
404,33,130099,2,0,L|350:52,1,50,10|2,0:0|0:0,0:0:0:0:
303,76,130452,2,0,L|249:57,2,50,2|2|10,1:2|0:0|0:0,0:0:0:0:
343,120,130981,2,0,P|362:165|359:215,1,100,2|2,0:0|0:0,0:0:0:0:
309,249,131511,1,10,0:0:0:0:
195,209,131864,1,2,1:2:0:0:
95,274,132217,5,10,0:0:0:0:
95,273,132393,2,0,P|103:322|142:351,1,100,6|0,0:0|0:0,0:0:0:0:
206,353,132923,1,10,0:0:0:0:
206,353,133099,1,2,0:0:0:0:
291,268,133452,2,0,L|287:214,1,50,2|10,0:0|0:0,0:0:0:0:
273,159,133805,2,0,P|219:184|172:187,2,100,2|0|0,1:2|1:0|1:0,0:0:0:0:
308,110,134687,1,0,1:0:0:0:
450,220,135217,6,0,P|452:320|334:288,1,250
200,221,137687,6,0,L|137:213,2,50,2|2|2,3:2|3:2|3:2,0:0:0:0:
253,193,138217,6,0,L|245:130,1,50,4|2,0:0|0:0,0:0:0:0:
214,92,138570,2,0,L|222:29,1,50,10|2,0:0|0:0,0:0:0:0:
270,11,138923,1,2,1:2:0:0:
381,55,139275,1,10,0:0:0:0:
381,55,139452,2,0,P|391:104|380:153,1,100,2|2,0:0|0:0,0:0:0:0:
332,189,139981,1,10,0:0:0:0:
436,248,140334,2,0,L|498:236,2,50,2|2|10,1:2|0:0|0:0,0:0:0:0:
388,285,140864,5,2,0:0:0:0:
388,285,141040,2,0,L|290:262,1,100,2|8,1:2|0:0,0:0:0:0:
246,221,141570,1,2,0:0:0:0:
246,220,141746,2,0,P|200:240|176:283,1,100,2|10,1:2|0:0,0:0:0:0:
190,342,142275,1,2,0:0:0:0:
190,342,142452,1,2,1:2:0:0:
70,354,142805,1,10,0:0:0:0:
17,246,143158,2,0,L|37:139,1,100,2|8,1:2|0:0,0:0:0:0:
129,72,143864,6,0,L|187:88,1,50,2|2,1:2|0:0,0:0:0:0:
234,104,144217,2,0,L|292:88,1,50,10|2,0:0|0:0,0:0:0:0:
337,66,144570,1,2,1:2:0:0:
446,114,144923,1,10,0:0:0:0:
446,114,145099,2,0,P|440:167|408:209,1,100,2|2,0:0|0:0,0:0:0:0:
356,221,145628,1,10,0:0:0:0:
443,303,145981,2,0,L|502:293,2,50,2|2|10,1:2|0:0|0:0,0:0:0:0:
388,328,146511,5,2,0:0:0:0:
388,328,146687,2,0,L|290:305,1,100,2|8,1:2|0:0,0:0:0:0:
237,276,147217,1,2,0:0:0:0:
237,276,147393,1,2,1:2:0:0:
129,328,147746,1,10,0:0:0:0:
31,258,148099,2,0,L|42:207,1,50,2|2,1:2|0:0,0:0:0:0:
83,166,148452,2,0,L|72:115,1,50,10|2,0:0|0:0,0:0:0:0:
36,68,148805,2,0,P|83:83|131:74,1,100,2|8,1:2|0:1,0:0:0:0:
243,29,149511,6,0,L|265:88,1,50,6|2,1:2|0:0,0:0:0:0:
310,109,149864,2,0,L|288:168,1,50,10|2,0:0|0:0,0:0:0:0:
243,190,150217,1,2,1:2:0:0:
334,267,150570,1,10,0:0:0:0:
334,266,150746,2,0,P|376:243|424:254,1,100,2|2,1:2|0:0,0:0:0:0:
479,279,151275,1,10,0:0:0:0:
466,159,151628,2,0,L|474:95,2,50,2|2|10,1:2|0:0|0:0,0:0:0:0:
416,191,152158,5,2,0:0:0:0:
416,191,152334,1,6,1:2:0:0:
308,136,152687,1,10,0:0:0:0:
223,220,153040,2,0,P|199:227|132:194,1,100,0|8,1:0|0:0,0:0:0:0:
85,170,153570,1,2,1:2:0:0:
85,170,153746,2,0,L|28:178,2,50,2|2|10,1:2|0:0|0:0,0:0:0:0:
131,132,154275,2,0,P|126:80|87:49,1,100,2|10,0:0|0:0,0:0:0:0:
41,15,154805,1,10,0:0:0:0:
10,131,155158,6,0,L|29:188,1,50,6|2,1:2|0:0,0:0:0:0:
74,214,155511,2,0,L|55:271,1,50,10|2,0:0|0:0,0:0:0:0:
14,303,155864,1,2,1:2:0:0:
123,353,156217,1,10,0:0:0:0:
123,353,156393,2,0,P|173:357|217:335,1,100,2|2,0:0|0:0,0:0:0:0:
250,285,156923,1,10,0:0:0:0:
362,331,157275,2,0,L|351:387,2,50,2|2|10,1:2|0:0|0:0,0:0:0:0:
413,298,157805,5,2,0:0:0:0:
413,298,157981,2,0,P|468:280|487:234,1,100,2|8,1:2|0:0,0:0:0:0:
486,184,158511,1,2,0:0:0:0:
486,184,158687,1,2,1:2:0:0:
396,104,159040,1,10,0:0:0:0:
286,153,159393,2,0,L|300:208,2,50,6|2|10,1:2|0:0|0:1,0:0:0:0:
245,107,159923,1,2,0:0:0:0:
245,107,160099,2,0,P|204:133|155:136,1,100,10|0,0:1|1:0,0:0:0:0:
39,104,160805,6,0,L|54:202,1,100,6|8,1:2|0:0,0:0:0:0:
55,263,161334,2,0,P|106:280|150:262,1,100,2|0,0:0|1:0,0:0:0:0:
192,223,161864,1,10,1:2:0:0:
302,270,162217,1,0,1:0:0:0:
302,270,162393,2,0,L|366:256,2,50,2|10|2,0:0|0:0|0:0,0:0:0:0:
248,298,162923,2,0,P|215:350|174:362,1,100,2|10,1:2|0:0,0:0:0:0:
75,303,163628,6,0,L|85:189,1,100,6|8,1:2|0:0,0:0:0:0:
125,159,164158,2,0,L|115:45,1,100,2|0,0:0|1:0,0:0:0:0:
149,8,164687,1,10,0:0:0:0:
263,57,165040,1,0,1:0:0:0:
263,57,165217,2,0,L|279:-8,2,50,2|10|2,0:0|0:0|0:0,0:0:0:0:
231,109,165746,1,2,1:2:0:0:
231,109,165923,2,0,L|247:174,2,50,10|10|10,0:1|0:1|0:1,0:0:0:0:
177,82,166452,6,0,P|128:105|71:102,1,100,6|10,0:0|0:0,0:0:0:0:
3,195,167158,2,0,L|19:251,1,50,10|0,0:0|0:0,0:0:0:0:
66,277,167511,2,0,L|50:333,1,50,10|0,0:0|1:0,0:0:0:0:
18,374,167864,2,0,P|60:349|110:356,1,100,10|10,0:0|0:0,0:0:0:0:
168,381,168393,1,2,1:2:0:0:
168,381,168570,2,0,L|266:361,1,100,10|10,0:0|0:1,0:0:0:0:
321,333,169099,5,10,1:0:0:0:
321,333,169275,2,0,P|336:286|326:226,1,100,6|2,1:2|0:0,0:0:0:0:
216,195,169981,1,2,1:2:0:0:
137,285,170334,1,2,0:0:0:0:
210,379,170687,1,2,0:0:0:0:
