osu file format v14

[General]
AudioFilename: audio.mp3
AudioLeadIn: 0
PreviewTime: 36128
Countdown: 0
SampleSet: Soft
StackLeniency: 0.3
Mode: 0
LetterboxInBreaks: 0
WidescreenStoryboard: 0

[Editor]
Bookmarks: 1276,2687,13981,25275,36570,59158,70452,81746,93040,104334,126923,138217,160805,170687
DistanceSpacing: 1.1
BeatDivisor: 4
GridSize: 32
TimelineZoom: 2.1

[Metadata]
Title:Good-bye sengen
TitleUnicode:グッバイ宣言
Artist:mafumafu
ArtistUnicode:まふまふ
Creator:Mononymous
Version:Me, Myself, and I.
Source:
Tags:Good bye Goodbye declaration v-flower vflower v flower vocaloid ボーカロイド japanese pop jpop j-pop utaite cover male vocal
BeatmapID:3053634
BeatmapSetID:1489661

[Difficulty]
HPDrainRate:5
CircleSize:4.5
OverallDifficulty:9
ApproachRate:9.5
SliderMultiplier:2
SliderTickRate:1

[Events]
//Background and Video events
0,0,"Don't Mind Me.png",0,0
//Break Periods
2,70652,80470
//Storyboard Layer 0 (Background)
//Storyboard Layer 1 (Fail)
//Storyboard Layer 2 (Pass)
//Storyboard Layer 3 (Foreground)
//Storyboard Layer 4 (Overlay)
//Storyboard Sound Samples

[TimingPoints]
1276,352.941176470588,4,2,1,60,1,0
2687,-90.9090909090909,4,2,1,70,0,0
3658,-90.9090909090909,4,2,1,5,0,0
3746,-90.9090909090909,4,2,1,70,0,0
9128,-90.9090909090909,4,2,1,5,0,0
9216,-90.9090909090909,4,2,1,70,0,0
13673,-90.9090909090909,4,2,1,5,0,0
13805,-90.9090909090909,4,2,1,70,0,0
13850,-90.9090909090909,4,2,1,5,0,0
13981,-125,4,2,1,60,0,0
22717,-125,4,2,1,5,0,0
22805,-125,4,2,1,60,0,0
23423,-125,4,2,1,5,0,0
23511,-125,4,2,1,60,0,0
24570,-125,4,2,1,60,0,0
24658,-125,4,2,1,5,0,0
24746,-125,4,2,1,60,0,0
24834,-125,4,2,1,5,0,0
24923,-125,4,2,1,60,0,0
25011,-125,4,2,1,5,0,0
25099,-125,4,2,1,60,0,0
25187,-125,4,2,1,5,0,0
25275,-125,4,2,1,65,0,0
25717,-125,4,2,1,5,0,0
25805,-125,4,2,1,65,0,0
26246,-125,4,2,1,5,0,0
26334,-125,4,2,1,65,0,0
28540,-125,4,2,1,5,0,0
28628,-125,4,2,1,65,0,0
29070,-125,4,2,1,5,0,0
29158,-125,4,2,1,65,0,0
30437,-125,4,2,1,5,0,0
30570,-125,4,2,1,65,0,0
30614,-125,4,2,1,5,0,0
30923,-125,4,2,1,65,0,0
32555,-125,4,2,1,5,0,0
32687,-125,4,2,1,65,0,0
32731,-125,4,2,1,5,0,0
32863,-125,4,2,1,65,0,0
35025,-125,4,2,1,5,0,0
35334,-125,4,2,1,65,0,0
35378,-125,4,2,1,5,0,0
35687,-125,4,2,1,65,0,0
35731,-125,4,2,1,5,0,0
35864,-125,4,2,1,65,0,0
35908,-125,4,2,1,5,0,0
36040,-125,4,2,1,65,0,0
36570,-83.3333333333333,4,2,1,80,0,1
37540,-83.3333333333333,4,2,1,5,0,1
37628,-83.3333333333333,4,2,1,80,0,1
38070,-83.3333333333333,4,2,1,5,0,1
38158,-83.3333333333333,4,2,1,80,0,1
39658,-83.3333333333333,4,2,1,5,0,1
39746,-83.3333333333333,4,2,1,80,0,1
40364,-83.3333333333333,4,2,1,5,0,1
40452,-83.3333333333333,4,2,1,80,0,1
41070,-83.3333333333333,4,2,1,5,0,1
41158,-83.3333333333333,4,2,1,80,0,1
41423,-83.3333333333333,4,2,1,5,0,1
41511,-83.3333333333333,4,2,1,80,0,1
43187,-83.3333333333333,4,2,1,5,0,1
43275,-83.3333333333333,4,2,1,80,0,1
43717,-83.3333333333333,4,2,1,5,0,1
43805,-83.3333333333333,4,2,1,80,0,1
44246,-83.3333333333333,4,2,1,5,0,1
44334,-83.3333333333333,4,2,1,80,0,1
45305,-83.3333333333333,4,2,1,5,0,1
45393,-83.3333333333333,4,2,1,80,0,1
46011,-83.3333333333333,4,2,1,5,0,1
46099,-83.3333333333333,4,2,1,80,0,1
46364,-83.3333333333333,4,2,1,5,0,1
46452,-83.3333333333333,4,2,1,80,0,1
48834,-83.3333333333333,4,2,1,5,0,1
48922,-83.3333333333333,4,2,1,80,0,1
49364,-83.3333333333333,4,2,1,5,0,1
49452,-83.3333333333333,4,2,1,80,0,1
50952,-83.3333333333333,4,2,1,5,0,1
51040,-83.3333333333333,4,2,1,80,0,1
51658,-83.3333333333333,4,2,1,5,0,1
51746,-83.3333333333333,4,2,1,80,0,1
52364,-83.3333333333333,4,2,1,5,0,1
52452,-83.3333333333333,4,2,1,80,0,1
52717,-83.3333333333333,4,2,1,5,0,1
52805,-83.3333333333333,4,2,1,80,0,1
54481,-83.3333333333333,4,2,1,5,0,1
54570,-83.3333333333333,4,2,1,80,0,1
56599,-83.3333333333333,4,2,1,5,0,1
56687,-83.3333333333333,4,2,1,80,0,1
57305,-83.3333333333333,4,2,1,5,0,1
57393,-83.3333333333333,4,2,1,80,0,1
57658,-83.3333333333333,4,2,1,5,0,1
57746,-83.3333333333333,4,2,1,80,0,1
67628,-100,4,2,1,60,0,0
68378,-100,4,2,1,5,0,0
68687,-100,4,2,1,60,0,0
68731,-100,4,2,1,5,0,0
69040,-100,4,2,1,60,0,0
70452,-90.9090909090909,4,2,1,70,0,0
81084,-90.9090909090909,4,2,1,5,0,0
81216,-90.9090909090909,4,2,1,70,0,0
81261,-90.9090909090909,4,2,1,5,0,0
81393,-90.9090909090909,4,2,1,70,0,0
81437,-90.9090909090909,4,2,1,5,0,0
81569,-90.9090909090909,4,2,1,70,0,0
81614,-90.9090909090909,4,2,1,5,0,0
81746,-125,4,2,1,60,0,0
90481,-125,4,2,1,5,0,0
90570,-125,4,2,1,60,0,0
91187,-125,4,2,1,5,0,0
91276,-125,4,2,1,60,0,0
92555,-125,4,2,1,5,0,0
92687,-125,4,2,1,60,0,0
92952,-125,4,2,1,5,0,0
93040,-125,4,2,1,65,0,0
93481,-125,4,2,1,5,0,0
93570,-125,4,2,1,65,0,0
94011,-125,4,2,1,5,0,0
94100,-125,4,2,1,65,0,0
96305,-125,4,2,1,5,0,0
96394,-125,4,2,1,65,0,0
96834,-125,4,2,1,5,0,0
96923,-125,4,2,1,65,0,0
98687,-125,4,2,1,70,0,0
101511,-100,4,2,1,70,0,0
101775,-100,4,2,1,5,0,0
101864,-100,4,2,1,70,0,0
102128,-100,4,2,1,5,0,0
102217,-100,4,2,1,70,0,0
102481,-100,4,2,1,5,0,0
102570,-100,4,2,1,70,0,0
103673,-100,4,2,1,5,0,0
103805,-100,4,2,1,70,0,0
103849,-100,4,2,1,5,0,0
103981,-100,4,2,1,70,0,0
104025,-100,4,2,1,5,0,0
104157,-100,4,2,1,70,0,0
104202,-100,4,2,1,5,0,0
104334,-142.857142857143,4,2,1,65,0,0
111305,-142.857142857143,4,2,1,5,0,0
111393,-142.857142857143,4,2,1,65,0,0
113070,-142.857142857143,4,2,1,5,0,0
113158,-142.857142857143,4,2,1,65,0,0
114923,-111.111111111111,4,2,1,70,0,0
115628,-142.857142857143,4,2,1,70,0,0
115893,-142.857142857143,4,2,1,5,0,0
115981,-142.857142857143,4,2,1,70,0,0
124011,-142.857142857143,4,2,1,5,0,0
124099,-142.857142857143,4,2,1,70,0,0
125511,-111.111111111111,4,2,1,70,0,0
126923,-125,4,2,1,60,0,0
127187,-125,4,2,1,5,0,0
127275,-125,4,2,1,60,0,0
132393,-111.111111111111,4,2,1,75,0,0
132834,-111.111111111111,4,2,1,5,0,0
132923,-111.111111111111,4,2,1,75,0,0
133099,-100,4,2,1,75,0,0
133805,-90.9090909090909,4,2,1,75,0,0
134070,-90.9090909090909,4,2,1,5,0,0
134158,-90.9090909090909,4,2,1,75,0,0
134423,-90.9090909090909,4,2,1,5,0,0
134511,-90.9090909090909,4,2,1,75,0,0
135217,-90.9090909090909,4,2,1,80,0,0
136099,-90.9090909090909,4,2,1,5,0,0
136805,-285.714285714286,4,2,1,40,0,0
137070,-285.714285714286,4,2,1,5,0,0
137158,-142.857142857143,4,2,1,50,0,0
137423,-142.857142857143,4,2,1,5,0,0
137511,-100,4,2,1,60,0,0
137599,-100,4,2,1,5,0,0
137687,-90.9090909090909,4,2,1,65,0,0
137775,-90.9090909090909,4,2,1,5,0,0
137864,-86.9565217391304,4,2,1,70,0,0
137952,-86.9565217391304,4,2,1,5,0,0
138040,-83.3333333333333,4,2,1,75,0,0
138128,-83.3333333333333,4,2,1,5,0,0
138217,-76.9230769230769,4,2,1,80,0,1
139187,-76.9230769230769,4,2,1,5,0,1
139275,-76.9230769230769,4,2,1,80,0,1
139717,-76.9230769230769,4,2,1,5,0,1
139805,-76.9230769230769,4,2,1,80,0,1
141305,-76.9230769230769,4,2,1,5,0,1
141393,-76.9230769230769,4,2,1,80,0,1
142011,-76.9230769230769,4,2,1,5,0,1
142099,-76.9230769230769,4,2,1,80,0,1
142717,-76.9230769230769,4,2,1,5,0,1
142805,-76.9230769230769,4,2,1,80,0,1
143070,-76.9230769230769,4,2,1,5,0,1
143158,-76.9230769230769,4,2,1,80,0,1
144834,-76.9230769230769,4,2,1,5,0,1
144922,-76.9230769230769,4,2,1,80,0,1
145364,-76.9230769230769,4,2,1,5,0,1
145452,-76.9230769230769,4,2,1,80,0,1
146952,-76.9230769230769,4,2,1,5,0,1
147040,-76.9230769230769,4,2,1,80,0,1
147658,-76.9230769230769,4,2,1,5,0,1
147746,-76.9230769230769,4,2,1,80,0,1
148011,-76.9230769230769,4,2,1,5,0,1
148099,-76.9230769230769,4,2,1,80,0,1
149511,-74.0740740740741,4,2,1,80,0,1
150481,-74.0740740740741,4,2,1,5,0,1
150570,-74.0740740740741,4,2,1,80,0,1
151011,-74.0740740740741,4,2,1,5,0,1
151100,-74.0740740740741,4,2,1,80,0,1
151628,-68.9655172413793,4,2,1,85,0,1
152599,-68.9655172413793,4,2,1,5,0,1
152687,-68.9655172413793,4,2,1,85,0,1
153305,-68.9655172413793,4,2,1,5,0,1
153393,-68.9655172413793,4,2,1,85,0,1
153570,-74.0740740740741,4,2,1,80,0,1
155158,-76.9230769230769,4,2,1,80,0,1
156128,-76.9230769230769,4,2,1,5,0,1
156217,-76.9230769230769,4,2,1,80,0,1
156658,-76.9230769230769,4,2,1,5,0,1
156747,-76.9230769230769,4,2,1,80,0,1
158246,-76.9230769230769,4,2,1,5,0,1
158335,-76.9230769230769,4,2,1,80,0,1
158952,-76.9230769230769,4,2,1,5,0,1
159041,-76.9230769230769,4,2,1,80,0,1
159305,-76.9230769230769,4,2,1,5,0,1
159394,-76.9230769230769,4,2,1,80,0,1
162217,-74.0740740740741,4,2,1,80,0,1
163628,-76.9230769230769,4,2,1,80,0,1
165217,-68.9655172413793,4,2,1,85,0,1
166452,-64.5161290322581,4,2,1,85,0,1
167423,-64.5161290322581,4,2,1,5,0,1
167511,-64.5161290322581,4,2,1,85,0,1
169275,-100,4,2,1,70,0,0
169981,-100,4,2,1,60,0,0
170025,-100,4,2,1,5,0,0
170334,-100,4,2,1,60,0,0
170687,-100,4,2,1,50,0,0

[Colours]
Combo1 : 239,210,143
Combo2 : 198,198,198
Combo3 : 145,200,200
Combo4 : 255,53,53

[HitObjects]
93,153,1276,5,2,3:2:0:0:
320,79,1628,1,2,3:2:0:0:
200,197,1981,5,0,3:0:0:0:
93,153,2158,1,2,0:0:0:0:
285,151,2334,5,2,0:0:0:0:
278,190,2423,1,2,0:0:0:0:
272,229,2511,2,0,L|279:290,1,50,2|0,0:0|0:0,0:0:0:0:
329,354,2687,5,6,1:2:0:0:
196,311,2864,1,2,0:0:0:0:
418,229,3040,1,10,1:2:0:0:
404,259,3128,1,0,0:0:0:0:
423,286,3217,1,2,0:0:0:0:
463,143,3393,6,0,B|424:121|386:144|386:144|349:169|298:150,1,165.000005035401
245,96,3746,2,0,P|229:119|220:145,1,55.0000016784668,10|0,1:2|0:0,0:0:0:0:
99,251,3923,2,0,P|83:228|74:202,1,55.0000016784668,2|0,0:0|0:0,0:0:0:0:
196,311,4099,6,0,L|177:375,1,55.0000016784668,2|0,1:2|0:0,0:0:0:0:
99,250,4275,2,0,P|140:215|194:211,1,110.000003356934,2|8,0:0|0:0,0:0:0:0:
392,299,4628,1,2,0:0:0:0:
414,274,4717,1,0,0:0:0:0:
399,244,4805,1,2,1:2:0:0:
196,311,4981,1,2,0:0:0:0:
260,247,5070,1,0,0:0:0:0:
293,361,5158,1,10,1:2:0:0:
85,198,5334,6,0,P|87:225|98:250,1,55.0000016784668,2|0,0:0|0:0,0:0:0:0:
204,78,5511,1,2,1:2:0:0:
33,141,5687,1,2,0:0:0:0:
260,247,5864,5,10,0:0:0:0:
245,217,5952,1,0,0:0:0:0:
265,191,6040,2,0,L|261:124,1,55.0000016784668,2|0,0:0|0:0,0:0:0:0:
109,29,6217,2,0,L|112:83,1,55.0000016784668,0|0,1:0|0:0,0:0:0:0:
181,285,6393,6,0,P|159:267|133:259,1,55.0000016784668,2|0,0:0|0:0,0:0:0:0:
265,300,6570,2,0,P|267:272|259:246,1,55.0000016784668,10|0,0:0|0:0,0:0:0:0:
295,380,6746,2,0,P|320:370|340:352,1,55.0000016784668,2|0,0:0|0:0,0:0:0:0:
133,259,6923,6,0,P|159:267|181:285,1,55.0000016784668,2|0,1:2|0:0,0:0:0:0:
359,198,7099,2,0,L|370:140,1,55.0000016784668,2|0,0:0|0:0,0:0:0:0:
263,17,7275,2,0,L|274:75,1,55.0000016784668,10|0,0:0|0:0,0:0:0:0:
425,238,7452,2,0,L|436:180,1,55.0000016784668,2|0,0:0|0:0,0:0:0:0:
188,10,7628,2,0,L|199:68,1,55.0000016784668,6|0,0:0|0:0,0:0:0:0:
359,197,7805,6,0,P|334:209|307:212,1,55.0000016784668,10|0,0:1|0:0,0:0:0:0:
148,126,7981,2,0,P|175:128|199:140,1,55.0000016784668,10|0,0:0|0:0,0:0:0:0:
300,294,8158,5,2,1:2:0:0:
300,294,8334,2,0,L|181:275,1,110.000003356934,6|2,1:2|0:0,0:0:0:0:
98,300,8599,5,0,0:0:0:0:
109,308,8687,2,0,L|121:251,1,55.0000016784668,10|0,0:0|0:0,0:0:0:0:
307,92,8864,6,0,B|244:100|244:100|211:119|211:119|142:125,1,165.000005035401,2|0,0:0|0:0,0:0:0:0:
14,79,9217,1,2,1:2:0:0:
73,147,9305,1,0,0:0:0:0:
127,31,9393,1,10,1:2:0:0:
307,92,9570,5,2,0:0:0:0:
322,122,9658,1,0,0:0:0:0:
305,150,9746,1,2,1:2:0:0:
395,262,9923,6,0,P|349:233|295:231,1,110.000003356934,2|8,0:0|1:2,0:0:0:0:
101,343,10275,1,2,0:0:0:0:
194,302,10364,1,0,0:0:0:0:
65,256,10452,2,0,P|28:298|18:357,1,110.000003356934,2|2,1:2|0:0,0:0:0:0:
182,227,10717,5,0,0:0:0:0:
182,227,10805,2,0,P|145:185|135:126,1,110.000003356934,10|2,0:0|0:0,0:0:0:0:
186,62,11070,5,0,0:0:0:0:
198,52,11158,1,2,1:2:0:0:
35,166,11334,1,2,0:0:0:0:
182,227,11511,5,10,1:2:0:0:
162,253,11599,1,0,0:0:0:0:
178,281,11687,1,2,0:0:0:0:
340,190,11864,2,0,P|345:159|337:134,1,55.0000016784668,2|0,1:2|0:0,0:0:0:0:
178,281,12040,6,0,L|236:292,1,55.0000016784668,2|0,0:0|0:0,0:0:0:0:
394,179,12216,2,0,L|336:190,1,55.0000016784668,10|0,0:0|0:0,0:0:0:0:
478,303,12393,2,0,P|489:278|491:250,1,55.0000016784668,2|0,0:0|0:0,0:0:0:0:
370,367,12570,2,0,B|320:355|320:355|311:357|311:357|261:346,1,110.000003356934,2|2,1:2|0:0,0:0:0:0:
207,287,12834,1,0,0:0:0:0:
207,287,12923,1,10,0:0:0:0:
41,314,13099,1,2,0:0:0:0:
128,123,13275,5,0,0:0:0:0:
128,123,13452,1,2,0:0:0:0:
128,123,13628,2,0,L|135:156,1,27.5000008392334,2|0,3:0|0:0,0:0:0:0:
230,225,13805,2,0,L|237:192,1,27.5000008392334,2|0,3:0|0:0,0:0:0:0:
17,251,13981,6,0,B|87:267|87:267|98:263|98:263|177:281,1,160,6|0,1:2|1:0,0:0:0:0:
310,353,14511,2,0,P|342:283|314:210,1,160,2|0,0:0|0:0,0:0:0:0:
128,123,15040,2,0,L|145:211,1,80,2|0,1:2|0:0,0:0:0:0:
215,83,15393,5,0,1:0:0:0:
215,83,15570,2,0,P|153:35|76:45,1,160,2|0,0:0|0:0,0:0:0:0:
34,139,16099,5,2,1:2:0:0:
48,233,16275,1,2,0:0:0:0:
142,218,16452,1,2,1:2:0:0:
128,123,16628,1,2,0:0:0:0:
48,233,16805,6,0,P|85:300|162:310,1,160,2|0,1:2|1:0,0:0:0:0:
296,251,17334,2,0,L|309:173,1,80,2|0,0:0|0:0,0:0:0:0:
191,36,17687,5,2,0:0:0:0:
191,36,17864,2,0,L|217:193,1,160,2|0,1:2|1:0,0:0:0:0:
296,251,18393,5,2,0:0:0:0:
391,265,18569,1,2,1:2:0:0:
406,171,18746,1,2,0:0:0:0:
312,157,18922,1,2,1:2:0:0:
296,251,19099,1,2,0:0:0:0:
391,265,19275,1,2,1:2:0:0:
406,171,19452,1,2,0:0:0:0:
312,157,19628,6,0,P|296:122|298:82,1,80,6|2,1:2|0:0,0:0:0:0:
261,67,19893,1,2,0:0:0:0:
261,67,19981,2,0,P|274:29|304:3,1,80,0|2,1:0|0:0,0:0:0:0:
425,93,20334,6,0,L|403:179,1,80,2|2,1:2|0:0,0:0:0:0:
424,205,20599,1,2,0:0:0:0:
424,205,20687,2,0,L|402:291,1,80,0|2,1:0|0:0,0:0:0:0:
311,156,21040,6,0,B|274:135|237:162|237:162|202:187|151:166,1,160,2|0,1:2|1:0,0:0:0:0:
159,169,21746,5,2,1:2:0:0:
49,89,21922,1,2,0:0:0:0:
143,75,22099,1,2,1:2:0:0:
64,183,22275,1,2,0:0:0:0:
206,255,22452,6,0,P|245:211|249:153,1,120,2|0,1:2|0:0,0:0:0:0:
226,118,22805,1,2,1:2:0:0:
357,48,22981,5,0,0:0:0:0:
357,48,23158,2,0,B|395:71|395:71|473:59,1,120,2|0,1:2|0:0,0:0:0:0:
492,50,23511,2,0,L|481:131,1,80,2|0,1:2|0:0,0:0:0:0:
377,304,23864,5,2,1:2:0:0:
506,250,24040,1,2,0:0:0:0:
380,191,24217,1,2,1:2:0:0:
472,323,24393,1,2,0:0:0:0:
364,180,24570,6,0,L|360:136,1,40,2|0,1:2|0:0,0:0:0:0:
343,159,24746,2,0,L|339:115,1,40,2|0,0:0|0:0,0:0:0:0:
270,185,24923,6,0,L|266:229,1,40,8|0,0:0|0:0,0:0:0:0:
249,206,25099,2,0,L|245:250,1,40
123,343,25275,6,0,B|214:328|214:328|245:335|245:335|321:323,1,200,6|0,0:0|0:0,0:0:0:0:
442,226,25805,2,0,B|367:238|367:238|336:230|336:230|245:245,1,200,2|0,0:0|0:0,0:0:0:0:
130,160,26334,6,0,P|142:89|213:103,1,160,10|0,0:0|1:0,0:0:0:0:
118,251,26864,5,2,1:2:0:0:
130,160,27040,1,10,0:0:0:0:
203,215,27217,1,2,0:0:0:0:
44,174,27393,5,2,1:2:0:0:
30,90,27569,1,2,0:0:0:0:
116,76,27746,1,10,0:0:0:0:
130,160,27922,1,2,0:0:0:0:
289,292,28099,6,0,P|347:241|343:117,1,200,2|0,0:0|0:0,0:0:0:0:
210,17,28628,2,0,P|201:113|268:184,1,200,2|0,0:0|0:0,0:0:0:0:
456,39,29158,6,0,L|299:71,1,160,8|0,0:0|1:0,0:0:0:0:
395,144,29687,1,2,0:0:0:0:
395,144,29864,2,0,L|473:128,1,80,10|2,0:0|0:0,0:0:0:0:
327,199,30217,5,2,1:2:0:0:
343,272,30393,2,0,L|369:267,1,20,10|0,0:0|0:0,0:0:0:0:
361,348,30570,2,0,L|387:343,1,20,10|0,0:0|0:0,0:0:0:0:
123,346,30923,6,0,B|143:268,1,80,6|0,0:0|0:0,0:0:0:0:
100,200,31187,1,2,0:0:0:0:
100,200,31275,2,0,B|120:277,1,80,8|2,0:0|0:0,0:0:0:0:
169,111,31628,6,0,P|134:87|91:90,1,80,2|0,1:2|0:0,0:0:0:0:
23,134,31892,1,2,0:0:0:0:
23,134,31981,2,0,P|62:133|94:110,1,80,8|2,0:0|0:0,0:0:0:0:
301,37,32334,5,2,1:2:0:0:
284,109,32510,2,0,L|278:135,1,20
264,195,32687,2,0,L|258:221,1,20,8|0,0:0|0:0,0:0:0:0:
243,285,32864,5,2,0:0:0:0:
369,193,33040,1,2,1:2:0:0:
287,72,33217,1,2,0:0:0:0:
166,155,33393,1,10,0:0:0:0:
369,193,33570,6,0,B|347:151|367:113|367:113|386:72|371:38,1,160,4|2,0:0|1:2,0:0:0:0:
287,72,34099,1,8,0:0:0:0:
444,153,34275,1,2,0:0:0:0:
292,223,34452,2,0,P|306:259|341:277,1,80,2|0,1:2|1:0,0:0:0:0:
426,241,34805,1,10,1:2:0:0:
486,367,34981,6,0,L|490:336,1,20,6|0,1:2|0:0,0:0:0:0:
366,173,35334,6,0,L|370:204,1,20,2|0,1:2|0:0,0:0:0:0:
277,324,35687,6,0,L|281:293,1,20,2|0,1:2|0:0,0:0:0:0:
219,225,35864,2,0,L|223:256,1,20,2|0,1:2|0:0,0:0:0:0:
136,317,36040,5,8,0:0:0:0:
136,317,36217,2,0,B|85:303|85:303|102:325,1,80,10|2,1:2|0:0,0:0:0:0:
131,235,36570,6,0,P|137:175|110:123,1,119.999996337891,6|2,1:2|0:0,0:0:0:0:
136,317,36834,5,2,0:0:0:0:
156,327,36923,2,0,P|201:288|219:232,1,119.999996337891,10|2,0:0|0:0,0:0:0:0:
209,116,37187,5,0,0:0:0:0:
209,116,37275,2,0,B|283:107|283:107|316:116|316:116|386:106,1,179.999994506836,2|0,1:2|0:0,0:0:0:0:
462,57,37628,1,10,0:0:0:0:
380,185,37805,6,0,B|306:194|306:194|273:185|273:185|202:194,1,179.999994506836,2|0,0:0|0:0,0:0:0:0:
133,165,38158,1,2,0:0:0:0:
38,17,38334,6,0,P|63:70|39:123,1,119.999996337891,10|0,0:0|0:0,0:0:0:0:
24,306,38687,2,0,L|41:363,1,59.9999981689454,2|0,1:2|0:0,0:0:0:0:
205,238,38864,2,0,L|224:175,1,59.9999981689454,2|0,0:0|0:0,0:0:0:0:
113,229,39040,6,0,P|118:258|136:281,1,59.9999981689454,10|0,0:0|0:0,0:0:0:0:
297,334,39217,2,0,P|285:306|263:286,1,59.9999981689454,2|0,0:0|0:0,0:0:0:0:
42,364,39393,6,0,B|120:349|120:349|150:357|150:357|220:342,1,179.999994506836,2|0,1:2|0:0,0:0:0:0:
348,272,39746,1,8,0:0:0:0:
160,78,39923,6,0,L|177:147,1,59.9999981689454,2|0,0:0|0:0,0:0:0:0:
348,272,40099,2,0,B|270:257|270:257|240:265|240:265|170:250,1,179.999994506836,2|0,1:2|0:0,0:0:0:0:
42,180,40452,1,8,0:0:0:0:
282,13,40628,6,0,L|265:82,1,59.9999981689454,2|0,0:0|0:0,0:0:0:0:
42,180,40805,2,0,B|120:165|120:165|150:173|150:173|217:158,1,179.999994506836,2|0,1:2|0:0,0:0:0:0:
348,272,41158,2,0,B|270:257|270:257|240:265|240:265|172:250,1,179.999994506836,10|0,0:0|0:0,0:0:0:0:
42,364,41511,2,0,L|100:352,1,59.9999981689454,2|0,1:2|0:0,0:0:0:0:
232,186,41687,6,0,L|164:173,1,59.9999981689454,8|0,0:0|0:0,0:0:0:0:
289,283,41864,2,0,L|357:270,1,59.9999981689454,8|0,0:0|0:0,0:0:0:0:
428,200,42040,1,2,0:0:0:0:
237,362,42217,6,0,P|198:319|191:260,1,119.999996337891,2|2,1:2|0:0,0:0:0:0:
325,168,42481,1,2,0:0:0:0:
335,180,42570,2,0,P|328:238|288:282,1,119.999996337891,10|2,0:0|0:0,0:0:0:0:
290,90,42923,6,0,B|342:64|384:90|384:90|427:112|462:93,1,179.999994506836,2|0,1:2|0:0,0:0:0:0:
421,25,43275,1,10,0:0:0:0:
221,94,43452,6,0,P|168:44|239:32,1,179.999994506836,2|0,0:0|0:0,0:0:0:0:
290,90,43805,1,2,0:0:0:0:
158,191,43981,6,0,P|90:134|67:48,1,179.999994506836,10|0,0:0|0:0,0:0:0:0:
5,148,44334,2,0,L|21:213,1,59.9999981689454,2|0,1:2|0:0,0:0:0:0:
143,339,44511,2,0,L|159:274,1,59.9999981689454,2|0,0:0|0:0,0:0:0:0:
70,98,44687,2,0,L|86:163,1,59.9999981689454,10|0,0:0|0:0,0:0:0:0:
240,246,44864,2,0,P|227:218|206:197,1,59.9999981689454,2|0,0:0|0:0,0:0:0:0:
143,339,45040,6,0,L|322:299,1,179.999994506836,2|0,1:2|0:0,0:0:0:0:
415,206,45393,1,8,0:0:0:0:
230,78,45570,5,2,0:0:0:0:
415,206,45746,2,0,L|239:245,1,179.999994506836,2|0,1:2|0:0,0:0:0:0:
143,339,46099,2,0,L|322:299,1,179.999994506836,10|0,0:0|0:0,0:0:0:0:
415,206,46452,6,0,P|431:230|435:260,1,59.9999981689454,2|0,1:2|0:0,0:0:0:0:
272,147,46628,2,0,P|278:117|296:94,1,59.9999981689454,2|0,0:0|0:0,0:0:0:0:
511,66,46805,2,0,L|495:126,1,59.9999981689454,10|0,0:0|0:0,0:0:0:0:
392,57,46981,2,0,L|376:-3,1,59.9999981689454,2|0,0:0|0:0,0:0:0:0:
495,123,47158,5,2,1:2:0:0:
275,208,47334,1,8,0:1:0:0:
255,178,47423,1,8,1:0:0:0:
272,147,47511,1,8,0:1:0:0:
465,342,47687,1,10,0:1:0:0:
494,244,47775,1,2,0:0:0:0:
375,324,47864,6,0,B|311:324|311:324|257:298,1,119.999996337891,6|2,1:2|0:0,0:0:0:0:
146,247,48128,1,2,0:0:0:0:
160,232,48217,2,0,B|210:207|210:207|274:207,1,119.999996337891,10|2,0:0|0:0,0:0:0:0:
127,346,48570,6,0,P|54:298|48:211,1,179.999994506836,2|0,1:2|0:0,0:0:0:0:
110,164,48923,1,10,0:0:0:0:
238,97,49099,6,0,P|232:183|159:231,1,179.999994506836,2|0,0:0|0:0,0:0:0:0:
110,164,49452,1,2,0:0:0:0:
256,28,49628,6,0,B|301:21|301:21|325:26|325:26|374:19,1,119.999996337891,10|0,0:0|0:0,0:0:0:0:
506,82,49981,2,0,L|489:148,1,59.9999981689454,2|0,1:2|0:0,0:0:0:0:
318,248,50158,2,0,L|301:182,1,59.9999981689454,2|0,0:0|0:0,0:0:0:0:
444,32,50334,2,0,L|427:98,1,59.9999981689454,10|0,0:0|0:0,0:0:0:0:
240,214,50511,2,0,L|223:148,1,59.9999981689454,2|0,0:0|0:0,0:0:0:0:
406,277,50687,6,0,P|353:345|266:347,1,179.999994506836,2|0,1:2|0:0,0:0:0:0:
167,270,51040,1,8,0:0:0:0:
334,100,51217,6,0,L|321:165,1,59.9999981689454,2|0,0:0|0:0,0:0:0:0:
266,347,51393,2,0,P|353:345|406:277,1,179.999994506836,2|0,1:2|0:0,0:0:0:0:
415,156,51746,1,8,0:0:0:0:
212,29,51923,6,0,L|225:94,1,59.9999981689454,2|0,0:0|0:0,0:0:0:0:
179,198,52099,2,0,P|266:199|319:268,1,179.999994506836,2|0,1:2|0:0,0:0:0:0:
266,347,52452,2,0,P|353:345|406:277,1,179.999994506836,10|0,0:0|0:0,0:0:0:0:
179,198,52805,6,0,L|195:264,1,59.9999981689454,2|0,1:2|0:0,0:0:0:0:
29,359,52981,2,0,L|45:293,1,59.9999981689454,8|0,0:0|0:0,0:0:0:0:
178,372,53158,5,8,0:0:0:0:
320,269,53334,1,2,0:0:0:0:
89,132,53511,6,0,L|117:248,1,119.999996337891,2|2,1:2|0:0,0:0:0:0:
241,69,53775,1,2,0:0:0:0:
251,85,53864,2,0,L|222:201,1,119.999996337891,10|2,0:0|0:0,0:0:0:0:
440,198,54217,6,0,P|404:274|321:269,1,179.999994506836,2|0,1:2|0:0,0:0:0:0:
362,193,54570,1,10,0:0:0:0:
484,356,54746,6,0,L|508:239,1,119.999996337891,2|0,0:0|1:0,0:0:0:0:
312,94,55099,1,2,0:0:0:0:
388,7,55275,6,0,L|412:124,1,119.999996337891,10|0,0:0|0:0,0:0:0:0:
344,360,55628,2,0,P|373:354|397:337,1,59.9999981689454,2|0,1:0|0:0,0:0:0:0:
266,247,55805,2,0,P|295:252|319:269,1,59.9999981689454,2|0,0:0|0:0,0:0:0:0:
156,369,55981,6,0,L|141:300,1,59.9999981689454,10|0,0:0|0:0,0:0:0:0:
278,188,56158,2,0,L|263:257,1,59.9999981689454,2|0,0:0|0:0,0:0:0:0:
80,88,56334,6,0,B|207:68|207:68|251:94,1,179.999994506836,2|0,1:2|0:0,0:0:0:0:
336,29,56687,1,8,0:0:0:0:
210,293,56864,6,0,L|195:227,1,59.9999981689454,2|0,0:0|0:0,0:0:0:0:
251,94,57040,2,0,B|207:68|207:68|79:87,1,179.999994506836,2|0,1:2|0:0,0:0:0:0:
9,158,57393,2,0,B|53:184|53:184|180:164,1,179.999994506836,8|0,0:0|0:0,0:0:0:0:
251,94,57746,5,6,1:2:0:0:
345,195,57923,1,2,0:0:0:0:
242,74,58099,5,10,0:1:0:0:
197,300,58275,1,2,1:2:0:0:
420,254,58452,1,10,0:1:0:0:
331,291,58540,1,8,0:1:0:0:
464,334,58628,2,0,P|493:290|496:215,1,119.999996337891,8|0,1:0|1:0,0:0:0:0:
379,42,58981,1,8,0:0:0:0:
431,130,59158,6,0,B|379:157|326:126|326:126|263:89|201:123,1,239.999992675781,6|8,0:0|0:0,0:0:0:0:
24,232,59687,2,0,B|76:205|129:236|129:236|192:273|254:239,1,239.999992675781,2|0,0:0|1:0,0:0:0:0:
220,33,60217,6,0,P|153:48|118:100,1,119.999996337891,10|0,0:0|0:0,0:0:0:0:
202,122,60570,1,0,1:0:0:0:
389,4,60746,5,2,0:0:0:0:
480,29,60922,1,10,0:0:0:0:
455,120,61098,1,2,0:0:0:0:
364,95,61275,1,2,1:2:0:0:
480,29,61452,1,2,1:2:0:0:
455,120,61628,2,0,L|473:238,1,119.999996337891,10|2,0:0|0:0,0:0:0:0:
424,322,61981,6,0,B|372:295|319:326|319:326|256:363|194:329,1,239.999992675781,6|8,0:0|0:0,0:0:0:0:
17,220,62511,2,0,B|69:247|122:216|122:216|185:179|247:213,1,239.999992675781,2|0,0:0|1:0,0:0:0:0:
465,248,63040,6,0,P|503:292|506:351,1,119.999996337891,10|0,0:0|0:0,0:0:0:0:
424,322,63393,1,0,1:0:0:0:
444,154,63570,5,2,0:0:0:0:
325,120,63747,1,10,0:0:0:0:
358,2,63923,1,2,0:0:0:0:
480,29,64099,1,2,1:2:0:0:
325,120,64275,1,10,0:0:0:0:
358,2,64452,1,10,0:0:0:0:
443,154,64628,1,2,0:0:0:0:
261,32,64805,6,0,B|235:117|235:117|254:178|254:178|229:270,1,239.999992675781,6|8,0:0|0:0,0:0:0:0:
65,359,65334,2,0,B|90:273|90:273|72:213|72:213|97:121,1,239.999992675781,2|0,0:0|1:0,0:0:0:0:
261,32,65864,6,0,L|233:152,1,119.999996337891,10|0,0:0|0:0,0:0:0:0:
154,64,66217,1,0,1:0:0:0:
389,4,66393,5,2,0:0:0:0:
364,95,66570,1,10,0:0:0:0:
455,120,66746,1,2,0:0:0:0:
480,29,66922,1,2,1:2:0:0:
389,4,67099,1,2,0:0:0:0:
480,29,67275,1,10,0:0:0:0:
364,95,67452,1,2,0:0:0:0:
455,120,67628,5,2,1:2:0:0:
364,95,67981,5,2,0:0:0:0:
273,70,68334,6,0,L|266:104,1,25,2|0,1:2|0:0,0:0:0:0:
182,45,68687,6,0,L|175:79,1,25,2|0,1:2|0:0,0:0:0:0:
455,120,69040,5,2,1:2:0:0:
455,120,69746,5,2,0:0:0:0:
378,159,69923,2,0,P|390:180|409:196,1,50,2|0,0:0|0:0,0:0:0:0:
490,245,70099,2,0,P|472:262|449:273,1,50,2|0,0:0|0:0,0:0:0:0:
339,332,70275,2,0,L|387:343,1,50,2|0,0:0|0:0,0:0:0:0:
486,360,70452,5,6,0:0:0:0:
24,361,81040,6,0,L|29:332,1,27.5000008392334,0|0,3:0|0:0,0:0:0:0:
78,211,81217,2,0,L|83:240,1,27.5000008392334,2|0,3:2|0:0,0:0:0:0:
154,368,81393,6,0,L|159:339,1,27.5000008392334,2|0,3:2|0:0,0:0:0:0:
214,258,81570,2,0,L|219:287,1,27.5000008392334,2|0,3:2|0:0,0:0:0:0:
301,332,81746,6,0,L|457:300,1,160,6|0,1:2|1:0,0:0:0:0:
512,219,82275,2,0,L|355:187,1,160,2|0,0:0|0:0,0:0:0:0:
266,210,82805,2,0,P|260:171|278:130,1,80,2|0,1:2|0:0,0:0:0:0:
395,46,83158,5,0,1:0:0:0:
395,46,83334,2,0,P|320:72|245:51,1,160,2|0,0:0|0:0,0:0:0:0:
87,115,83864,5,2,1:2:0:0:
78,28,84040,1,2,0:0:0:0:
165,19,84217,1,2,1:2:0:0:
174,106,84393,1,2,0:0:0:0:
87,115,84570,6,0,L|117:278,1,160,2|0,1:2|1:0,0:0:0:0:
35,355,85099,2,0,L|20:276,1,80,2|0,0:0|0:0,0:0:0:0:
213,170,85452,5,2,0:0:0:0:
213,170,85628,2,0,L|184:327,1,160,2|0,1:2|1:0,0:0:0:0:
308,361,86158,5,2,0:0:0:0:
412,350,86334,1,2,1:2:0:0:
401,246,86510,1,2,0:0:0:0:
297,256,86687,1,2,1:2:0:0:
413,139,86864,5,2,0:0:0:0:
337,95,87041,1,2,1:2:0:0:
337,183,87217,1,2,0:0:0:0:
484,186,87393,6,0,P|498:149|494:109,1,80,6|0,1:2|0:0,0:0:0:0:
508,74,87658,1,2,0:0:0:0:
508,74,87746,2,0,P|492:37|461:12,1,80,0|2,1:0|0:0,0:0:0:0:
337,95,88099,6,0,L|245:79,1,80,2|2,1:2|0:0,0:0:0:0:
230,54,88364,1,2,0:0:0:0:
230,54,88452,2,0,L|138:70,1,80,0|2,1:0|0:0,0:0:0:0:
28,135,88805,6,0,B|70:118|105:142|105:142|142:168|180:149,1,160,2|0,1:2|1:0,0:0:0:0:
179,148,89511,2,0,P|216:135|254:145,2,80,2|2|2,1:2|0:0|1:2,0:0:0:0:
65,211,90040,5,2,0:0:0:0:
65,211,90217,2,0,L|86:331,1,120,2|0,1:2|0:0,0:0:0:0:
66,369,90570,2,0,P|106:350|149:356,1,80,2|0,1:2|0:0,0:0:0:0:
322,264,90923,6,0,P|269:292|210:295,1,120,2|0,1:2|0:0,0:0:0:0:
183,260,91275,2,0,L|169:181,1,80,2|2,1:2|0:0,0:0:0:0:
240,41,91628,6,0,L|230:91,1,40,2|0,1:2|0:0,0:0:0:0:
141,124,91805,1,2,0:0:0:0:
109,130,91893,1,0,0:0:0:0:
77,136,91981,2,0,L|32:124,1,40,2|0,1:2|0:0,0:0:0:0:
8,207,92158,2,0,L|53:195,1,40,2|0,0:0|0:0,0:0:0:0:
114,239,92334,5,2,1:2:0:0:
42,357,92511,6,0,L|69:352,1,20,2|0,0:0|0:0,0:0:0:0:
13,345,92687,2,0,L|140:324,1,120,2|0,1:2|0:0,0:0:0:0:
222,362,93040,6,0,B|202:256|202:256|239:171,1,200,6|0,0:0|0:0,0:0:0:0:
366,64,93570,2,0,B|385:169|385:169|348:254,1,200,2|0,0:0|0:0,0:0:0:0:
239,171,94099,6,0,P|173:143|151:211,1,160,10|0,0:0|1:0,0:0:0:0:
288,300,94628,5,2,0:0:0:0:
348,254,94805,2,0,L|340:170,1,80,10|2,0:0|0:0,0:0:0:0:
423,63,95158,5,2,1:2:0:0:
490,119,95334,1,2,0:0:0:0:
406,146,95511,1,10,0:0:0:0:
270,27,95687,5,2,0:0:0:0:
205,75,95864,2,0,L|218:289,1,200,2|0,0:0|0:0,0:0:0:0:
51,363,96393,2,0,L|63:163,1,200,2|0,0:0|0:0,0:0:0:0:
204,75,96923,6,0,P|135:79|149:11,1,160,10|0,0:0|1:0,0:0:0:0:
283,133,97452,5,2,0:0:0:0:
269,214,97628,1,10,0:0:0:0:
203,166,97805,1,2,0:0:0:0:
241,306,97981,5,2,1:2:0:0:
361,242,98158,1,10,0:0:0:0:
269,214,98334,1,8,0:0:0:0:
333,334,98511,1,2,0:0:0:0:
436,203,98687,5,4,0:0:0:0:
361,242,98864,2,0,P|354:204|365:165,1,80,2|10,0:0|0:0,0:0:0:0:
463,39,99217,5,2,0:0:0:0:
501,114,99394,2,0,L|415:100,1,80,2|0,1:2|0:0,0:0:0:0:
254,146,99746,5,10,0:0:0:0:
311,57,99923,1,2,0:0:0:0:
159,84,100099,6,0,P|137:130|140:166,1,80,2|0,1:0|0:0,0:0:0:0:
195,223,100364,1,2,0:0:0:0:
195,223,100452,2,0,P|193:262|173:297,1,80,8|2,0:0|0:0,0:0:0:0:
20,358,100805,5,2,1:2:0:0:
53,274,100981,1,0,0:0:0:0:
118,343,101158,1,10,0:0:0:0:
18,206,101334,5,8,0:1:0:0:
24,183,101423,1,8,0:1:0:0:
32,162,101511,2,0,L|17:6,1,150,6|0,1:2|0:0,0:0:0:0:
127,108,101864,6,0,L|112:264,1,150,10|0,1:2|0:0,0:0:0:0:
222,162,102217,2,0,L|207:6,1,150,2|0,1:2|0:0,0:0:0:0:
127,108,102570,5,10,1:2:0:0:
311,112,102746,2,0,L|296:165,1,50,8|8,0:1|0:1,0:0:0:0:
299,284,102923,5,14,1:0:0:0:
259,258,103011,1,8,0:1:0:0:
214,255,103099,1,8,1:0:0:0:
173,273,103187,1,8,0:1:0:0:
146,309,103275,5,8,1:0:0:0:
102,357,103363,1,8,0:1:0:0:
37,352,103451,1,8,0:1:0:0:
3,295,103539,1,8,0:1:0:0:
38,238,103628,6,0,L|43:213,1,25,2|0,1:2|0:0,0:0:0:0:
98,141,103805,2,0,L|103:165,1,25,0|0,1:0|0:0,0:0:0:0:
173,273,103981,6,0,L|178:248,1,25,0|0,1:0|0:0,0:0:0:0:
233,103,104158,2,0,L|238:127,1,25,0|0,1:0|0:0,0:0:0:0:
310,311,104334,5,4,1:2:0:0:
480,157,104687,5,2,1:2:0:0:
390,157,104864,2,0,P|412:222|475:248,1,139.999995727539,2|0,0:0|0:0,0:0:0:0:
480,157,105393,6,0,L|473:80,1,69.9999978637696,2|0,1:2|0:0,0:0:0:0:
393,8,105746,1,0,1:0:0:0:
393,8,105923,2,0,L|386:85,1,69.9999978637696,2|0,0:0|0:0,0:0:0:0:
298,145,106275,5,0,0:0:0:0:
298,145,106452,2,0,P|254:152|228:141,1,69.9999978637696,2|0,1:2|0:0,0:0:0:0:
214,126,106717,1,0,0:0:0:0:
214,126,106805,2,0,P|182:112|146:116,1,69.9999978637696,2|2,1:2|0:0,0:0:0:0:
50,194,107158,6,0,L|40:47,1,139.999995727539,2|0,1:2|1:0,0:0:0:0:
147,115,107687,2,0,L|156:254,1,139.999995727539,2|0,0:0|1:0,0:0:0:0:
193,333,108217,6,0,P|230:308|247:273,2,69.9999978637696,2|0|0,0:0|0:0|1:0,0:0:0:0:
156,254,108746,1,2,0:0:0:0:
146,223,108834,1,2,0:0:0:0:
140,192,108923,2,0,L|148:147,1,34.9999989318848,2|2,1:2|0:0,0:0:0:0:
221,97,109099,2,0,L|229:142,1,34.9999989318848,2|2,0:0|0:0,0:0:0:0:
299,216,109275,2,0,L|307:171,1,34.9999989318848,2|0,1:2|0:0,0:0:0:0:
373,115,109452,5,2,0:0:0:0:
398,105,109540,1,0,0:0:0:0:
425,110,109628,1,2,1:2:0:0:
445,129,109716,1,0,0:0:0:0:
451,156,109804,1,2,0:0:0:0:
441,182,109893,1,2,0:0:0:0:
415,200,109981,6,0,B|434:252|434:252|426:344,1,139.999995727539,2|0,1:2|1:0,0:0:0:0:
293,334,110511,2,0,B|319:352|319:352|426:335,1,139.999995727539,2|0,0:0|0:0,0:0:0:0:
461,312,110952,1,0,0:0:0:0:
494,287,111040,2,0,L|488:181,1,104.999996795654,2|0,1:2|0:0,0:0:0:0:
492,140,111393,5,2,1:2:0:0:
350,182,111570,1,0,0:0:0:0:
366,158,111658,2,0,P|331:153|301:170,1,69.9999978637696,2|0,0:0|0:0,0:0:0:0:
240,226,111923,2,0,P|205:230|175:213,1,69.9999978637696,2|2,0:0|0:0,0:0:0:0:
53,110,112275,5,0,0:0:0:0:
72,128,112364,2,0,B|60:148|60:148|72:164,1,34.9999989318848,2|0,0:0|1:0,0:0:0:0:
203,97,112628,1,2,0:0:0:0:
77,235,112805,6,0,B|69:305|69:305|52:344,1,104.999996795654,2|0,0:0|0:0,0:0:0:0:
21,362,113158,1,2,1:2:0:0:
176,285,113334,6,0,B|218:305|218:305|269:281|269:281|305:296,1,139.999995727539,2|0,0:0|0:0,0:0:0:0:
418,360,113864,5,2,1:2:0:0:
486,314,114040,1,2,0:0:0:0:
410,274,114217,1,2,1:2:0:0:
487,150,114393,5,0,0:0:0:0:
468,167,114481,2,0,B|479:205|479:205|469:242,1,69.9999978637696,2|0,0:0|0:0,0:0:0:0:
410,274,114746,1,2,0:0:0:0:
313,167,114923,6,0,P|270:153|230:170,1,89.9999972534181,12|8,0:1|0:1,0:0:0:0:
176,216,115187,1,8,0:1:0:0:
176,216,115275,1,12,1:0:0:0:
65,110,115452,1,8,0:1:0:0:
193,227,115628,6,0,B|204:271|204:271|194:294|194:294|203:335,1,104.999996795654,4|0,0:0|0:0,0:0:0:0:
136,360,115981,1,2,1:0:0:0:
100,364,116070,1,2,0:0:0:0:
71,341,116158,1,2,0:0:0:0:
82,308,116246,1,2,0:0:0:0:
111,288,116334,2,0,L|109:249,1,34.9999989318848,2|0,1:2|0:0,0:0:0:0:
155,156,116511,5,2,0:0:0:0:
134,134,116599,1,2,0:0:0:0:
103,132,116687,1,2,1:2:0:0:
71,144,116775,1,0,0:0:0:0:
44,162,116863,1,0,0:0:0:0:
10,152,116951,1,0,0:0:0:0:
4,113,117040,1,2,1:2:0:0:
231,42,117217,6,0,L|240:79,1,34.9999989318848,2|2,0:0|0:0,0:0:0:0:
309,134,117393,1,2,1:2:0:0:
275,127,117481,1,2,0:0:0:0:
244,153,117570,1,2,0:0:0:0:
249,195,117658,1,2,0:0:0:0:
279,217,117746,2,0,L|356:202,1,69.9999978637696,2|2,1:2|0:0,0:0:0:0:
404,241,118011,5,0,0:0:0:0:
404,241,118099,2,0,L|327:226,1,69.9999978637696,2|2,1:2|0:0,0:0:0:0:
471,173,118452,6,0,L|462:137,1,34.9999989318848,2|0,1:2|0:0,0:0:0:0:
451,69,118628,1,2,0:0:0:0:
429,55,118717,1,2,0:0:0:0:
402,61,118805,2,0,L|357:49,2,34.9999989318848,2|2|2,1:2|0:0|0:0,0:0:0:0:
253,58,119158,5,2,1:2:0:0:
277,52,119246,1,2,0:0:0:0:
301,65,119334,2,0,L|292:104,1,34.9999989318848,2|2,0:0|0:0,0:0:0:0:
218,161,119511,2,0,L|209:122,1,34.9999989318848,2|0,1:2|0:0,0:0:0:0:
307,193,119687,2,0,P|282:225|256:240,1,69.9999978637696,2|0,0:0|1:0,0:0:0:0:
120,141,120040,5,2,0:0:0:0:
218,161,120217,1,2,1:2:0:0:
53,225,120393,6,0,B|50:214|50:214|32:200|27:162,1,69.9999978637696,2|0,0:0|1:0,0:0:0:0:
120,141,120746,1,2,0:0:0:0:
148,232,120923,1,2,1:2:0:0:
27,162,121099,1,2,0:0:0:0:
192,85,121275,6,0,B|157:40|92:52|92:52|66:73,1,139.999995727539,2|0,1:2|1:0,0:0:0:0:
178,175,121805,2,0,B|200:192|200:192|265:204|300:159,1,139.999995727539,2|2,0:0|0:0,0:0:0:0:
320,119,122246,1,2,0:0:0:0:
320,119,122334,2,0,P|280:136|267:165,1,69.9999978637696,2|0,1:2|0:0,0:0:0:0:
304,215,122599,5,0,0:0:0:0:
304,215,122687,2,0,P|293:256|299:285,1,69.9999978637696,0|2,1:0|0:0,0:0:0:0:
377,295,123040,6,0,P|398:331|423:348,1,69.9999978637696,0|2,0:0|0:0,0:0:0:0:
495,309,123393,1,0,1:0:0:0:
426,143,123570,5,2,0:0:0:0:
501,179,123746,2,0,P|467:217|414:224,1,104.999996795654,2|0,0:0|0:0,0:0:0:0:
383,208,124099,1,0,1:0:0:0:
232,39,124275,6,0,B|280:51|280:51|294:46|294:46|378:67,1,139.999995727539,2|0,0:0|0:0,0:0:0:0:
426,143,124805,5,2,1:2:0:0:
390,132,124893,1,2,0:0:0:0:
356,160,124981,1,2,0:0:0:0:
311,147,125070,1,2,0:0:0:0:
273,156,125158,1,2,1:2:0:0:
256,172,125246,2,0,L|216:156,2,34.9999989318848,0|2|0,0:0|0:0|0:0,0:0:0:0:
311,235,125511,5,4,0:0:0:0:
147,141,125687,1,8,0:1:0:0:
152,171,125775,1,8,0:1:0:0:
158,202,125864,1,8,0:1:0:0:
283,355,126040,5,8,1:0:0:0:
311,235,126217,1,8,0:1:0:0:
192,204,126393,1,8,0:1:0:0:
163,325,126570,1,12,0:1:0:0:
283,355,126746,1,8,0:1:0:0:
141,299,126923,6,0,L|17:315,1,120,4|0,0:0|0:0,0:0:0:0:
4,290,127275,2,0,P|-3:252|5:213,1,80,10|0,0:0|0:0,0:0:0:0:
144,112,127628,6,0,P|108:47|35:62,1,160,2|10,0:0|0:0,0:0:0:0:
137,191,128158,5,0,0:0:0:0:
137,191,128334,2,0,P|176:189|210:168,1,80,2|0,1:2|0:0,0:0:0:0:
345,64,128687,1,10,0:0:0:0:
262,26,128864,2,0,L|271:109,1,80,2|0,0:0|0:0,0:0:0:0:
416,218,129217,2,0,L|425:135,1,80,2|8,0:0|0:0,0:0:0:0:
321,247,129570,6,0,P|361:313|438:324,1,160,2|2,0:0|0:0,0:0:0:0:
490,243,130099,1,10,0:0:0:0:
510,158,130275,1,2,0:0:0:0:
424,138,130452,1,2,1:2:0:0:
405,224,130628,1,2,0:0:0:0:
510,158,130805,1,10,0:0:0:0:
427,46,130981,6,0,P|355:73|328:145,1,160,2|2,0:0|0:0,0:0:0:0:
405,223,131511,2,0,P|425:190|430:150,1,80,10|2,0:0|0:0,0:0:0:0:
257,225,131864,5,2,1:2:0:0:
257,225,132217,1,10,0:0:0:0:
418,296,132393,6,0,B|372:271|318:306|318:306|264:343|202:308,1,224.999993133545,6|0,0:0|0:0,0:0:0:0:
140,220,132923,5,10,0:0:0:0:
140,220,133099,2,0,P|227:224|206:309,1,200,2|2,0:0|0:0,0:0:0:0:
127,296,133628,1,10,0:0:0:0:
274,167,133805,6,0,L|264:-1,1,165.000005035401,2|0,1:2|0:0,0:0:0:0:
81,86,134158,2,0,L|71:254,1,165.000005035401,0|0,1:0|0:0,0:0:0:0:
274,167,134511,5,0,1:0:0:0:
81,86,134687,1,0,1:0:0:0:
256,192,135217,12,0,136099,0:0:0:0:
255,191,136805,6,0,P|270:213|272:239,1,52.4999983978272,0|0,3:0|0:0,0:0:0:0:
139,324,137158,6,0,P|172:284|185:234,1,104.999996795654,0|0,3:0|0:0,0:0:0:0:
99,119,137511,6,0,P|83:137|74:160,1,50,0|0,3:0|0:0,0:0:0:0:
142,47,137687,6,0,P|116:36|89:38,1,55.0000016784668,2|0,3:2|0:0,0:0:0:0:
244,67,137864,6,0,P|234:41|215:20,1,57.5000010967255,2|0,3:2|0:0,0:0:0:0:
329,142,138040,6,0,P|348:119|356:85,1,59.9999981689454,2|0,3:2|0:0,0:0:0:0:
227,177,138217,6,0,B|240:235|240:235|233:261|233:261|241:303,1,129.999994049073,4|2,0:0|0:0,0:0:0:0:
351,371,138481,5,2,0:0:0:0:
377,346,138570,2,0,B|369:304|369:304|376:278|376:278|363:220,1,129.999994049073,10|2,0:0|0:0,0:0:0:0:
245,68,138834,5,0,0:0:0:0:
245,68,138923,2,0,P|183:125|81:99,1,194.999991073609,2|0,1:2|0:0,0:0:0:0:
155,38,139275,5,10,0:0:0:0:
18,145,139452,2,0,L|40:340,1,194.999991073609,2|0,0:0|0:0,0:0:0:0:
106,365,139805,1,2,0:0:0:0:
294,283,139981,6,0,P|234:302|181:267,1,129.999994049073,10|0,0:0|0:0,0:0:0:0:
395,166,140334,2,0,P|420:186|435:214,1,64.9999970245363,2|0,1:2|0:0,0:0:0:0:
469,298,140511,2,0,P|456:328|433:350,1,64.9999970245363,2|0,0:0|0:0,0:0:0:0:
294,283,140687,6,0,L|302:347,1,64.9999970245363,10|0,0:0|0:0,0:0:0:0:
395,166,140864,2,0,L|403:101,1,64.9999970245363,2|0,0:0|0:0,0:0:0:0:
315,25,141040,6,0,B|239:17|239:17|203:34|203:34|122:25,1,194.999991073609,2|0,1:2|0:0,0:0:0:0:
0,102,141393,1,8,0:0:0:0:
159,287,141570,6,0,L|151:212,1,64.9999970245363,2|0,0:0|0:0,0:0:0:0:
0,102,141746,2,0,B|78:110|78:110|114:93|114:93|190:101,1,194.999991073609,2|0,1:2|0:0,0:0:0:0:
315,179,142099,1,10,0:0:0:0:
63,344,142275,6,0,L|71:269,1,64.9999970245363,2|0,0:0|0:0,0:0:0:0:
315,179,142452,2,0,B|236:170|236:170|200:187|200:187|124:179,1,194.999991073609,2|0,1:2|0:0,0:0:0:0:
0,102,142805,2,0,B|78:110|78:110|114:93|114:93|190:101,1,194.999991073609,10|0,0:0|0:0,0:0:0:0:
315,25,143158,6,0,B|250:18,1,64.9999970245363,2|0,1:2|0:0,0:0:0:0:
376,83,143334,2,0,P|397:60|403:28,1,64.9999970245363,8|0,0:0|0:0,0:0:0:0:
190,101,143511,2,0,P|196:132|217:156,1,64.9999970245363,8|0,0:0|0:0,0:0:0:0:
348,230,143687,1,2,0:0:0:0:
166,259,143864,6,0,P|196:314|257:328,1,129.999994049073,2|2,1:2|0:0,0:0:0:0:
245,179,144128,5,2,0:0:0:0:
229,165,144217,2,0,P|172:136|114:160,1,129.999994049073,10|2,0:0|0:0,0:0:0:0:
348,260,144570,6,0,B|327:208|354:163|354:163|379:120|354:69,1,194.999991073609,2|0,1:2|0:0,0:0:0:0:
253,16,144923,1,10,0:0:0:0:
348,260,145099,6,0,B|258:235|258:235|230:276|166:274,1,194.999991073609,2|0,0:0|0:0,0:0:0:0:
189,196,145452,1,2,0:0:0:0:
82,35,145628,6,0,B|25:52|25:52|41:126,1,129.999994049073,10|0,0:0|0:0,0:0:0:0:
189,196,145981,2,0,P|207:162|210:125,1,64.9999970245363,2|0,1:2|0:0,0:0:0:0:
30,238,146158,2,0,P|35:269|51:297,1,64.9999970245363,2|0,0:0|0:0,0:0:0:0:
168,348,146334,6,0,L|241:328,1,64.9999970245363,10|0,0:0|0:0,0:0:0:0:
348,260,146511,2,0,L|275:240,1,64.9999970245363,2|0,0:0|0:0,0:0:0:0:
123,81,146687,6,0,B|131:154|131:154|116:188|116:188|129:284,1,194.999991073609,2|0,1:2|0:0,0:0:0:0:
169,347,147040,1,8,0:0:0:0:
348,260,147217,6,0,L|275:240,1,64.9999970245363,2|0,0:0|0:0,0:0:0:0:
43,240,147393,2,0,B|31:156|31:156|46:122|46:122|38:49,1,194.999991073609,2|0,1:2|0:0,0:0:0:0:
123,81,147746,2,0,B|131:154|131:154|116:188|116:188|129:284,1,194.999991073609,10|0,0:0|0:0,0:0:0:0:
210,207,148099,5,2,1:2:0:0:
67,34,148275,1,2,0:0:0:0:
278,142,148452,6,0,P|300:188|276:263,1,129.999994049073,10|2,0:0|0:0,0:0:0:0:
127,153,148805,1,2,1:2:0:0:
340,34,148981,1,8,0:1:0:0:
320,68,149070,1,8,0:1:0:0:
341,100,149158,1,8,0:1:0:0:
487,252,149334,1,10,0:1:0:0:
421,202,149423,1,2,0:0:0:0:
367,305,149511,6,0,P|315:247|316:186,1,135.000000514984,6|2,1:2|0:0,0:0:0:0:
451,76,149775,1,2,0:0:0:0:
475,90,149864,2,0,P|469:155|422:202,1,135.000000514984,10|2,0:0|0:0,0:0:0:0:
234,354,150217,6,0,L|42:280,1,202.500000772476,2|0,1:2|0:0,0:0:0:0:
41,359,150570,1,10,0:0:0:0:
202,221,150746,6,0,P|205:143|99:99,1,202.500000772476,2|0,1:2|0:0,0:0:0:0:
123,181,151099,1,2,0:0:0:0:
279,61,151275,1,10,0:0:0:0:
110,184,151452,1,2,0:0:0:0:
329,264,151628,6,0,P|346:228|343:191,1,72.5000022125245,2|0,1:2|0:0,0:0:0:0:
147,36,151805,2,0,P|146:71|162:103,1,72.5000022125245,2|0,0:0|0:0,0:0:0:0:
344,82,151981,2,0,B|313:60|313:60|270:61,1,72.5000022125245,10|0,0:0|0:0,0:0:0:0:
110,184,152158,2,0,B|146:193|146:193|186:177,1,72.5000022125245,2|0,0:0|0:0,0:0:0:0:
452,52,152334,6,0,B|447:136|447:136|426:177|426:177|425:271,1,217.500006637573,6|0,1:2|0:0,0:0:0:0:
505,371,152687,2,0,L|506:226,1,145.000004425049,10|0,0:0|0:0,0:0:0:0:
375,116,152952,1,2,0:0:0:0:
356,99,153040,2,0,P|288:153|187:88,1,217.500006637573,0|0,1:0|0:0,0:0:0:0:
275,38,153393,1,8,0:0:0:0:
76,104,153570,5,2,1:2:0:0:
143,168,153746,2,0,L|115:314,1,135.000000514984,2|2,1:2|0:0,0:0:0:0:
37,342,154011,1,0,0:0:0:0:
37,342,154099,2,0,P|56:369|86:383,1,67.5000002574921,10|0,0:0|0:0,0:0:0:0:
276,286,154275,6,0,L|301:153,1,135.000000514984,2|0,0:0|0:0,0:0:0:0:
175,28,154540,1,0,0:0:0:0:
175,28,154628,2,0,P|176:68|191:97,1,67.5000002574921,10|0,0:0|0:0,0:0:0:0:
368,199,154805,2,0,P|380:168|380:134,1,67.5000002574921,10|0,0:0|0:0,0:0:0:0:
212,231,154981,1,2,0:0:0:0:
415,334,155158,6,0,P|353:323|308:367,1,129.999994049073,6|2,1:2|0:0,0:0:0:0:
455,269,155423,5,2,0:0:0:0:
473,259,155511,2,0,P|428:215|366:225,1,129.999994049073,10|2,0:0|0:0,0:0:0:0:
142,329,155864,2,0,B|112:221|112:221|137:130,1,194.999991073609,2|0,1:2|0:0,0:0:0:0:
214,48,156217,1,10,0:0:0:0:
350,161,156393,6,0,P|292:236|197:244,1,194.999991073609,2|0,0:0|0:0,0:0:0:0:
57,149,156746,1,2,0:0:0:0:
214,48,156923,2,0,P|250:105|252:171,1,129.999994049073,10|0,0:0|0:0,0:0:0:0:
106,286,157275,6,0,L|120:215,1,64.9999970245363,2|0,1:2|0:0,0:0:0:0:
44,85,157452,2,0,L|58:156,1,64.9999970245363,2|0,0:0|0:0,0:0:0:0:
197,244,157628,2,0,L|211:173,1,64.9999970245363,10|0,0:0|0:0,0:0:0:0:
20,289,157805,2,0,L|34:360,1,64.9999970245363,2|0,0:0|0:0,0:0:0:0:
302,205,157981,6,0,B|246:177|207:203|207:203|160:238|112:220,1,194.999991073609,2|0,1:2|0:0,0:0:0:0:
24,136,158334,1,8,0:0:0:0:
227,7,158511,6,0,L|209:75,1,64.9999970245363,2|0,0:0|0:0,0:0:0:0:
123,303,158687,2,0,B|165:319|212:284|212:284|251:258|307:286,1,194.999991073609,2|0,1:2|0:0,0:0:0:0:
302,205,159040,2,0,B|246:177|207:203|207:203|160:238|112:220,1,194.999991073609,10|0,0:0|0:0,0:0:0:0:
24,136,159393,5,6,1:2:0:0:
123,303,159570,1,2,0:0:0:0:
12,119,159746,5,10,0:1:0:0:
184,181,159923,1,2,0:0:0:0:
140,3,160099,1,10,0:1:0:0:
215,61,160187,1,8,0:1:0:0:
97,107,160275,2,0,P|78:140|76:168,1,64.9999970245363,8|0,1:0|0:0,0:0:0:0:
244,292,160452,6,0,P|247:254|237:227,1,64.9999970245363,0|0,1:0|0:0,0:0:0:0:
285,363,160628,2,0,P|314:338|325:312,1,64.9999970245363,8|0,0:0|0:0,0:0:0:0:
431,111,160805,6,0,L|446:376,1,259.999988098145,6|8,1:2|0:0,0:0:0:0:
324,314,161334,2,0,L|309:54,1,259.999988098145,2|0,0:0|1:0,0:0:0:0:
512,70,161864,6,0,P|467:28|398:27,1,129.999994049073,10|0,1:2|0:0,0:0:0:0:
431,111,162217,1,0,1:0:0:0:
194,36,162393,5,2,0:0:0:0:
182,143,162570,1,10,0:0:0:0:
290,154,162746,1,2,0:0:0:0:
301,47,162923,1,2,1:2:0:0:
182,143,163099,1,2,0:0:0:0:
290,154,163275,1,10,0:0:0:0:
194,36,163452,1,2,0:0:0:0:
59,139,163628,6,0,P|115:250|238:265,1,259.999988098145,6|8,1:2|0:0,0:0:0:0:
417,139,164158,2,0,P|293:153|238:265,1,259.999988098145,2|0,0:0|1:0,0:0:0:0:
327,346,164687,6,0,P|354:281|346:212,1,129.999994049073,10|0,0:0|0:0,0:0:0:0:
238,265,165040,1,0,1:0:0:0:
301,47,165217,5,2,0:0:0:0:
290,209,165394,1,10,0:0:0:0:
131,192,165570,1,2,0:0:0:0:
148,34,165747,1,2,1:2:0:0:
372,112,165923,5,10,0:1:0:0:
294,137,166011,1,8,0:1:0:0:
224,96,166099,1,10,0:1:0:0:
13,162,166275,1,10,0:1:0:0:
70,237,166364,1,8,0:1:0:0:
133,109,166452,2,0,P|179:181|166:258,1,155.000001182556,6|0,0:0|0:0,0:0:0:0:
63,350,166717,5,0,0:0:0:0:
86,333,166805,2,0,P|157:362|229:339,1,155.000001182556,10|0,0:0|1:0,0:0:0:0:
368,252,167070,5,0,0:0:0:0:
343,235,167158,2,0,B|287:205|287:205|308:375,1,232.500001773834,10|0,0:0|0:0,0:0:0:0:
330,111,167511,6,0,P|255:101|199:151,1,155.000001182556,10|0,0:0|1:0,0:0:0:0:
44,208,167775,5,0,0:0:0:0:
31,182,167864,2,0,P|105:172|161:222,1,155.000001182556,10|2,0:0|1:2,0:0:0:0:
253,301,168128,5,2,0:0:0:0:
280,293,168217,1,10,0:0:0:0:
422,212,168393,1,2,1:2:0:0:
341,70,168570,1,10,0:0:0:0:
199,151,168746,1,2,1:2:0:0:
422,212,168923,5,10,0:1:0:0:
360,172,169011,1,8,0:1:0:0:
287,187,169099,1,10,1:0:0:0:
230,233,169187,1,8,0:1:0:0:
157,247,169275,5,6,1:2:0:0:
230,233,169628,5,2,0:0:0:0:
287,187,169981,6,0,L|291:163,1,25,2|0,1:2|0:0,0:0:0:0:
360,172,170334,5,2,0:0:0:0:
422,212,170687,5,2,0:0:0:0:
