osu file format v14

[General]
AudioFilename: audio.mp3
AudioLeadIn: 0
PreviewTime: 36128
Countdown: 0
SampleSet: Soft
StackLeniency: 0.4
Mode: 0
LetterboxInBreaks: 0
WidescreenStoryboard: 1

[Editor]
Bookmarks: 1276,2687,13981,25275,36570,59158,70452,81746,93040,104334,126923,138217,160805,170687
DistanceSpacing: 1.2
BeatDivisor: 4
GridSize: 4
TimelineZoom: 2.1

[Metadata]
Title:Good-bye sengen
TitleUnicode:グッバイ宣言
Artist:mafumafu
ArtistUnicode:まふまふ
Creator:Mononymous
Version:Hard
Source:
Tags:Good bye Goodbye declaration v-flower vflower v flower vocaloid ボーカロイド japanese pop jpop j-pop utaite cover male vocal
BeatmapID:3053631
BeatmapSetID:1489661

[Difficulty]
HPDrainRate:5
CircleSize:3.8
OverallDifficulty:6.5
ApproachRate:8
SliderMultiplier:1.55
SliderTickRate:1

[Events]
//Background and Video events
0,0,"Don't Mind Me.png",0,0
//Break Periods
2,70452,80996
//Storyboard Layer 0 (Background)
//Storyboard Layer 1 (Fail)
//Storyboard Layer 2 (Pass)
//Storyboard Layer 3 (Foreground)
//Storyboard Layer 4 (Overlay)
//Storyboard Sound Samples

[TimingPoints]
1276,352.941176470588,4,2,1,60,1,0
1276,-111.111111111111,4,2,1,60,0,0
2687,-100,4,2,1,70,0,0
13981,-111.111111111111,4,2,1,60,0,0
23775,-111.111111111111,4,2,1,5,0,0
23864,-111.111111111111,4,2,1,60,0,0
25275,-111.111111111111,4,2,1,65,0,0
30923,-100,4,2,1,65,0,0
36570,-90.9090909090909,4,2,1,80,0,1
39658,-90.9090909090909,4,2,1,5,0,1
39746,-90.9090909090909,4,2,1,80,0,1
40364,-90.9090909090909,4,2,1,5,0,1
40452,-90.9090909090909,4,2,1,80,0,1
45305,-90.9090909090909,4,2,1,5,0,1
45393,-90.9090909090909,4,2,1,80,0,1
50952,-90.9090909090909,4,2,1,5,0,1
51040,-90.9090909090909,4,2,1,80,0,1
51658,-90.9090909090909,4,2,1,5,0,1
51746,-90.9090909090909,4,2,1,80,0,1
57305,-90.9090909090909,4,2,1,5,0,1
57393,-90.9090909090909,4,2,1,80,0,1
67628,-111.111111111111,4,2,1,60,0,0
70452,-100,4,2,1,70,0,0
81746,-111.111111111111,4,2,1,60,0,0
93040,-111.111111111111,4,2,1,65,0,0
98687,-100,4,2,1,70,0,0
104334,-117.647058823529,4,2,1,65,0,0
114923,-100,4,2,1,70,0,0
115628,-111.111111111111,4,2,1,70,0,0
125511,-100,4,2,1,70,0,0
126923,-100,4,2,1,60,0,0
132393,-95.2380952380952,4,2,1,75,0,0
135217,-100,4,2,1,80,0,0
136099,-100,4,2,1,5,0,0
136805,-111.111111111111,4,2,1,40,0,0
137158,-111.111111111111,4,2,1,50,0,0
137511,-100,4,2,1,60,0,0
137687,-100,4,2,1,65,0,0
137864,-100,4,2,1,70,0,0
138040,-100,4,2,1,75,0,0
138217,-90.9090909090909,4,2,1,80,0,1
139187,-90.9090909090909,4,2,1,5,0,1
139275,-90.9090909090909,4,2,1,80,0,1
141305,-90.9090909090909,4,2,1,5,0,1
141393,-90.9090909090909,4,2,1,80,0,1
142011,-90.9090909090909,4,2,1,5,0,1
142099,-90.9090909090909,4,2,1,80,0,1
142717,-90.9090909090909,4,2,1,5,0,1
142805,-90.9090909090909,4,2,1,80,0,1
143070,-90.9090909090909,4,2,1,5,0,1
143158,-90.9090909090909,4,2,1,80,0,1
144834,-90.9090909090909,4,2,1,5,0,1
144922,-90.9090909090909,4,2,1,80,0,1
146952,-90.9090909090909,4,2,1,5,0,1
147040,-90.9090909090909,4,2,1,80,0,1
151011,-90.9090909090909,4,2,1,5,0,1
151099,-90.9090909090909,4,2,1,80,0,1
151628,-86.9565217391304,4,2,1,85,0,1
153570,-90.9090909090909,4,2,1,80,0,1
156658,-90.9090909090909,4,2,1,5,0,1
156746,-90.9090909090909,4,2,1,80,0,1
158952,-90.9090909090909,4,2,1,5,0,1
159040,-90.9090909090909,4,2,1,80,0,1
165217,-86.9565217391304,4,2,1,85,0,1
169275,-111.111111111111,4,2,1,70,0,0
169981,-111.111111111111,4,2,1,60,0,0
170687,-111.111111111111,4,2,1,50,0,0

[Colours]
Combo1 : 239,210,143
Combo2 : 198,198,198
Combo3 : 145,200,200
Combo4 : 255,53,53

[HitObjects]
228,82,1276,5,2,3:2:0:0:
394,132,1628,1,2,3:2:0:0:
347,299,1981,2,0,L|279:278,1,69.749997871399,0|2,3:0|0:0,0:0:0:0:
206,254,2334,1,2,0:0:0:0:
206,254,2423,1,2,0:0:0:0:
206,254,2511,1,2,0:0:0:0:
122,302,2687,6,0,P|108:265|112:227,1,77.5,6|2,1:2|0:0,0:0:0:0:
177,156,3040,1,10,1:2:0:0:
122,75,3217,2,0,L|281:102,1,155,2|2,0:0|1:2,0:0:0:0:
364,63,3746,6,0,P|401:58|431:34,2,77.5,10|2|2,1:2|0:0|1:2,0:0:0:0:
274,100,4275,2,0,L|282:185,1,77.5,2|8,0:0|0:0,0:0:0:0:
347,248,4628,1,2,0:0:0:0:
264,298,4805,2,0,P|225:303|191:286,1,77.5,2|2,1:2|0:0,0:0:0:0:
157,251,5070,1,0,0:0:0:0:
157,251,5158,2,0,L|163:170,1,77.5,10|2,1:2|0:0,0:0:0:0:
86,112,5511,6,0,P|51:129|12:128,2,77.5,2|2|10,1:2|0:0|0:0,0:0:0:0:
157,47,6040,2,0,L|239:61,1,77.5,2|0,0:0|1:0,0:0:0:0:
324,106,6393,1,2,0:0:0:0:
324,106,6570,2,0,L|406:92,1,77.5,10|2,0:0|0:0,0:0:0:0:
487,135,6923,6,0,P|496:97|492:59,2,77.5,2|2|10,1:2|0:0|0:0,0:0:0:0:
407,191,7452,1,2,0:0:0:0:
407,191,7628,2,0,L|418:275,1,77.5,6|10,0:0|0:1,0:0:0:0:
423,316,7893,1,0,0:0:0:0:
423,315,7981,2,0,P|385:324|348:315,1,77.5,10|2,0:0|1:2,0:0:0:0:
268,260,8334,6,0,L|274:337,2,77.5,6|2|10,1:2|0:0|0:0,0:0:0:0:
184,209,8864,2,0,P|243:162|317:177,1,155,2|2,0:0|1:2,0:0:0:0:
406,216,9393,6,0,L|487:206,2,77.5,10|2|2,1:2|0:0|1:2,0:0:0:0:
317,177,9923,2,0,P|320:138|311:100,1,77.5,2|8,0:0|1:2,0:0:0:0:
245,29,10275,1,2,0:0:0:0:
159,75,10452,1,2,1:2:0:0:
78,41,10628,1,2,0:0:0:0:
78,41,10717,1,0,0:0:0:0:
78,41,10805,2,0,L|53:123,1,77.5,10|2,0:0|0:0,0:0:0:0:
22,206,11158,6,0,P|60:213|97:201,1,77.5,2|2,1:2|0:0,0:0:0:0:
174,143,11511,1,10,1:2:0:0:
255,195,11687,2,0,L|240:271,1,77.5,2|2,0:0|1:2,0:0:0:0:
157,335,12040,1,2,0:0:0:0:
157,335,12217,2,0,P|119:345|81:339,1,77.5,10|2,0:0|0:0,0:0:0:0:
44,249,12570,6,0,L|36:160,1,77.5,2|2,1:2|0:0,0:0:0:0:
17,80,12923,1,10,0:0:0:0:
98,35,13099,1,2,0:0:0:0:
268,74,13452,5,2,0:0:0:0:
268,74,13628,2,0,L|317:87,1,38.75,2|0,3:0|0:0,0:0:0:0:
342,97,13805,2,0,L|391:84,1,38.75,2|0,3:0|0:0,0:0:0:0:
413,80,13981,6,0,P|439:143|419:208,1,139.499995742798,6|0,1:2|1:0,0:0:0:0:
362,231,14511,2,0,P|342:296|368:359,1,139.499995742798,2|0,0:0|0:0,0:0:0:0:
453,379,15040,1,2,1:2:0:0:
283,366,15393,5,0,1:0:0:0:
283,366,15570,2,0,L|140:378,1,139.499995742798,2|0,0:0|0:0,0:0:0:0:
80,317,16099,2,0,P|57:290|46:257,2,69.749997871399,2|2|2,1:2|0:0|1:2,0:0:0:0:
143,256,16628,5,2,0:0:0:0:
143,256,16805,2,0,L|158:114,1,139.499995742798,2|0,1:2|1:0,0:0:0:0:
177,32,17334,2,0,P|127:79|59:86,1,139.499995742798,2|2,0:0|0:0,0:0:0:0:
3,17,17864,1,2,1:2:0:0:
72,182,18217,5,0,1:0:0:0:
72,182,18393,2,0,L|54:250,2,69.749997871399,2|2|2,0:0|1:2|0:0,0:0:0:0:
141,131,18923,2,0,L|123:63,2,69.749997871399,2|2|2,1:2|0:0|1:2,0:0:0:0:
214,178,19452,1,2,0:0:0:0:
214,178,19628,6,0,P|247:168|280:177,1,69.749997871399,6|2,1:2|0:0,0:0:0:0:
318,198,19893,2,0,L|423:177,1,104.624996807098,2|2,0:0|0:0,0:0:0:0:
493,225,20334,6,0,L|469:297,1,69.749997871399,2|2,1:2|0:0,0:0:0:0:
449,329,20599,2,0,P|407:301|356:308,1,104.624996807098,2|2,0:0|0:0,0:0:0:0:
270,323,21040,6,0,P|206:334|169:279,1,139.499995742798,2|0,1:2|1:0,0:0:0:0:
168,278,21746,2,0,P|163:244|148:213,2,69.749997871399,2|2|2,1:2|0:0|1:2,0:0:0:0:
101,334,22275,1,2,0:0:0:0:
101,334,22452,6,0,P|36:312|61:258,2,139.499995742798,2|2|2,1:2|1:2|1:2,0:0:0:0:
236,217,23511,2,0,L|224:92,1,104.624996807098,2|0,1:2|0:0,0:0:0:0:
231,69,23864,5,2,1:2:0:0:
154,28,24040,1,2,0:0:0:0:
79,73,24217,2,0,P|32:85|-3:81,2,69.749997871399,2|2|2,1:2|0:0|1:2,0:0:0:0:
222,172,24923,6,0,L|206:251,1,69.749997871399,8|0,0:0|0:0,0:0:0:0:
139,294,25275,2,0,P|73:306|29:256,1,139.499995742798,6|8,0:0|0:0,0:0:0:0:
107,215,25805,2,0,P|172:203|216:253,1,139.499995742798,2|2,0:0|0:0,0:0:0:0:
251,333,26334,1,10,0:0:0:0:
419,271,26687,5,0,1:0:0:0:
419,271,26864,2,0,P|450:287|469:316,2,69.749997871399,2|10|2,1:2|0:0|0:0,0:0:0:0:
336,268,27393,2,0,P|305:250|286:222,2,69.749997871399,2|2|10,1:2|0:0|0:0,0:0:0:0:
404,194,27923,5,2,0:0:0:0:
404,194,28099,2,0,B|417:145|417:145|385:58,1,139.499995742798,2|8,0:0|0:0,0:0:0:0:
313,13,28628,2,0,P|249:36|217:97,1,139.499995742798,2|0,0:0|0:0,0:0:0:0:
254,175,29158,1,8,0:0:0:0:
130,91,29511,5,0,1:0:0:0:
130,91,29688,2,0,L|137:21,2,69.749997871399,2|10|2,0:0|0:0|0:0,0:0:0:0:
61,145,30217,2,0,L|70:223,2,69.749997871399,2|10|10,1:2|0:0|0:0,0:0:0:0:
144,330,30923,6,0,P|199:342|251:319,1,116.25,6|2,0:0|0:0,0:0:0:0:
289,287,31275,1,8,0:0:0:0:
220,222,31452,1,2,0:0:0:0:
271,140,31628,2,0,L|394:165,1,116.25,2|2,1:2|0:0,0:0:0:0:
428,184,31981,2,0,P|430:226|422:262,1,77.5,8|2,0:0|0:0,0:0:0:0:
330,290,32334,6,0,P|327:251|335:213,1,77.5,2|0,1:2|0:0,0:0:0:0:
428,184,32687,1,8,0:0:0:0:
363,119,32864,1,2,0:0:0:0:
363,119,33040,2,0,L|279:132,2,77.5,2|2|10,1:2|0:0|0:0,0:0:0:0:
439,60,33570,6,0,P|445:135|503:183,2,155,4|2|2,0:0|1:2|0:0,0:0:0:0:
357,7,34452,2,0,P|325:30|288:36,1,77.5,2|0,1:2|1:0,0:0:0:0:
194,10,34805,1,10,1:2:0:0:
122,75,34981,6,0,L|150:160,1,77.5,6|0,1:2|0:0,0:0:0:0:
224,206,35334,2,0,L|196:291,1,77.5,2|0,1:2|0:0,0:0:0:0:
117,331,35687,1,2,1:2:0:0:
117,331,35864,2,0,P|47:306|31:233,1,155,2|10,1:2|1:2,0:0:0:0:
79,149,36393,1,2,0:0:0:0:
206,207,36570,6,0,L|290:198,1,85.2500026016236,6|2,1:2|0:0,0:0:0:0:
345,187,36834,1,2,0:0:0:0:
345,187,36923,2,0,P|351:240|341:276,1,85.2500026016236,10|2,0:0|0:0,0:0:0:0:
438,318,37275,2,0,P|413:352|377:375,1,85.2500026016236,2|0,1:2|0:0,0:0:0:0:
285,330,37628,5,10,0:0:0:0:
285,330,37805,2,0,L|195:347,1,85.2500026016236,2|0,0:0|1:0,0:0:0:0:
139,265,38158,1,2,0:0:0:0:
139,265,38335,2,0,L|229:248,1,85.2500026016236,10|0,0:0|0:0,0:0:0:0:
292,169,38687,2,0,P|314:127|315:89,2,85.2500026016236,2|2|10,1:2|0:0|0:0,0:0:0:0:
207,102,39217,5,2,0:0:0:0:
207,102,39393,2,0,P|144:98|94:135,1,127.875003902435,2|0,1:2|0:0,0:0:0:0:
56,173,39746,2,0,L|89:265,1,85.2500026016236,8|2,0:0|0:0,0:0:0:0:
169,318,40099,2,0,P|231:322|281:285,1,127.875003902435,2|0,1:2|0:0,0:0:0:0:
325,252,40452,2,0,L|292:160,1,85.2500026016236,8|2,0:0|0:0,0:0:0:0:
207,102,40805,6,0,B|138:85|138:85|112:92|112:92|36:73,2,170.500005203247,2|10|2,1:2|0:0|1:2,0:0:0:0:
296,171,41687,1,8,0:0:0:0:
296,171,41864,2,0,L|324:90,1,85.2500026016236,8|2,0:0|0:0,0:0:0:0:
430,90,42217,6,0,P|417:49|387:20,1,85.2500026016236,2|2,1:2|0:0,0:0:0:0:
339,12,42481,1,2,0:0:0:0:
339,12,42570,2,0,L|242:35,1,85.2500026016236,10|2,0:0|0:0,0:0:0:0:
163,85,42923,2,0,L|66:62,1,85.2500026016236,2|0,1:2|0:0,0:0:0:0:
42,167,43275,5,10,0:0:0:0:
42,167,43452,2,0,P|31:209|36:251,1,85.2500026016236,2|0,0:0|1:2,0:0:0:0:
118,325,43805,1,2,0:0:0:0:
118,325,43981,2,0,L|209:337,1,85.2500026016236,10|0,0:0|0:0,0:0:0:0:
255,243,44334,2,0,P|253:192|236:161,2,85.2500026016236,2|2|10,1:2|0:0|0:0,0:0:0:0:
349,306,44864,5,2,0:0:0:0:
349,306,45040,2,0,P|391:270|460:277,1,127.875003902435,2|0,1:2|0:0,0:0:0:0:
503,308,45393,2,0,L|492:221,1,85.2500026016236,8|2,0:0|0:0,0:0:0:0:
423,136,45746,2,0,B|349:138|349:138|329:146|329:146|254:147,1,170.500005203247,2|10,1:2|0:0,0:0:0:0:
56,65,46452,5,2,1:2:0:0:
133,137,46628,1,2,0:0:0:0:
66,220,46805,2,0,P|105:236|147:237,1,85.2500026016236,10|2,0:0|0:0,0:0:0:0:
241,187,47158,2,0,L|252:288,1,85.2500026016236,2|8,1:2|0:1,0:0:0:0:
244,328,47423,1,8,1:0:0:0:
244,328,47511,1,8,0:1:0:0:
339,281,47687,2,0,L|385:289,1,42.6250013008118,10|2,0:1|0:0,0:0:0:0:
429,266,47864,6,0,P|451:231|456:189,1,85.2500026016236,6|2,1:2|0:0,0:0:0:0:
455,138,48128,1,2,0:0:0:0:
455,138,48217,2,0,L|372:153,1,85.2500026016236,10|2,0:0|0:0,0:0:0:0:
273,209,48570,2,0,L|188:187,1,85.2500026016236,2|0,1:2|0:0,0:0:0:0:
112,122,48923,5,10,0:0:0:0:
112,122,49099,2,0,P|89:159|80:200,1,85.2500026016236,2|0,0:0|1:0,0:0:0:0:
146,289,49452,1,2,0:0:0:0:
146,289,49628,2,0,P|182:266|223:257,1,85.2500026016236,10|0,0:0|0:0,0:0:0:0:
322,297,49981,2,0,L|403:335,2,85.2500026016236,2|2|10,1:2|0:0|0:0,0:0:0:0:
296,197,50511,5,2,0:0:0:0:
296,197,50687,2,0,B|255:172|255:172|175:180,1,127.875003902435,2|0,1:2|0:0,0:0:0:0:
124,162,51040,2,0,P|149:203|146:246,1,85.2500026016236,8|2,0:0|0:0,0:0:0:0:
79,320,51393,2,0,B|120:345|120:345|200:337,1,127.875003902435,2|0,1:2|0:0,0:0:0:0:
252,327,51746,2,0,P|227:286|230:243,1,85.2500026016236,8|2,0:0|0:0,0:0:0:0:
309,180,52099,6,0,P|355:249|357:334,2,170.500005203247,2|10|2,1:2|0:0|1:2,0:0:0:0:
238,107,52981,1,8,0:0:0:0:
238,107,53158,2,0,L|144:125,1,85.2500026016236,8|2,0:0|0:0,0:0:0:0:
60,178,53511,6,0,P|42:133|45:98,1,85.2500026016236,2|2,1:2|0:0,0:0:0:0:
65,50,53775,1,2,0:0:0:0:
65,50,53864,2,0,L|148:33,1,85.2500026016236,10|2,0:0|0:0,0:0:0:0:
231,100,54217,2,0,P|233:142|216:180,1,85.2500026016236,2|0,1:2|0:0,0:0:0:0:
200,289,54570,5,10,0:0:0:0:
200,289,54746,2,0,P|160:273|132:242,1,85.2500026016236,2|0,0:0|1:0,0:0:0:0:
56,316,55099,1,2,0:0:0:0:
56,316,55275,2,0,L|123:368,1,85.2500026016236,10|0,0:0|0:0,0:0:0:0:
230,361,55628,2,0,P|263:336|278:297,2,85.2500026016236,2|2|10,1:0|0:0|0:0,0:0:0:0:
186,269,56158,5,2,0:0:0:0:
186,269,56334,2,0,P|231:200|313:198,1,170.500005203247,2|8,1:2|0:0,0:0:0:0:
398,264,56864,1,2,0:0:0:0:
398,264,57040,2,0,P|410:198|397:133,1,127.875003902435,2|0,1:2|0:0,0:0:0:0:
354,108,57393,2,0,L|261:122,1,85.2500026016236,8|0,0:0|0:0,0:0:0:0:
168,153,57746,5,6,1:2:0:0:
136,53,57923,1,2,0:0:0:0:
235,26,58099,1,10,0:1:0:0:
269,120,58275,1,2,1:2:0:0:
168,153,58452,1,10,0:1:0:0:
168,153,58540,1,8,0:1:0:0:
168,153,58628,2,0,L|77:136,2,85.2500026016236,8|0|8,1:0|1:0|0:0,0:0:0:0:
261,203,59158,6,0,P|239:283|165:320,1,170.500005203247,6|8,0:0|0:0,0:0:0:0:
59,336,59687,2,0,P|81:256|155:219,1,170.500005203247,2|0,0:0|1:0,0:0:0:0:
261,203,60217,2,0,L|430:243,1,170.500005203247,10|0,0:0|1:0,0:0:0:0:
504,168,60746,5,2,0:0:0:0:
445,78,60923,2,0,P|404:121|395:157,2,85.2500026016236,10|2|2,0:0|0:0|1:2,0:0:0:0:
504,168,61452,1,2,1:2:0:0:
504,168,61628,2,0,L|485:260,1,85.2500026016236,10|2,0:0|0:0,0:0:0:0:
411,326,61981,6,0,B|348:310|348:310|313:321|313:321|246:303,1,170.500005203247,6|8,0:0|0:0,0:0:0:0:
236,196,62511,2,0,B|302:213|302:213|338:203|338:203|400:218,1,170.500005203247,2|0,0:0|1:0,0:0:0:0:
377,114,63040,2,0,L|200:70,1,170.500005203247,10|0,0:0|1:0,0:0:0:0:
116,23,63570,5,2,0:0:0:0:
22,72,63746,2,0,P|13:113|16:156,2,85.2500026016236,10|2|2,0:0|0:0|1:2,0:0:0:0:
116,23,64275,1,10,0:0:0:0:
116,23,64452,2,0,P|124:64|121:107,1,85.2500026016236,10|2,0:0|0:0,0:0:0:0:
30,164,64805,6,0,B|70:205|70:205|44:319,1,170.500005203247,6|8,0:0|0:0,0:0:0:0:
164,352,65334,2,0,P|244:349|273:274,1,170.500005203247,2|0,0:0|1:0,0:0:0:0:
285,168,65864,2,0,P|204:170|175:245,1,170.500005203247,10|0,0:0|1:0,0:0:0:0:
273,274,66393,5,2,0:0:0:0:
372,234,66570,2,0,L|469:256,2,85.2500026016236,10|2|2,0:0|0:0|1:2,0:0:0:0:
272,273,67099,1,2,0:0:0:0:
272,273,67275,2,0,P|264:232|274:191,1,85.2500026016236,10|2,0:0|0:0,0:0:0:0:
338,130,67628,5,2,1:2:0:0:
183,49,67981,1,2,0:0:0:0:
102,204,68334,1,2,1:2:0:0:
257,285,68687,1,2,1:2:0:0:
338,130,69040,5,2,1:2:0:0:
166,44,81746,6,0,P|112:32|43:86,1,139.499995742798,6|0,1:2|1:0,0:0:0:0:
2,153,82275,2,0,P|56:165|125:111,1,139.499995742798,2|0,0:0|0:0,0:0:0:0:
166,44,82805,1,2,1:2:0:0:
315,134,83158,5,0,1:0:0:0:
315,134,83334,2,0,L|275:273,1,139.499995742798,2|0,0:0|0:0,0:0:0:0:
229,342,83864,2,0,P|203:319|189:287,2,69.749997871399,2|2|2,1:2|0:0|1:2,0:0:0:0:
313,366,84393,5,2,0:0:0:0:
313,366,84570,2,0,L|456:332,1,139.499995742798,2|0,1:2|1:0,0:0:0:0:
487,255,85099,2,0,L|344:221,1,139.499995742798,2|2,0:0|0:0,0:0:0:0:
268,251,85628,1,2,1:2:0:0:
411,152,85981,5,0,1:0:0:0:
411,152,86158,2,0,P|425:120|450:95,2,69.749997871399,2|2|2,0:0|1:2|0:0,0:0:0:0:
462,222,86687,2,0,P|486:246|500:278,2,69.749997871399,2|2|2,1:2|0:0|1:2,0:0:0:0:
392,275,87217,1,2,0:0:0:0:
392,275,87393,6,0,L|320:259,1,69.749997871399,6|0,1:2|0:0,0:0:0:0:
279,259,87658,2,0,P|261:216|275:158,1,104.624996807098,2|2,0:0|0:0,0:0:0:0:
356,132,88099,6,0,L|372:60,1,69.749997871399,2|2,1:2|0:0,0:0:0:0:
383,21,88364,2,0,P|426:24|463:74,1,104.624996807098,2|2,0:0|0:0,0:0:0:0:
498,149,88805,6,0,L|468:285,1,139.499995742798,2|0,1:2|1:0,0:0:0:0:
467,285,89511,2,0,L|481:356,2,69.749997871399,2|2|2,1:2|0:0|1:2,0:0:0:0:
401,234,90040,5,2,0:0:0:0:
401,234,90217,2,0,P|338:235|290:303,2,139.499995742798,2|2|2,1:2|1:2|1:2,0:0:0:0:
298,374,91275,6,0,P|263:369|231:356,1,69.749997871399,2|2,1:2|0:0,0:0:0:0:
186,279,91628,1,2,1:2:0:0:
106,313,91805,2,0,L|62:303,2,34.8749989356995,2|0|2,0:0|0:0|1:2,0:0:0:0:
186,279,92158,1,2,0:0:0:0:
186,279,92334,2,0,P|201:245|208:204,2,69.749997871399,2|2|2,1:2|0:0|1:2,0:0:0:0:
68,149,93040,6,0,P|79:98|165:65,1,139.499995742798,6|8,0:0|0:0,0:0:0:0:
240,55,93570,2,0,P|229:106|143:139,1,139.499995742798,2|0,0:0|0:0,0:0:0:0:
68,149,94099,1,10,0:0:0:0:
160,296,94452,5,0,1:0:0:0:
160,296,94629,2,0,P|154:329|166:362,2,69.749997871399,2|10|2,0:0|0:0|0:0,0:0:0:0:
225,236,95158,2,0,L|304:225,1,69.749997871399,2|2,1:2|0:0,0:0:0:0:
361,171,95511,2,0,L|440:182,1,69.749997871399,10|2,0:0|0:0,0:0:0:0:
495,237,95864,6,0,P|496:283|431:345,1,139.499995742798,2|8,0:0|0:0,0:0:0:0:
349,372,96393,2,0,P|348:326|413:264,1,139.499995742798,2|0,0:0|0:0,0:0:0:0:
495,237,96923,1,10,0:0:0:0:
358,128,97275,5,0,1:0:0:0:
358,128,97453,2,0,L|349:58,2,69.749997871399,2|10|2,0:0|0:0|0:0,0:0:0:0:
293,187,97981,2,0,P|258:194|225:186,1,69.749997871399,2|10,1:2|0:0,0:0:0:0:
179,111,98334,2,0,P|145:104|111:110,1,69.749997871399,8|2,0:0|0:0,0:0:0:0:
33,167,98687,5,4,0:0:0:0:
33,167,98864,2,0,L|41:244,1,77.5,2|10,0:0|0:0,0:0:0:0:
116,314,99217,1,2,0:0:0:0:
116,314,99393,2,0,P|191:313|244:259,1,155,2|10,1:2|0:0,0:0:0:0:
336,220,99923,5,2,0:0:0:0:
336,220,100099,2,0,L|316:104,2,116.25,2|2|2,1:0|0:0|0:0,0:0:0:0:
273,296,100805,2,0,L|192:284,2,77.5,2|0|10,1:2|0:0|0:0,0:0:0:0:
337,382,101334,5,8,0:1:0:0:
337,382,101423,1,8,0:1:0:0:
337,382,101511,2,0,L|452:365,1,116.25,6|0,1:2|0:0,0:0:0:0:
496,347,101864,2,0,P|496:307|480:270,1,77.5,10|0,1:2|0:0,0:0:0:0:
426,192,102217,6,0,L|310:208,1,116.25,2|0,1:2|0:0,0:0:0:0:
262,210,102570,1,10,1:2:0:0:
204,145,102746,5,8,0:1:0:0:
204,145,102834,1,8,0:1:0:0:
204,145,102923,2,0,L|165:152,3,38.75,14|8|8|8,1:0|0:1|1:0|0:1,0:0:0:0:
121,170,103275,2,0,L|82:162,3,38.75,8|8|8|8,1:0|0:1|0:1|0:1,0:0:0:0:
39,139,103628,2,0,P|38:178|53:213,1,77.5,2|0,1:2|1:0,0:0:0:0:
137,261,103981,2,0,P|137:299|122:334,1,77.5,0|0,1:0|1:0,0:0:0:0:
44,365,104334,1,4,1:2:0:0:
209,339,104687,5,2,1:2:0:0:
209,339,104864,2,0,L|339:358,1,131.750002512932,2|0,0:0|0:0,0:0:0:0:
403,305,105393,2,0,P|420:243|395:184,1,131.750002512932,2|0,1:2|1:0,0:0:0:0:
327,133,105923,1,2,0:0:0:0:
183,210,106275,5,0,0:0:0:0:
183,210,106452,2,0,L|50:171,1,131.750002512932,2|2,1:2|1:2,0:0:0:0:
52,94,106981,1,2,0:0:0:0:
52,94,107158,2,0,L|178:131,1,131.750002512932,2|0,1:2|1:0,0:0:0:0:
247,176,107687,2,0,P|323:171|356:120,1,131.750002512932,2|0,0:0|1:0,0:0:0:0:
374,49,108217,1,2,0:0:0:0:
503,139,108570,5,2,1:2:0:0:
463,215,108746,1,2,0:0:0:0:
463,215,108834,1,2,0:0:0:0:
463,215,108923,2,0,L|471:253,3,32.937500628233,2|2|2|2,1:2|0:0|0:0|0:0,0:0:0:0:
491,282,109275,2,0,L|416:265,1,65.8750012564659,2|2,1:2|0:0,0:0:0:0:
360,218,109628,1,2,1:2:0:0:
293,267,109805,5,2,0:0:0:0:
293,267,109893,1,2,0:0:0:0:
293,267,109981,2,0,P|298:313|230:351,1,131.750002512932,2|0,1:2|1:0,0:0:0:0:
211,270,110511,1,2,0:0:0:0:
60,337,110864,5,0,0:0:0:0:
60,337,110952,1,0,0:0:0:0:
60,337,111040,2,0,L|72:272,1,65.8750012564659,2|0,1:2|0:0,0:0:0:0:
127,211,111393,6,0,L|108:113,2,98.8125018846989,2|2|2,1:2|0:0|0:0,0:0:0:0:
193,260,112099,2,0,L|174:357,2,98.8125018846989,2|2|2,0:0|0:0|0:0,0:0:0:0:
254,205,112805,6,0,P|318:218|370:179,1,131.750002512932,2|2,0:0|1:2,0:0:0:0:
413,110,113334,2,0,P|349:97|297:136,1,131.750002512932,2|0,0:0|0:0,0:0:0:0:
254,205,113864,2,0,L|189:190,1,65.8750012564659,2|2,1:2|0:0,0:0:0:0:
129,134,114217,6,0,P|100:173|22:168,1,131.750002512932,2|0,1:2|1:0,0:0:0:0:
60,95,114746,1,2,0:0:0:0:
137,142,114923,6,0,L|121:217,1,77.5,12|8,0:1|0:1,0:0:0:0:
113,268,115187,1,8,0:1:0:0:
113,268,115275,1,12,1:0:0:0:
181,336,115452,1,8,0:1:0:0:
261,304,115628,6,0,P|326:326|385:293,1,139.499995742798,4|2,0:0|1:0,0:0:0:0:
442,237,116158,1,2,0:0:0:0:
442,237,116246,1,2,0:0:0:0:
442,237,116334,2,0,L|435:200,3,34.8749989356995,2|0|2|2,1:2|0:0|0:0|0:0,0:0:0:0:
418,162,116687,2,0,L|433:82,1,69.749997871399,2|0,1:2|0:0,0:0:0:0:
456,9,117040,5,2,1:2:0:0:
374,41,117217,2,0,P|310:66|241:57,1,139.499995742798,2|2,0:0|0:0,0:0:0:0:
161,22,117746,2,0,L|90:35,1,69.749997871399,2|2,1:2|0:0,0:0:0:0:
26,86,118099,1,2,1:2:0:0:
26,86,118187,1,2,0:0:0:0:
26,86,118275,1,2,0:0:0:0:
93,138,118452,2,0,P|99:173|91:206,2,69.749997871399,2|2|2,1:2|0:0|1:2,0:0:0:0:
7,290,119158,6,0,P|33:314|65:326,1,69.749997871399,2|2,1:2|0:0,0:0:0:0:
149,301,119511,1,2,1:2:0:0:
149,301,119687,2,0,L|291:333,1,139.499995742798,2|2,0:0|0:0,0:0:0:0:
347,269,120217,1,2,1:2:0:0:
347,269,120393,2,0,L|210:238,1,139.499995742798,2|2,0:0|0:0,0:0:0:0:
153,172,120923,2,0,P|152:130|165:104,2,69.749997871399,2|2|2,1:2|0:0|1:2,0:0:0:0:
305,87,121628,5,0,1:0:0:0:
305,87,121805,2,0,L|443:66,1,139.499995742798,2|2,0:0|0:0,0:0:0:0:
499,133,122334,2,0,P|494:201|450:253,1,139.499995742798,2|0,1:2|1:0,0:0:0:0:
371,291,122864,2,0,P|375:222|419:170,1,139.499995742798,2|2,0:0|0:0,0:0:0:0:
275,70,123570,5,2,0:0:0:0:
275,70,123746,2,0,L|136:89,1,139.499995742798,2|0,0:0|1:0,0:0:0:0:
69,144,124275,2,0,P|52:113|49:79,2,69.749997871399,2|0|0,0:0|1:0|0:0,0:0:0:0:
135,201,124805,2,0,L|180:195,3,34.8749989356995,2|2|2|2,1:2|0:0|0:0|0:0,0:0:0:0:
207,174,125158,2,0,L|286:184,1,69.749997871399,2|2,1:2|0:0,0:0:0:0:
367,201,125511,5,4,0:0:0:0:
291,257,125687,1,8,0:1:0:0:
291,257,125775,1,8,0:1:0:0:
291,257,125864,2,0,P|276:221|275:182,1,77.5,8|8,0:1|1:0,0:0:0:0:
351,126,126217,2,0,P|365:161|366:200,1,77.5,8|8,0:1|0:1,0:0:0:0:
291,257,126570,2,0,L|215:239,1,77.5,12|8,0:1|0:1,0:0:0:0:
147,175,126923,6,0,L|71:193,1,77.5,4|0,0:0|0:0,0:0:0:0:
7,120,127275,2,0,P|35:51|108:33,1,155,10|2,0:0|0:0,0:0:0:0:
301,57,127981,6,0,L|291:134,1,77.5,10|0,0:0|0:0,0:0:0:0:
223,203,128334,2,0,P|154:233|92:191,1,155,2|10,1:2|0:0,0:0:0:0:
25,121,128864,1,2,0:0:0:0:
16,314,129217,6,0,L|99:295,1,77.5,2|8,0:0|0:0,0:0:0:0:
173,341,129570,2,0,P|216:279|222:202,1,155,2|2,0:0|0:0,0:0:0:0:
125,193,130099,2,0,L|45:208,2,77.5,10|2|2,0:0|0:0|1:2,0:0:0:0:
206,140,130628,2,0,P|218:103|210:66,1,77.5,2|10,0:0|0:0,0:0:0:0:
133,5,130981,6,0,L|283:43,1,155,2|2,0:0|0:0,0:0:0:0:
361,101,131511,2,0,P|388:73|397:35,2,77.5,10|2|2,0:0|0:0|1:2,0:0:0:0:
295,286,132217,5,10,0:0:0:0:
295,285,132393,2,0,P|350:229|429:229,1,162.749995033264,6|0,0:0|0:0,0:0:0:0:
509,184,132923,1,10,0:0:0:0:
509,184,133099,2,0,L|481:354,1,162.749995033264,2|2,0:0|0:0,0:0:0:0:
387,374,133628,5,10,0:0:0:0:
387,374,133805,2,0,P|318:333|242:355,2,162.749995033264,2|0|0,1:2|1:0|1:0,0:0:0:0:
482,344,134687,1,0,1:0:0:0:
256,192,135217,12,0,136099,0:0:0:0:
241,190,136805,6,0,P|172:180|126:130,2,139.499995742798,0|0|0,3:0|3:0|3:0,0:0:0:0:
315,166,137687,1,2,3:2:0:0:
369,221,137864,1,2,3:2:0:0:
338,292,138040,1,2,3:2:0:0:
227,332,138217,6,0,B|199:315|199:315|146:324,1,85.2500026016236,4|2,0:0|0:0,0:0:0:0:
99,343,138481,1,2,0:0:0:0:
99,343,138570,2,0,P|82:304|86:262,1,85.2500026016236,10|2,0:0|0:0,0:0:0:0:
18,179,138923,2,0,P|49:124|107:100,1,127.875003902435,2|0,1:2|0:0,0:0:0:0:
154,115,139275,1,10,0:0:0:0:
246,61,139452,6,0,L|340:77,1,85.2500026016236,2|0,0:0|1:0,0:0:0:0:
400,162,139805,1,2,0:0:0:0:
400,162,139981,2,0,L|306:178,1,85.2500026016236,10|0,0:0|0:0,0:0:0:0:
222,228,140334,2,0,P|219:269|244:324,2,85.2500026016236,2|2|10,1:2|0:0|0:0,0:0:0:0:
315,176,140864,1,2,0:0:0:0:
315,176,141040,6,0,P|265:136|203:130,1,127.875003902435,2|0,1:2|0:0,0:0:0:0:
157,158,141393,2,0,L|167:246,1,85.2500026016236,8|2,0:0|0:0,0:0:0:0:
240,320,141746,2,0,P|190:359|128:365,1,127.875003902435,2|0,1:2|0:0,0:0:0:0:
82,338,142099,2,0,L|92:250,1,85.2500026016236,10|2,0:0|0:0,0:0:0:0:
10,182,142452,6,0,P|62:146|125:148,1,127.875003902435,2|0,1:2|0:0,0:0:0:0:
170,179,142805,2,0,P|232:181|284:145,1,127.875003902435,10|0,0:0|0:0,0:0:0:0:
312,100,143158,1,2,1:2:0:0:
222,53,143334,1,8,0:0:0:0:
222,53,143511,2,0,L|130:68,1,85.2500026016236,8|2,0:0|0:0,0:0:0:0:
38,27,143864,6,0,P|28:76|39:117,1,85.2500026016236,2|2,1:2|0:0,0:0:0:0:
74,153,144128,1,2,0:0:0:0:
74,153,144217,2,0,P|84:202|73:243,1,85.2500026016236,10|2,0:0|0:0,0:0:0:0:
23,328,144570,2,0,L|152:357,1,127.875003902435,2|0,1:2|0:0,0:0:0:0:
201,361,144923,1,10,0:0:0:0:
295,312,145099,6,0,L|283:221,1,85.2500026016236,2|0,0:0|1:0,0:0:0:0:
214,153,145452,1,2,0:0:0:0:
214,153,145628,2,0,L|226:62,1,85.2500026016236,10|0,0:0|0:0,0:0:0:0:
322,25,145981,2,0,P|364:32|406:25,2,85.2500026016236,2|2|10,1:2|0:0|0:0,0:0:0:0:
225,68,146511,1,2,0:0:0:0:
225,68,146687,6,0,L|252:199,1,127.875003902435,2|0,1:2|0:0,0:0:0:0:
268,244,147040,1,8,0:0:0:0:
350,176,147217,1,2,0:0:0:0:
450,209,147393,2,0,B|442:278|442:278|433:298|433:298|422:376,1,170.500005203247,2|10,1:2|0:0,0:0:0:0:
268,244,148099,5,2,1:2:0:0:
350,176,148275,1,2,0:0:0:0:
282,92,148452,2,0,P|243:109|200:113,1,85.2500026016236,10|2,0:0|0:0,0:0:0:0:
110,55,148805,1,2,1:2:0:0:
31,124,148981,1,8,0:1:0:0:
31,124,149070,1,8,0:1:0:0:
31,124,149158,1,8,0:1:0:0:
113,191,149334,2,0,L|106:245,1,42.6250013008118,10|2,0:1|0:0,0:0:0:0:
102,286,149511,6,0,P|136:263|178:256,1,85.2500026016236,6|2,1:2|0:0,0:0:0:0:
233,274,149775,1,2,0:0:0:0:
233,274,149864,2,0,L|331:254,1,85.2500026016236,10|2,0:0|0:0,0:0:0:0:
423,251,150217,2,0,P|443:213|445:165,1,85.2500026016236,2|0,1:2|0:0,0:0:0:0:
395,83,150570,1,10,0:0:0:0:
396,83,150746,2,0,P|339:54|276:55,1,127.875003902435,2|0,1:2|0:0,0:0:0:0:
227,78,151099,1,2,0:0:0:0:
136,133,151275,2,0,L|149:233,1,85.2500026016236,10|2,0:0|0:0,0:0:0:0:
156,274,151540,5,0,0:0:0:0:
156,274,151628,2,0,B|194:290|194:290|251:285,1,89.1250016999245,2|2,1:2|0:0,0:0:0:0:
336,226,151981,1,10,0:0:0:0:
287,125,152158,1,2,0:0:0:0:
178,150,152334,6,0,L|42:125,1,133.687502549887,6|0,1:2|0:0,0:0:0:0:
9,126,152687,2,0,L|36:219,1,89.1250016999245,10|0,0:0|0:0,0:0:0:0:
9,263,152952,1,2,0:0:0:0:
9,263,153040,2,0,L|36:356,1,89.1250016999245,0|0,1:0|0:0,0:0:0:0:
144,361,153393,1,8,0:0:0:0:
224,306,153570,1,2,1:2:0:0:
190,205,153746,6,0,L|108:229,2,85.2500026016236,2|2|10,1:2|0:0|0:0,0:0:0:0:
260,123,154275,2,0,P|252:44|175:26,1,170.500005203247,2|10,0:0|0:0,0:0:0:0:
89,91,154805,1,10,0:0:0:0:
177,149,154981,1,2,0:0:0:0:
137,248,155158,6,0,L|221:235,1,85.2500026016236,6|2,1:2|0:0,0:0:0:0:
268,207,155423,1,2,0:0:0:0:
268,207,155511,2,0,L|357:221,1,85.2500026016236,10|2,0:0|0:0,0:0:0:0:
447,172,155864,2,0,P|468:137|469:94,1,85.2500026016236,2|0,1:2|0:0,0:0:0:0:
396,15,156217,1,10,0:0:0:0:
299,59,156393,6,0,L|164:34,1,127.875003902435,2|0,0:0|0:0,0:0:0:0:
119,29,156746,1,2,0:0:0:0:
175,119,156923,2,0,L|266:135,1,85.2500026016236,10|0,0:0|0:0,0:0:0:0:
312,155,157187,1,0,0:0:0:0:
312,155,157275,2,0,P|316:197|304:237,1,85.2500026016236,2|2,1:2|0:0,0:0:0:0:
225,310,157628,5,10,0:0:0:0:
322,353,157805,1,2,0:0:0:0:
413,299,157981,2,0,B|448:270|448:270|443:145,1,170.500005203247,2|8,1:2|0:0,0:0:0:0:
361,75,158511,1,2,0:0:0:0:
269,129,158687,2,0,L|143:104,1,127.875003902435,2|0,1:2|0:0,0:0:0:0:
91,85,159040,2,0,P|110:124|108:166,1,85.2500026016236,10|0,0:0|0:0,0:0:0:0:
26,235,159393,6,0,P|7:197|9:154,2,85.2500026016236,6|2|10,1:2|0:0|0:1,0:0:0:0:
123,280,159923,1,2,0:0:0:0:
224,237,160099,1,10,0:1:0:0:
224,237,160187,1,8,0:1:0:0:
224,237,160275,2,0,L|313:251,1,85.2500026016236,8|0,1:0|1:0,0:0:0:0:
404,296,160628,1,8,0:0:0:0:
475,245,160805,6,0,L|504:77,1,170.500005203247,6|8,1:2|0:0,0:0:0:0:
416,15,161334,2,0,L|385:182,1,170.500005203247,2|0,0:0|1:0,0:0:0:0:
475,244,161864,2,0,P|400:285|316:293,1,170.500005203247,10|0,1:2|1:0,0:0:0:0:
226,236,162393,5,2,0:0:0:0:
137,296,162570,2,0,L|157:379,2,85.2500026016236,10|2|2,0:0|0:0|1:2,0:0:0:0:
226,236,163099,1,2,0:0:0:0:
226,236,163275,2,0,L|203:134,1,85.2500026016236,10|2,0:0|0:0,0:0:0:0:
254,57,163628,6,0,P|196:117|113:127,1,170.500005203247,6|8,1:2|0:0,0:0:0:0:
15,106,164158,2,0,P|64:48|164:32,1,170.500005203247,2|0,0:0|1:0,0:0:0:0:
113,127,164687,2,0,L|88:295,1,170.500005203247,10|0,0:0|1:0,0:0:0:0:
45,364,165217,5,2,0:0:0:0:
152,336,165393,1,10,0:0:0:0:
120,228,165570,1,2,0:0:0:0:
11,253,165746,1,2,1:2:0:0:
45,364,165923,1,10,0:1:0:0:
45,364,166011,1,8,0:1:0:0:
45,364,166099,1,10,0:1:0:0:
152,336,166275,2,0,L|204:350,1,44.5625008499623,10|8,0:1|0:1,0:0:0:0:
250,353,166452,6,0,L|337:337,1,89.1250016999245,6|0,0:0|0:0,0:0:0:0:
418,259,166805,2,0,L|330:243,1,89.1250016999245,10|0,0:0|1:0,0:0:0:0:
247,168,167158,2,0,L|422:136,1,178.250003399849,10|10,0:0|0:0,0:0:0:0:
493,49,167687,1,0,1:0:0:0:
388,9,167864,6,0,P|380:54|390:97,1,89.1250016999245,10|2,0:0|1:2,0:0:0:0:
422,135,168128,1,2,0:0:0:0:
422,135,168217,1,10,0:0:0:0:
326,188,168393,1,2,1:2:0:0:
326,188,168570,2,0,L|234:174,1,89.1250016999245,10|2,0:0|1:2,0:0:0:0:
132,210,168923,2,0,L|140:259,1,44.5625008499623,10|8,0:1|0:1,0:0:0:0:
178,293,169099,2,0,L|170:342,1,44.5625008499623,10|8,1:0|0:1,0:0:0:0:
142,384,169275,5,6,1:2:0:0:
301,333,169628,1,2,0:0:0:0:
301,165,169981,1,2,1:2:0:0:
142,113,170334,1,2,0:0:0:0:
43,249,170687,5,2,0:0:0:0:
