osu file format v14

[General]
AudioFilename: audio.mp3
AudioLeadIn: 0
PreviewTime: 36128
Countdown: 0
SampleSet: Soft
StackLeniency: 0.3
Mode: 0
LetterboxInBreaks: 0
WidescreenStoryboard: 1

[Editor]
Bookmarks: 1276,2687,13981,25275,36570,59158,70452,81746,93040,104334,126923,138217,160805,170687
DistanceSpacing: 0.8
BeatDivisor: 4
GridSize: 32
TimelineZoom: 2.1

[Metadata]
Title:Good-bye sengen
TitleUnicode:グッバイ宣言
Artist:mafumafu
ArtistUnicode:まふまふ
Creator:Mononymous
Version:Extra
Source:
Tags:Good bye Goodbye declaration v-flower vflower v flower vocaloid ボーカロイド japanese pop jpop j-pop utaite cover male vocal
BeatmapID:3053630
BeatmapSetID:1489661

[Difficulty]
HPDrainRate:5
CircleSize:4
OverallDifficulty:8.5
ApproachRate:9
SliderMultiplier:1.88
SliderTickRate:1

[Events]
//Background and Video events
0,0,"Don't Mind Me.png",0,0
//Break Periods
2,70652,81146
//Storyboard Layer 0 (Background)
//Storyboard Layer 1 (Fail)
//Storyboard Layer 2 (Pass)
//Storyboard Layer 3 (Foreground)
//Storyboard Layer 4 (Overlay)
//Storyboard Sound Samples

[TimingPoints]
1276,352.941176470588,4,2,1,60,1,0
1276,-125,4,2,1,60,0,0
2687,-90.9090909090909,4,2,1,70,0,0
13981,-133.333333333333,4,2,1,60,0,0
25275,-111.111111111111,4,2,1,65,0,0
30834,-111.111111111111,4,2,1,5,0,0
30923,-100,4,2,1,65,0,0
34981,-100,4,2,1,65,0,0
35070,-100,4,2,1,5,0,0
35334,-100,4,2,1,65,0,0
35423,-100,4,2,1,5,0,0
35687,-100,4,2,1,65,0,0
35776,-100,4,2,1,5,0,0
35864,-100,4,2,1,65,0,0
36570,-83.3333333333333,4,2,1,80,0,1
37540,-83.3333333333333,4,2,1,5,0,1
37628,-83.3333333333333,4,2,1,80,0,1
38070,-83.3333333333333,4,2,1,5,0,1
38158,-83.3333333333333,4,2,1,80,0,1
39658,-83.3333333333333,4,2,1,5,0,1
39746,-83.3333333333333,4,2,1,80,0,1
40364,-83.3333333333333,4,2,1,5,0,1
40452,-83.3333333333333,4,2,1,80,0,1
41070,-83.3333333333333,4,2,1,5,0,1
41158,-83.3333333333333,4,2,1,80,0,1
41423,-83.3333333333333,4,2,1,5,0,1
41511,-83.3333333333333,4,2,1,80,0,1
43187,-83.3333333333333,4,2,1,5,0,1
43275,-83.3333333333333,4,2,1,80,0,1
43717,-83.3333333333333,4,2,1,5,0,1
43805,-83.3333333333333,4,2,1,80,0,1
45305,-83.3333333333333,4,2,1,5,0,1
45393,-83.3333333333333,4,2,1,80,0,1
46011,-83.3333333333333,4,2,1,5,0,1
46099,-83.3333333333333,4,2,1,80,0,1
46364,-83.3333333333333,4,2,1,5,0,1
46452,-83.3333333333333,4,2,1,80,0,1
48834,-83.3333333333333,4,2,1,5,0,1
48922,-83.3333333333333,4,2,1,80,0,1
50952,-83.3333333333333,4,2,1,5,0,1
51040,-83.3333333333333,4,2,1,80,0,1
51658,-83.3333333333333,4,2,1,5,0,1
51746,-83.3333333333333,4,2,1,80,0,1
52364,-83.3333333333333,4,2,1,5,0,1
52452,-83.3333333333333,4,2,1,80,0,1
52717,-83.3333333333333,4,2,1,5,0,1
52805,-83.3333333333333,4,2,1,80,0,1
56599,-83.3333333333333,4,2,1,5,0,1
56687,-83.3333333333333,4,2,1,80,0,1
57305,-83.3333333333333,4,2,1,5,0,1
57393,-83.3333333333333,4,2,1,80,0,1
57658,-83.3333333333333,4,2,1,5,0,1
57746,-83.3333333333333,4,2,1,80,0,1
67628,-111.111111111111,4,2,1,60,0,0
70452,-100,4,2,1,70,0,0
81746,-133.333333333333,4,2,1,60,0,0
92952,-133.333333333333,4,2,1,5,0,0
93040,-111.111111111111,4,2,1,65,0,0
98687,-100,4,2,1,70,0,0
101775,-100,4,2,1,5,0,0
101864,-100,4,2,1,70,0,0
102481,-100,4,2,1,5,0,0
102570,-100,4,2,1,70,0,0
104334,-133.333333333333,4,2,1,65,0,0
111305,-133.333333333333,4,2,1,5,0,0
111393,-133.333333333333,4,2,1,65,0,0
114923,-100,4,2,1,70,0,0
115628,-133.333333333333,4,2,1,70,0,0
125511,-100,4,2,1,70,0,0
126923,-117.647058823529,4,2,1,60,0,0
132393,-105.263157894737,4,2,1,75,0,0
133805,-95.2380952380952,4,2,1,75,0,0
135217,-90.9090909090909,4,2,1,80,0,0
136099,-90.9090909090909,4,2,1,5,0,0
136805,-142.857142857143,4,2,1,40,0,0
137070,-142.857142857143,4,2,1,5,0,0
137158,-111.111111111111,4,2,1,50,0,0
137423,-111.111111111111,4,2,1,5,0,0
137511,-100,4,2,1,60,0,0
137599,-100,4,2,1,5,0,0
137687,-95.2380952380952,4,2,1,65,0,0
137864,-90.9090909090909,4,2,1,70,0,0
138040,-86.9565217391304,4,2,1,75,0,0
138217,-83.3333333333333,4,2,1,80,0,1
139187,-83.3333333333333,4,2,1,5,0,1
139275,-83.3333333333333,4,2,1,80,0,1
141305,-83.3333333333333,4,2,1,5,0,1
141393,-83.3333333333333,4,2,1,80,0,1
142011,-83.3333333333333,4,2,1,5,0,1
142099,-83.3333333333333,4,2,1,80,0,1
142717,-83.3333333333333,4,2,1,5,0,1
142805,-83.3333333333333,4,2,1,80,0,1
143070,-83.3333333333333,4,2,1,5,0,1
143158,-83.3333333333333,4,2,1,80,0,1
144834,-83.3333333333333,4,2,1,5,0,1
144922,-83.3333333333333,4,2,1,80,0,1
146952,-83.3333333333333,4,2,1,5,0,1
147040,-83.3333333333333,4,2,1,80,0,1
147658,-83.3333333333333,4,2,1,5,0,1
147746,-83.3333333333333,4,2,1,80,0,1
148011,-83.3333333333333,4,2,1,5,0,1
148099,-83.3333333333333,4,2,1,80,0,1
150481,-83.3333333333333,4,2,1,5,0,1
150569,-83.3333333333333,4,2,1,80,0,1
151011,-83.3333333333333,4,2,1,5,0,1
151099,-83.3333333333333,4,2,1,80,0,1
151628,-80,4,2,1,85,0,1
152599,-80,4,2,1,5,0,1
152687,-80,4,2,1,80,0,1
153305,-80,4,2,1,5,0,1
153393,-80,4,2,1,80,0,1
153570,-83.3333333333333,4,2,1,80,0,1
154540,-83.3333333333333,4,2,1,5,0,1
154628,-83.3333333333333,4,2,1,80,0,1
156128,-83.3333333333333,4,2,1,5,0,1
156216,-83.3333333333333,4,2,1,80,0,1
158246,-83.3333333333333,4,2,1,5,0,1
158334,-83.3333333333333,4,2,1,80,0,1
158952,-83.3333333333333,4,2,1,5,0,1
159040,-83.3333333333333,4,2,1,80,0,1
159305,-83.3333333333333,4,2,1,5,0,1
159393,-83.3333333333333,4,2,1,80,0,1
165217,-80,4,2,1,85,0,1
166717,-80,4,2,1,5,0,1
166805,-80,4,2,1,85,0,1
167775,-80,4,2,1,5,0,1
167863,-80,4,2,1,85,0,1
169275,-111.111111111111,4,2,1,70,0,0
169981,-111.111111111111,4,2,1,60,0,0
170687,-111.111111111111,4,2,1,50,0,0

[Colours]
Combo1 : 239,210,143
Combo2 : 198,198,198
Combo3 : 145,200,200
Combo4 : 255,53,53

[HitObjects]
163,56,1276,5,2,3:2:0:0:
212,240,1628,1,2,3:2:0:0:
163,56,1981,5,0,3:0:0:0:
101,119,2158,1,2,0:0:0:0:
212,240,2334,1,2,0:0:0:0:
220,211,2423,1,2,0:0:0:0:
228,182,2511,1,2,0:0:0:0:
162,55,2687,6,0,P|200:90|251:93,1,103.400003155518,6|2,1:2|0:0,0:0:0:0:
340,53,2952,1,0,0:0:0:0:
352,63,3040,2,0,L|342:115,1,51.7000015777588,10|0,1:2|0:0,0:0:0:0:
402,236,3217,6,0,P|364:201|313:198,1,103.400003155518,2|0,0:0|0:0,0:0:0:0:
118,269,3570,1,2,1:2:0:0:
118,269,3658,1,0,0:0:0:0:
118,269,3746,2,0,L|129:212,1,51.7000015777588,10|0,1:2|0:0,0:0:0:0:
38,116,3923,2,0,L|49:173,1,51.7000015777588,2|0,0:0|0:0,0:0:0:0:
184,318,4099,6,0,L|195:261,1,51.7000015777588,2|0,1:2|0:0,0:0:0:0:
314,197,4275,2,0,P|364:201|402:236,1,103.400003155518,2|8,0:0|0:0,0:0:0:0:
315,295,4628,1,2,0:0:0:0:
215,169,4805,6,0,L|233:63,1,103.400003155518,2|2,1:2|0:0,0:0:0:0:
175,20,5070,1,0,0:0:0:0:
167,38,5158,2,0,L|116:26,1,51.7000015777588,10|0,1:2|0:0,0:0:0:0:
5,94,5334,2,0,L|56:82,1,51.7000015777588,2|0,0:0|0:0,0:0:0:0:
215,169,5511,6,0,P|211:221|180:264,1,103.400003155518,2|2,1:2|0:0,0:0:0:0:
95,213,5775,1,0,0:0:0:0:
81,199,5864,2,0,L|96:137,1,51.7000015777588,10|0,0:0|0:0,0:0:0:0:
182,262,6040,2,0,L|190:372,1,103.400003155518,2|0,0:0|1:0,0:0:0:0:
81,309,6393,1,2,0:0:0:0:
274,209,6570,6,0,B|324:213|324:213|335:219|335:219|379:222,2,103.400003155518,10|2|2,0:0|0:0|1:2,0:0:0:0:
204,109,7099,1,2,0:0:0:0:
204,109,7275,2,0,B|254:113|254:113|265:119|265:119|309:122,1,103.400003155518,10|2,0:0|0:0,0:0:0:0:
488,26,7628,2,0,B|438:30|438:30|427:36|427:36|383:39,1,103.400003155518,6|10,0:0|0:1,0:0:0:0:
308,16,7893,1,0,0:0:0:0:
296,24,7981,2,0,L|304:77,1,51.7000015777588,10|0,0:0|0:0,0:0:0:0:
392,141,8158,2,0,L|384:194,1,51.7000015777588,2|0,1:2|0:0,0:0:0:0:
335,306,8334,6,0,P|380:282|429:296,1,103.400003155518,6|2,1:2|0:0,0:0:0:0:
490,359,8599,1,0,0:0:0:0:
506,345,8687,2,0,L|498:292,1,51.7000015777588,10|0,0:0|0:0,0:0:0:0:
483,188,8864,2,0,B|436:204|436:204|383:191,1,103.400003155518,2|0,0:0|0:0,0:0:0:0:
227,126,9217,1,2,1:2:0:0:
227,126,9305,1,0,0:0:0:0:
227,126,9393,2,0,L|240:180,1,51.7000015777588,10|0,1:2|0:0,0:0:0:0:
301,291,9570,2,0,L|314:237,1,51.7000015777588,2|0,0:0|0:0,0:0:0:0:
163,334,9746,5,2,1:2:0:0:
261,358,9923,2,0,B|222:351|222:351|209:341|209:341|160:333,1,103.400003155518,2|8,0:0|1:2,0:0:0:0:
14,220,10275,1,2,0:0:0:0:
14,220,10364,1,0,0:0:0:0:
14,220,10452,2,0,P|16:271|46:313,1,103.400003155518,2|2,1:2|0:0,0:0:0:0:
165,217,10805,2,0,P|178:167|163:119,1,103.400003155518,10|2,0:0|0:0,0:0:0:0:
46,313,11158,6,0,L|148:296,1,103.400003155518,2|2,1:2|0:0,0:0:0:0:
303,209,11511,1,10,1:2:0:0:
303,209,11599,1,0,0:0:0:0:
303,209,11687,2,0,L|244:195,1,51.7000015777588,2|0,0:0|0:0,0:0:0:0:
165,217,11864,2,0,P|151:167|166:119,1,103.400003155518,2|2,1:2|0:0,0:0:0:0:
271,22,12217,5,10,0:0:0:0:
143,51,12393,1,2,0:0:0:0:
288,16,12570,2,0,B|307:51|307:51|300:135,1,103.400003155518,2|2,1:2|0:0,0:0:0:0:
245,158,12834,1,0,0:0:0:0:
245,158,12923,1,10,0:0:0:0:
317,278,13099,1,2,0:0:0:0:
148,247,13275,5,0,0:0:0:0:
148,247,13452,1,2,0:0:0:0:
232,266,13628,2,0,L|245:322,1,51.7000015777588,2|0,3:0|0:0,0:0:0:0:
145,242,13805,2,0,L|158:298,1,51.7000015777588,2|0,3:0|0:0,0:0:0:0:
303,358,13981,6,0,B|347:339|376:355|376:355|407:371|445:355,1,141.000005378723,6|0,1:2|1:0,0:0:0:0:
410,283,14511,1,2,0:0:0:0:
410,283,14864,1,0,0:0:0:0:
366,159,15040,6,0,P|319:208|320:277,1,141.000005378723,2|0,1:2|1:0,0:0:0:0:
478,198,15570,1,2,0:0:0:0:
478,198,15923,1,0,0:0:0:0:
358,88,16099,1,2,1:2:0:0:
358,88,16275,2,0,L|367:166,1,70.5000026893617,2|2,0:0|1:2,0:0:0:0:
450,62,16628,1,2,0:0:0:0:
288,124,16805,6,0,B|230:117|230:117|205:125|205:125|143:115,1,141.000005378723,2|0,1:2|1:0,0:0:0:0:
24,54,17334,1,2,0:0:0:0:
24,54,17687,1,2,0:0:0:0:
68,149,17864,2,0,P|114:98|124:29,1,141.000005378723,2|0,1:2|1:0,0:0:0:0:
24,54,18393,1,2,0:0:0:0:
68,149,18570,2,0,L|51:226,1,70.5000026893617,2|2,1:2|0:0,0:0:0:0:
32,355,18923,2,0,L|15:278,2,70.5000026893617,2|2|2,1:2|0:0|1:2,0:0:0:0:
123,294,19452,1,2,0:0:0:0:
123,294,19628,5,6,1:2:0:0:
211,338,19805,1,2,0:0:0:0:
215,318,19893,2,0,L|209:276,1,35.2500013446808,2|0,0:0|1:0,0:0:0:0:
312,361,20158,1,2,0:0:0:0:
311,203,20334,5,2,1:2:0:0:
223,159,20511,1,2,0:0:0:0:
219,179,20599,2,0,L|225:221,1,35.2500013446808,2|0,0:0|1:0,0:0:0:0:
122,136,20864,1,2,0:0:0:0:
386,249,21040,6,0,L|367:106,1,141.000005378723,2|0,1:2|1:0,0:0:0:0:
367,109,21746,2,0,P|399:125|434:124,2,70.5000026893617,2|2|2,1:2|0:0|1:2,0:0:0:0:
293,39,22275,1,2,0:0:0:0:
293,39,22452,6,0,L|150:58,1,141.000005378723,2|2,1:2|1:2,0:0:0:0:
26,120,22981,1,0,0:0:0:0:
26,119,23158,2,0,P|17:153|23:188,1,70.5000026893617,2|0,1:2|0:0,0:0:0:0:
108,231,23511,2,0,P|116:197|110:162,1,70.5000026893617,2|0,1:2|0:0,0:0:0:0:
28,276,23864,5,2,1:2:0:0:
108,231,24040,1,2,0:0:0:0:
213,356,24217,1,2,1:2:0:0:
133,311,24393,1,2,0:0:0:0:
285,236,24570,6,0,L|304:315,1,70.5000026893617,2|0,1:2|0:0,0:0:0:0:
382,367,24923,2,0,L|401:288,1,70.5000026893617,8|0,0:0|0:0,0:0:0:0:
378,195,25275,6,0,P|315:141|232:144,1,169.199994836426,6|8,0:0|0:0,0:0:0:0:
87,195,25805,2,0,P|169:198|232:144,1,169.199994836426,2|2,0:0|0:0,0:0:0:0:
283,0,26334,2,0,P|229:62|232:145,1,169.199994836426,10|0,0:0|1:0,0:0:0:0:
285,237,26864,5,2,1:2:0:0:
216,277,27040,2,0,L|133:257,1,84.599997418213,10|2,0:0|0:0,0:0:0:0:
28,178,27393,2,0,L|110:158,1,84.599997418213,2|2,1:2|0:0,0:0:0:0:
235,77,27746,2,0,L|152:57,1,84.599997418213,10|2,0:0|0:0,0:0:0:0:
110,157,28099,6,0,P|143:216|241:234,1,169.199994836426,2|8,0:0|0:0,0:0:0:0:
362,155,28628,2,0,P|294:159|236:240,1,169.199994836426,2|0,0:0|0:0,0:0:0:0:
257,383,29158,2,0,P|281:319|232:232,1,169.199994836426,8|0,0:0|1:0,0:0:0:0:
180,314,29687,5,2,0:0:0:0:
180,314,29864,2,0,L|98:296,1,84.599997418213,10|2,0:0|0:0,0:0:0:0:
10,225,30217,1,2,1:2:0:0:
182,125,30393,1,10,0:0:0:0:
182,125,30570,2,0,B|182:211|182:211|150:183,1,126.899996127319,10|0,0:0|0:0,0:0:0:0:
111,71,30923,6,0,P|169:34|235:53,1,141,6|2,0:0|0:0,0:0:0:0:
264,77,31275,1,8,0:0:0:0:
445,36,31452,1,2,0:0:0:0:
359,6,31628,2,0,P|361:76|405:129,1,141,2|2,1:2|0:0,0:0:0:0:
439,148,31981,1,8,0:0:0:0:
331,230,32158,1,2,0:0:0:0:
331,230,32334,6,0,L|229:211,1,94,2|0,1:2|0:0,0:0:0:0:
108,162,32687,1,8,0:0:0:0:
187,121,32864,1,2,0:0:0:0:
238,212,33040,2,0,P|243:269|230:304,1,94,2|2,1:2|0:0,0:0:0:0:
137,245,33393,1,10,0:0:0:0:
282,352,33570,6,0,B|197:334|197:334|175:338|175:338|93:315,1,188,4|2,0:0|1:2,0:0:0:0:
18,165,34099,2,0,P|10:213|24:261,1,94,0|2,0:0|0:0,0:0:0:0:
128,183,34452,2,0,P|136:135|122:87,2,94,2|0|10,1:2|1:0|1:2,0:0:0:0:
224,245,34981,6,0,L|275:237,1,47,6|0,1:2|0:0,0:0:0:0:
380,166,35334,2,0,L|329:158,1,47,2|0,1:2|0:0,0:0:0:0:
187,57,35687,2,0,L|238:49,1,47,2|0,1:2|0:0,0:0:0:0:
166,46,35864,1,2,1:2:0:0:
266,131,36040,1,8,0:0:0:0:
111,225,36217,2,0,P|116:278|144:312,1,94,10|2,1:2|0:0,0:0:0:0:
250,349,36570,6,0,P|298:319|353:320,1,112.799996557617,6|2,1:2|0:0,0:0:0:0:
424,354,36834,1,2,0:0:0:0:
501,334,36923,2,0,L|497:217,1,112.799996557617,10|2,0:0|0:0,0:0:0:0:
373,37,37275,6,0,L|362:206,1,169.199994836426,2|0,1:2|0:0,0:0:0:0:
298,254,37628,1,10,0:0:0:0:
470,149,37805,6,0,P|395:115|372:36,1,169.199994836426,2|0,0:0|0:0,0:0:0:0:
475,45,38158,1,2,0:0:0:0:
309,131,38334,6,0,L|199:105,1,112.799996557617,10|0,0:0|0:0,0:0:0:0:
97,33,38599,1,0,0:0:0:0:
85,48,38687,2,0,L|98:107,1,56.3999982788086,2|0,1:2|0:0,0:0:0:0:
150,242,38864,2,0,L|163:183,1,56.3999982788086,2|0,0:0|0:0,0:0:0:0:
2,36,39040,2,0,L|15:95,1,56.3999982788086,10|0,0:0|0:0,0:0:0:0:
222,279,39217,2,0,L|235:220,1,56.3999982788086,2|0,0:0|0:0,0:0:0:0:
18,277,39393,6,0,P|35:348|136:365,1,169.199994836426,2|0,1:2|0:0,0:0:0:0:
222,279,39746,1,8,0:0:0:0:
222,279,39923,1,2,0:0:0:0:
500,223,40099,6,0,P|483:294|382:311,1,169.199994836426,2|0,1:2|0:0,0:0:0:0:
296,225,40452,1,8,0:0:0:0:
296,225,40629,1,2,0:0:0:0:
119,372,40805,6,0,P|41:354|18:277,1,169.199994836426,2|0,1:2|0:0,0:0:0:0:
80,216,41158,2,0,P|158:233|181:311,1,169.199994836426,10|0,0:0|0:0,0:0:0:0:
119,372,41511,1,2,1:2:0:0:
335,262,41687,1,8,0:0:0:0:
255,211,41864,2,0,L|263:330,1,112.799996557617,8|2,0:0|0:0,0:0:0:0:
415,143,42217,6,0,P|361:141|323:101,1,112.799996557617,2|2,1:2|0:0,0:0:0:0:
280,35,42481,1,2,0:0:0:0:
202,52,42570,2,0,L|80:36,1,112.799996557617,10|2,0:0|0:0,0:0:0:0:
0,192,42923,2,0,L|167:169,1,169.199994836426,2|0,1:2|0:0,0:0:0:0:
245,180,43275,1,10,0:0:0:0:
110,284,43452,6,0,P|31:266|0:191,1,169.199994836426,2|0,0:0|0:0,0:0:0:0:
40,123,43805,1,2,0:0:0:0:
245,180,43981,2,0,L|357:163,1,112.799996557617,10|0,0:0|0:0,0:0:0:0:
457,194,44246,1,0,0:0:0:0:
445,205,44334,2,0,L|461:270,1,56.3999982788086,2|0,1:2|0:0,0:0:0:0:
377,360,44511,2,0,L|393:295,1,56.3999982788086,2|0,0:0|0:0,0:0:0:0:
245,180,44687,2,0,L|280:308,1,112.799996557617,10|2,0:0|0:0,0:0:0:0:
174,356,45040,6,0,B|113:339|113:339|75:350|75:350|10:333,1,169.199994836426,2|0,1:2|0:0,0:0:0:0:
64,258,45393,1,8,0:0:0:0:
64,258,45570,2,0,P|78:225|79:194,1,56.3999982788086,2|0,0:0|0:0,0:0:0:0:
69,39,45746,6,0,B|118:23|153:51|153:51|189:78|229:62,1,169.199994836426,2|0,1:2|0:0,0:0:0:0:
221,143,46099,2,0,B|172:159|137:131|137:131|101:104|60:119,1,169.199994836426,10|0,0:0|0:0,0:0:0:0:
0,72,46452,1,2,1:2:0:0:
79,204,46628,1,2,0:0:0:0:
11,44,46805,1,10,0:0:0:0:
17,280,46981,1,2,0:0:0:0:
202,269,47158,5,2,1:2:0:0:
79,204,47334,1,8,0:1:0:0:
85,231,47423,1,8,1:0:0:0:
91,258,47511,1,8,0:1:0:0:
272,362,47687,1,10,0:1:0:0:
307,310,47776,1,2,0:0:0:0:
288,250,47864,6,0,P|234:258|185:231,1,112.799996557617,6|2,1:2|0:0,0:0:0:0:
154,158,48128,1,2,0:0:0:0:
189,86,48217,2,0,P|243:77|292:104,1,112.799996557617,10|2,0:0|0:0,0:0:0:0:
444,227,48570,6,0,L|462:58,1,169.199994836426,2|0,1:2|0:0,0:0:0:0:
396,12,48923,1,10,0:0:0:0:
288,87,49099,6,0,L|299:199,1,112.799996557617,2|0,0:0|1:0,0:0:0:0:
400,314,49452,1,2,0:0:0:0:
299,199,49628,2,0,P|241:194|197:230,1,112.799996557617,10|0,0:0|0:0,0:0:0:0:
118,300,49893,1,0,0:0:0:0:
118,300,49981,2,0,L|131:236,1,56.3999982788086,2|0,1:2|0:0,0:0:0:0:
15,133,50158,2,0,L|28:197,1,56.3999982788086,2|0,0:0|0:0,0:0:0:0:
191,112,50334,2,0,L|204:48,1,56.3999982788086,10|0,0:0|0:0,0:0:0:0:
60,0,50511,2,0,L|73:64,1,56.3999982788086,2|0,0:0|0:0,0:0:0:0:
191,112,50687,6,0,P|184:176|92:222,1,169.199994836426,2|0,1:2|0:0,0:0:0:0:
15,133,51040,1,8,0:0:0:0:
15,133,51217,1,2,0:0:0:0:
304,114,51393,6,0,P|311:178|403:224,1,169.199994836426,2|0,1:2|0:0,0:0:0:0:
480,135,51746,1,8,0:0:0:0:
480,135,51923,1,2,0:0:0:0:
396,224,52099,6,0,P|320:192|303:113,1,169.199994836426,2|0,1:2|0:0,0:0:0:0:
365,64,52452,2,0,P|440:95|457:174,1,169.199994836426,10|0,0:0|0:0,0:0:0:0:
396,224,52805,1,2,1:2:0:0:
470,350,52981,1,8,0:0:0:0:
470,350,53158,2,0,L|359:328,1,112.799996557617,8|2,0:0|0:0,0:0:0:0:
194,144,53511,6,0,B|172:198|172:198|192:248,1,112.799996557617,2|2,1:2|0:0,0:0:0:0:
250,300,53775,1,2,0:0:0:0:
321,264,53864,2,0,P|336:208|325:150,1,112.799996557617,10|2,0:0|0:0,0:0:0:0:
215,26,54217,2,0,L|41:59,1,169.199994836426,2|0,1:2|0:0,0:0:0:0:
0,123,54570,1,10,0:0:0:0:
180,251,54746,6,0,P|201:199|189:133,1,112.799996557617,2|0,0:0|1:0,0:0:0:0:
48,57,55099,1,2,0:0:0:0:
0,123,55275,2,0,L|17:242,1,112.799996557617,10|0,0:0|0:0,0:0:0:0:
87,320,55540,1,0,0:0:0:0:
70,309,55628,2,0,P|42:315|22:334,1,56.3999982788086,2|0,1:0|0:0,0:0:0:0:
167,303,55805,2,0,P|180:278|179:250,1,56.3999982788086,2|0,0:0|0:0,0:0:0:0:
88,127,55981,2,0,P|87:154|100:179,1,56.3999982788086,10|0,0:0|0:0,0:0:0:0:
255,235,56158,2,0,L|315:222,1,56.3999982788086,2|0,0:0|0:0,0:0:0:0:
477,153,56334,6,0,B|434:190|434:190|440:307,1,169.199994836426,2|0,1:2|0:0,0:0:0:0:
376,362,56687,1,8,0:0:0:0:
376,362,56864,1,2,0:0:0:0:
314,84,57040,6,0,B|357:121|357:121|351:233,1,169.199994836426,2|0,1:2|0:0,0:0:0:0:
439,302,57393,2,0,B|434:190|434:190|477:153,1,169.199994836426,8|0,0:0|0:0,0:0:0:0:
428,62,57746,5,6,1:2:0:0:
279,165,57923,1,2,0:0:0:0:
481,222,58099,1,10,0:1:0:0:
262,170,58275,1,2,1:2:0:0:
442,50,58452,1,10,0:1:0:0:
454,110,58540,1,8,0:1:0:0:
420,161,58628,1,8,1:0:0:0:
272,319,58805,1,0,1:0:0:0:
380,268,58981,1,8,0:0:0:0:
170,126,59158,6,0,P|151:186|170:232,1,112.799996557617,6|0,0:0|0:0,0:0:0:0:
272,319,59511,1,8,0:0:0:0:
336,109,59687,2,0,P|279:138|260:184,1,112.799996557617,2|0,0:0|1:0,0:0:0:0:
271,319,60040,1,0,1:0:0:0:
109,264,60217,6,0,L|84:35,1,225.599993115235,10|0,0:0|1:0,0:0:0:0:
299,130,60746,1,2,0:0:0:0:
162,93,60923,2,0,L|176:211,2,112.799996557617,10|2|2,0:0|0:0|1:2,0:0:0:0:
346,98,61452,1,2,1:2:0:0:
176,50,61628,2,0,L|191:169,1,112.799996557617,10|2,0:0|0:0,0:0:0:0:
271,318,61981,6,0,P|305:275|308:220,1,112.799996557617,6|0,0:0|0:0,0:0:0:0:
257,105,62334,1,8,0:0:0:0:
116,280,62511,2,0,P|171:274|211:236,1,112.799996557617,2|0,0:0|1:0,0:0:0:0:
257,105,62864,1,0,1:0:0:0:
88,32,63040,6,0,P|194:16|256:104,1,225.599993115235,10|0,0:0|1:0,0:0:0:0:
104,213,63570,1,2,0:0:0:0:
130,114,63746,1,10,0:0:0:0:
128,225,63923,1,2,0:0:0:0:
159,99,64099,1,2,1:2:0:0:
1,253,64275,1,10,0:0:0:0:
155,216,64452,2,0,L|277:245,1,112.799996557617,10|2,0:0|0:0,0:0:0:0:
493,199,64805,6,0,P|475:143|428:110,1,112.799996557617,6|0,0:0|0:0,0:0:0:0:
312,73,65158,1,8,0:0:0:0:
373,288,65334,2,0,P|399:235|389:179,1,112.799996557617,2|0,0:0|1:0,0:0:0:0:
312,73,65687,1,0,1:0:0:0:
230,166,65864,6,0,L|460:120,1,225.599993115235,10|0,0:0|1:0,0:0:0:0:
373,288,66393,1,2,0:0:0:0:
245,255,66570,2,0,L|225:370,2,112.799996557617,10|2|2,0:0|0:0|1:2,0:0:0:0:
419,254,67099,1,2,0:0:0:0:
270,177,67275,2,0,P|214:183|172:218,1,112.799996557617,10|2,0:0|0:0,0:0:0:0:
108,360,67628,5,2,1:2:0:0:
94,349,67981,1,2,0:0:0:0:
187,343,68334,5,2,1:2:0:0:
266,326,68687,5,2,1:2:0:0:
255,314,69040,1,2,1:2:0:0:
255,314,69746,5,2,0:0:0:0:
336,235,69923,2,0,L|329:186,1,42.2999987091065,2|0,0:0|0:0,0:0:0:0:
251,109,70099,5,2,0:0:0:0:
429,179,70275,1,2,0:0:0:0:
336,235,70452,1,6,0:0:0:0:
164,118,81746,6,0,P|210:136|288:86,1,141.000005378723,6|0,1:2|1:0,0:0:0:0:
377,34,82275,1,2,0:0:0:0:
377,34,82628,1,0,0:0:0:0:
487,143,82805,6,0,B|475:196|475:196|465:207|465:207|447:281,1,141.000005378723,2|0,1:2|1:0,0:0:0:0:
473,348,83334,1,2,0:0:0:0:
473,348,83687,1,0,0:0:0:0:
324,266,83864,1,2,1:2:0:0:
324,266,84040,2,0,P|359:267|394:248,1,70.5000026893617,2|2,0:0|1:2,0:0:0:0:
447,174,84393,1,2,0:0:0:0:
338,105,84570,6,0,B|295:126|295:126|201:102,1,141.000005378723,2|0,1:2|1:0,0:0:0:0:
101,27,85099,1,2,0:0:0:0:
101,27,85452,1,2,0:0:0:0:
11,118,85628,2,0,L|31:260,1,141.000005378723,2|0,1:2|1:0,0:0:0:0:
128,341,86158,5,2,0:0:0:0:
202,281,86334,2,0,P|172:252|135:246,1,70.5000026893617,2|2,1:2|0:0,0:0:0:0:
254,352,86687,2,0,P|280:328|290:294,1,70.5000026893617,2|2,1:2|0:0,0:0:0:0:
189,130,87040,2,0,P|198:163|224:187,1,70.5000026893617,2|2,1:2|0:0,0:0:0:0:
391,214,87393,5,6,1:2:0:0:
291,256,87570,1,0,0:0:0:0:
296,228,87658,2,0,L|304:189,1,35.2500013446808,2|0,0:0|1:0,0:0:0:0:
202,281,87923,1,2,0:0:0:0:
157,126,88099,5,2,1:2:0:0:
257,84,88276,1,2,0:0:0:0:
252,112,88364,2,0,L|244:151,1,35.2500013446808,2|0,0:0|1:0,0:0:0:0:
346,59,88629,1,2,0:0:0:0:
144,27,88805,6,0,P|213:31|257:84,1,141.000005378723,2|0,1:2|1:0,0:0:0:0:
256,83,89511,2,0,L|324:66,2,70.5000026893617,2|2|2,1:2|0:0|1:2,0:0:0:0:
187,130,90040,1,2,0:0:0:0:
187,130,90217,2,0,L|205:276,1,141.000005378723,2|2,1:2|1:2,0:0:0:0:
290,322,90746,1,0,0:0:0:0:
379,255,90923,2,0,P|389:221|384:186,1,70.5000026893617,2|0,1:2|0:0,0:0:0:0:
465,162,91275,2,0,P|448:131|420:109,1,70.5000026893617,2|2,1:2|0:0,0:0:0:0:
319,142,91628,5,2,1:2:0:0:
237,116,91805,1,2,0:0:0:0:
237,116,91893,1,0,0:0:0:0:
237,116,91981,1,2,1:2:0:0:
147,84,92158,1,2,0:0:0:0:
69,57,92334,1,2,1:2:0:0:
334,147,92511,5,2,0:0:0:0:
147,84,92687,2,0,L|161:196,1,105.750004034043,2|0,1:2|0:0,0:0:0:0:
151,229,93040,6,0,P|202:185|300:204,1,169.199994836426,6|8,0:0|0:0,0:0:0:0:
386,321,93570,2,0,P|323:292|298:196,1,169.199994836426,2|0,0:0|0:0,0:0:0:0:
371,71,94099,2,0,P|363:152|297:201,1,169.199994836426,10|0,0:0|1:0,0:0:0:0:
147,84,94628,5,2,0:0:0:0:
147,84,94805,2,0,L|234:102,1,84.599997418213,10|2,0:0|0:0,0:0:0:0:
380,184,95158,2,0,L|293:202,2,84.599997418213,2|2|10,1:2|0:0|0:0,0:0:0:0:
341,57,95687,1,2,0:0:0:0:
249,291,95864,6,0,P|205:240|224:142,1,169.199994836426,2|8,0:0|0:0,0:0:0:0:
341,57,96393,2,0,P|312:120|216:145,1,169.199994836426,2|0,0:0|0:0,0:0:0:0:
90,72,96923,2,0,P|158:73|222:150,1,169.199994836426,10|0,0:0|1:0,0:0:0:0:
132,232,97452,5,2,0:0:0:0:
132,232,97628,2,0,P|119:191|125:150,1,84.599997418213,10|2,0:0|0:0,0:0:0:0:
258,259,97981,1,2,1:2:0:0:
76,325,98158,1,10,0:0:0:0:
76,325,98334,2,0,L|164:349,1,84.599997418213,8|2,0:0|0:0,0:0:0:0:
258,259,98687,5,4,0:0:0:0:
203,94,98864,2,0,P|215:141|202:192,2,94,2|10|2,0:0|0:0|0:0,0:0:0:0:
47,195,99393,6,0,P|86:219|132:223,1,94,2|0,1:2|0:0,0:0:0:0:
339,148,99746,1,10,0:0:0:0:
258,259,99923,1,2,0:0:0:0:
363,123,100099,6,0,B|340:169|340:169|364:260,1,141,2|2,1:0|0:0,0:0:0:0:
379,304,100452,1,8,0:0:0:0:
474,225,100628,1,2,0:0:0:0:
362,123,100805,6,0,P|405:105|429:66,1,94,2|0,1:2|0:0,0:0:0:0:
260,16,101158,2,0,L|268:71,1,47,10|0,0:0|0:0,0:0:0:0:
301,215,101334,1,8,0:1:0:0:
252,195,101423,1,8,0:1:0:0:
201,206,101511,6,0,P|139:207|104:141,1,141,6|0,1:2|0:0,0:0:0:0:
134,101,101864,2,0,L|126:1,1,94,10|0,1:2|0:0,0:0:0:0:
325,97,102217,6,0,L|313:237,1,141,2|0,1:2|0:0,0:0:0:0:
285,281,102570,2,0,L|294:334,1,47,10|0,1:2|0:0,0:0:0:0:
433,381,102746,2,0,L|442:328,1,47,8|8,0:1|0:1,0:0:0:0:
496,243,102923,5,14,1:0:0:0:
491,209,103011,1,8,0:1:0:0:
486,175,103099,1,8,1:0:0:0:
482,142,103187,1,8,0:1:0:0:
477,109,103275,5,8,1:0:0:0:
430,70,103363,1,8,0:1:0:0:
372,62,103451,1,8,0:1:0:0:
320,86,103539,1,8,0:1:0:0:
288,137,103627,5,2,1:2:0:0:
250,12,103805,1,0,1:0:0:0:
389,147,103981,1,0,1:0:0:0:
174,92,104158,1,0,1:0:0:0:
288,137,104334,5,4,1:2:0:0:
90,290,104687,1,2,1:2:0:0:
41,207,104864,2,0,B|102:177|149:211|149:211|200:252|243:237,1,211.500008068085,2|2,0:0|1:2,0:0:0:0:
486,120,105746,5,0,1:0:0:0:
415,50,105923,2,0,P|381:111|403:176,1,141.000005378723,2|0,0:0|0:0,0:0:0:0:
491,321,106452,5,2,1:2:0:0:
405,265,106628,2,0,L|411:304,2,35.2500013446808,0|0|2,0:0|0:0|1:2,0:0:0:0:
491,321,106981,1,2,0:0:0:0:
330,224,107158,6,0,B|270:229|270:229|246:243|246:243|189:250,1,141.000005378723,2|0,1:2|1:0,0:0:0:0:
67,147,107687,2,0,B|127:152|127:152|151:166|151:166|208:173,1,141.000005378723,2|0,0:0|1:0,0:0:0:0:
318,113,108217,2,0,P|329:73|322:37,1,70.5000026893617,2|0,0:0|0:0,0:0:0:0:
240,84,108570,5,0,1:0:0:0:
160,215,108746,1,2,0:0:0:0:
160,215,108834,1,2,0:0:0:0:
160,215,108923,2,0,L|203:207,3,35.2500013446808,2|2|2|2,1:2|0:0|0:0|0:0,0:0:0:0:
226,175,109275,1,2,1:2:0:0:
264,184,109364,1,0,0:0:0:0:
301,195,109452,1,2,0:0:0:0:
337,207,109540,1,0,0:0:0:0:
372,222,109628,2,0,L|414:213,3,35.2500013446808,2|0|2|2,1:2|0:0|0:0|0:0,0:0:0:0:
424,196,109981,6,0,P|511:202|465:277,1,211.500008068085,2|2,1:2|0:0,0:0:0:0:
280,134,110864,5,0,0:0:0:0:
280,134,110952,1,0,0:0:0:0:
280,134,111040,2,0,B|304:172|304:172|287:238,1,105.750004034043,2|0,1:2|0:0,0:0:0:0:
271,257,111393,6,0,L|166:274,2,105.750004034043,2|2|2,1:2|0:0|0:0,0:0:0:0:
117,146,112099,2,0,L|12:129,2,105.750004034043,2|2|2,0:0|0:0|0:0,0:0:0:0:
207,37,112805,6,0,L|276:25,1,70.5000026893617,2|0,0:0|0:0,0:0:0:0:
349,46,113070,1,0,0:0:0:0:
349,46,113158,2,0,P|362:79|359:114,1,70.5000026893617,2|2,1:2|0:0,0:0:0:0:
234,187,113511,2,0,L|94:164,1,141.000005378723,2|2,1:2|1:2,0:0:0:0:
24,220,114040,1,2,0:0:0:0:
24,220,114217,2,0,P|1:174|11:123,1,105.750004034043,2|2,1:2|0:0,0:0:0:0:
32,98,114570,1,0,1:0:0:0:
145,156,114746,1,2,0:0:0:0:
10,313,114923,6,0,B|49:291|49:291|110:297,1,94,12|8,0:1|0:1,0:0:0:0:
139,304,115187,1,8,0:1:0:0:
139,304,115275,1,12,1:0:0:0:
315,195,115452,1,8,0:1:0:0:
201,88,115628,5,4,0:0:0:0:
201,88,115981,2,0,L|164:83,3,35.2500013446808,2|2|2|2,1:0|0:0|0:0|0:0,0:0:0:0:
141,68,116334,5,2,1:2:0:0:
116,73,116423,1,0,0:0:0:0:
91,76,116511,1,2,0:0:0:0:
67,81,116599,1,2,0:0:0:0:
46,105,116687,5,2,1:2:0:0:
71,110,116776,1,0,0:0:0:0:
96,115,116864,1,0,0:0:0:0:
120,120,116952,1,0,0:0:0:0:
142,125,117040,1,2,1:2:0:0:
9,241,117217,6,0,L|15:285,3,35.2500013446808,2|2|2|2,0:0|0:0|1:2|0:0,0:0:0:0:
16,307,117570,5,2,0:0:0:0:
40,312,117659,1,2,0:0:0:0:
64,316,117747,1,2,1:2:0:0:
88,320,117834,1,0,0:0:0:0:
119,325,117923,1,2,0:0:0:0:
222,277,118099,2,0,L|270:267,2,35.2500013446808,2|2|2,1:2|0:0|0:0,0:0:0:0:
458,357,118452,5,2,1:2:0:0:
433,352,118540,1,0,0:0:0:0:
408,347,118628,1,2,0:0:0:0:
383,342,118716,1,2,0:0:0:0:
358,337,118804,2,0,L|310:327,2,35.2500013446808,2|2|2,1:2|0:0|0:0,0:0:0:0:
413,255,119158,5,2,1:2:0:0:
438,250,119246,1,2,0:0:0:0:
463,245,119334,2,0,L|511:235,2,35.2500013446808,2|2|2,0:0|0:0|1:2,0:0:0:0:
364,172,119687,6,0,L|292:182,1,70.5000026893617,2|0,0:0|1:0,0:0:0:0:
358,337,120040,1,2,0:0:0:0:
413,255,120217,1,2,1:2:0:0:
364,172,120393,2,0,L|224:191,1,141.000005378723,2|2,0:0|0:0,0:0:0:0:
100,104,120923,1,2,1:2:0:0:
201,49,121099,1,2,0:0:0:0:
84,113,121275,6,0,P|77:182|117:239,1,141.000005378723,2|0,1:2|1:0,0:0:0:0:
198,286,121805,1,2,0:0:0:0:
198,286,122158,2,0,L|237:279,1,35.2500013446808,2|2,0:0|0:0,0:0:0:0:
316,246,122334,6,0,L|456:273,1,141.000005378723,2|0,1:2|1:0,0:0:0:0:
394,343,122864,1,2,0:0:0:0:
238,149,123217,6,0,L|378:176,1,141.000005378723,2|2,0:0|0:0,0:0:0:0:
316,246,123747,1,2,0:0:0:0:
238,149,123923,1,0,0:0:0:0:
371,44,124099,5,0,1:0:0:0:
371,44,124275,2,0,B|397:85|397:85|375:174,1,141.000005378723,2|0,0:0|0:0,0:0:0:0:
316,246,124805,6,0,L|271:253,3,35.2500013446808,2|2|2|2,1:2|0:0|0:0|0:0,0:0:0:0:
213,287,125158,5,2,1:2:0:0:
186,278,125246,1,0,0:0:0:0:
159,269,125334,1,2,0:0:0:0:
131,260,125423,1,0,0:0:0:0:
102,250,125511,5,4,0:0:0:0:
239,130,125687,1,8,0:1:0:0:
247,161,125775,1,8,0:1:0:0:
228,188,125864,1,8,0:1:0:0:
62,96,126040,5,8,1:0:0:0:
96,265,126217,1,8,0:1:0:0:
58,75,126393,1,8,0:1:0:0:
100,284,126570,2,0,L|81:188,1,94,12|8,0:1|0:1,0:0:0:0:
259,31,126923,6,0,L|225:198,2,159.800003047943,4|10|2,0:0|0:0|0:0,0:0:0:0:
259,31,127981,2,0,P|296:44|335:38,1,79.9000015239716,10|0,0:0|0:0,0:0:0:0:
497,124,128334,5,2,1:2:0:0:
479,210,128511,1,0,0:0:0:0:
393,191,128687,1,10,0:0:0:0:
412,106,128864,1,2,0:0:0:0:
412,106,129217,2,0,L|404:22,1,79.9000015239716,2|8,0:0|0:0,0:0:0:0:
479,210,129570,6,0,L|471:294,1,79.9000015239716,2|0,0:0|1:0,0:0:0:0:
317,346,129923,1,2,0:0:0:0:
386,280,130099,1,10,0:0:0:0:
282,185,130275,1,2,0:0:0:0:
317,346,130452,2,0,P|367:374|396:372,2,79.9000015239716,2|2|10,1:2|0:0|0:0,0:0:0:0:
217,267,130981,6,0,P|139:262|90:321,1,159.800003047943,2|2,0:0|0:0,0:0:0:0:
174,339,131511,1,10,0:0:0:0:
83,201,131687,1,2,0:0:0:0:
190,354,131864,1,2,1:2:0:0:
190,354,132217,2,0,L|235:343,1,39.9500007619858,10|0,0:0|0:0,0:0:0:0:
350,263,132393,6,0,B|314:233|314:233|322:102,1,178.599995230866,6|0,0:0|0:0,0:0:0:0:
434,160,132923,1,10,0:0:0:0:
256,34,133099,6,0,P|339:8|408:59,1,178.599995230866,2|2,0:0|0:0,0:0:0:0:
322,101,133628,1,10,0:0:0:0:
203,183,133805,6,0,L|101:158,1,98.6999969879151,2|0,1:2|0:0,0:0:0:0:
5,295,134158,2,0,L|107:270,1,98.6999969879151,0|0,1:0|0:0,0:0:0:0:
203,183,134511,5,0,1:0:0:0:
34,138,134687,1,0,1:0:0:0:
256,192,135217,12,0,136099,0:0:0:0:
256,192,136805,6,0,P|240:145|252:98,1,98.6999969879151,0|0,3:0|0:0,0:0:0:0:
317,33,137158,2,0,P|339:91|323:153,1,126.899996127319,0|0,3:0|0:0,0:0:0:0:
256,192,137511,6,0,L|261:239,1,47,0|0,3:0|0:0,0:0:0:0:
217,367,137687,1,2,3:2:0:0:
355,226,137864,1,2,3:2:0:0:
158,302,138040,1,2,3:2:0:0:
381,370,138217,6,0,P|435:358|468:314,1,112.799996557617,4|2,0:0|0:0,0:0:0:0:
467,235,138481,1,2,0:0:0:0:
415,174,138570,2,0,P|394:122|411:70,1,112.799996557617,10|2,0:0|0:0,0:0:0:0:
260,238,138923,6,0,L|89:204,1,169.199994836426,2|0,1:2|0:0,0:0:0:0:
16,220,139275,1,10,0:0:0:0:
173,41,139452,6,0,P|204:91|196:152,1,112.799996557617,2|0,0:0|1:0,0:0:0:0:
44,108,139805,1,2,0:0:0:0:
253,18,139981,6,0,L|367:34,1,112.799996557617,10|0,0:0|0:0,0:0:0:0:
442,124,140246,1,0,0:0:0:0:
423,110,140334,2,0,L|436:47,1,56.3999982788086,2|0,1:2|0:0,0:0:0:0:
341,150,140511,2,0,L|354:213,1,56.3999982788086,2|0,0:0|0:0,0:0:0:0:
501,106,140687,2,0,L|514:43,1,56.3999982788086,10|0,0:0|0:0,0:0:0:0:
273,181,140864,2,0,L|286:244,1,56.3999982788086,2|0,0:0|0:0,0:0:0:0:
433,326,141040,6,0,P|492:268|496:186,1,169.199994836426,2|0,1:2|0:0,0:0:0:0:
410,228,141393,1,8,0:0:0:0:
410,228,141570,2,0,L|353:237,1,56.3999982788086,2|0,0:0|0:0,0:0:0:0:
176,286,141746,6,0,P|116:228|112:146,1,169.199994836426,2|0,1:2|0:0,0:0:0:0:
199,191,142099,1,10,0:0:0:0:
199,191,142275,2,0,L|256:200,1,56.3999982788086,2|0,0:0|0:0,0:0:0:0:
496,186,142452,6,0,P|491:268|432:325,1,169.199994836426,2|0,1:2|0:0,0:0:0:0:
346,367,142805,2,0,P|350:284|409:227,1,169.199994836426,10|0,0:0|0:0,0:0:0:0:
496,186,143158,1,2,1:2:0:0:
299,37,143334,6,0,L|317:106,1,56.3999982788086,8|0,0:0|0:0,0:0:0:0:
393,126,143511,2,0,P|353:165|300:181,1,112.799996557617,8|2,0:0|0:0,0:0:0:0:
109,28,143864,6,0,L|127:156,1,112.799996557617,2|2,1:2|0:0,0:0:0:0:
110,217,144128,1,2,0:0:0:0:
167,272,144217,2,0,P|225:282|270:257,1,112.799996557617,10|2,0:0|0:0,0:0:0:0:
324,71,144570,6,0,P|248:46|199:109,1,169.199994836426,2|0,1:2|0:0,0:0:0:0:
207,187,144923,1,10,0:0:0:0:
421,334,145099,6,0,L|412:205,1,112.799996557617,2|0,0:0|1:0,0:0:0:0:
472,119,145452,1,2,0:0:0:0:
283,222,145628,6,0,P|248:265|194:276,1,112.799996557617,10|0,0:0|0:0,0:0:0:0:
115,232,145893,1,0,0:0:0:0:
100,219,145981,2,0,L|91:153,1,56.3999982788086,2|0,1:2|0:0,0:0:0:0:
194,276,146158,2,0,L|185:342,1,56.3999982788086,2|0,0:0|0:0,0:0:0:0:
49,369,146334,2,0,L|40:303,1,56.3999982788086,10|0,0:0|0:0,0:0:0:0:
214,131,146511,2,0,L|205:197,1,56.3999982788086,2|0,0:0|0:0,0:0:0:0:
40,50,146687,6,0,B|108:40|108:40|133:27|133:27|225:15,1,169.199994836426,2|0,1:2|0:0,0:0:0:0:
301,48,147040,1,8,0:0:0:0:
301,48,147217,2,0,L|290:112,1,56.3999982788086,2|0,0:0|0:0,0:0:0:0:
194,276,147393,6,0,B|262:286|262:286|287:299|287:299|358:308,1,169.199994836426,2|0,1:2|0:0,0:0:0:0:
402,230,147746,2,0,B|330:220|330:220|305:207|305:207|237:197,1,169.199994836426,10|0,0:0|0:0,0:0:0:0:
121,227,148099,5,2,1:2:0:0:
40,50,148275,1,2,0:0:0:0:
126,246,148452,1,10,0:0:0:0:
196,106,148628,1,2,0:0:0:0:
34,182,148805,1,2,1:2:0:0:
233,310,148981,1,8,0:1:0:0:
237,276,149070,1,8,0:1:0:0:
243,242,149158,1,8,0:1:0:0:
162,55,149334,1,10,0:1:0:0:
196,106,149423,1,2,0:0:0:0:
255,123,149511,6,0,L|375:101,1,112.799996557617,6|2,1:2|0:0,0:0:0:0:
443,115,149775,1,2,0:0:0:0:
491,177,149864,2,0,P|504:233|489:289,1,112.799996557617,10|2,0:0|0:0,0:0:0:0:
254,372,150217,6,0,P|233:290|249:208,1,169.199994836426,2|0,1:2|0:0,0:0:0:0:
315,163,150570,1,10,0:0:0:0:
215,29,150746,2,0,B|156:58|156:58|47:38,1,169.199994836426,2|0,1:2|0:0,0:0:0:0:
2,92,151099,1,2,0:0:0:0:
154,172,151275,1,10,0:0:0:0:
5,75,151452,1,2,0:0:0:0:
238,18,151628,6,0,P|240:48|230:77,1,58.75,2|0,1:2|0:0,0:0:0:0:
69,191,151805,2,0,P|67:161|77:132,1,58.75,2|0,0:0|0:0,0:0:0:0:
272,267,151981,2,0,P|252:289|224:303,1,58.75,10|0,0:0|0:0,0:0:0:0:
154,172,152158,2,0,L|156:99,1,58.75,2|0,0:0|0:0,0:0:0:0:
358,11,152334,6,0,P|425:28|463:125,1,176.25,6|0,1:2|0:0,0:0:0:0:
386,152,152687,2,0,L|321:134,1,58.75,10|0,0:0|0:0,0:0:0:0:
157,69,152864,1,0,0:0:0:0:
182,121,152952,1,2,0:0:0:0:
154,172,153040,2,0,P|130:242|178:329,1,176.25,0|0,1:0|0:0,0:0:0:0:
222,348,153393,1,8,0:0:0:0:
457,267,153570,1,2,1:2:0:0:
222,348,153746,6,0,L|344:304,1,112.799996557617,2|2,1:2|0:0,0:0:0:0:
449,143,154099,1,10,0:0:0:0:
292,7,154275,2,0,B|331:55|331:55|311:162,1,169.199994836426,2|0,0:0|0:0,0:0:0:0:
298,215,154628,1,10,0:0:0:0:
469,131,154805,1,10,0:0:0:0:
330,54,154981,1,2,0:0:0:0:
387,293,155158,6,0,P|334:342|282:349,1,112.799996557617,6|2,1:2|0:0,0:0:0:0:
229,305,155423,1,2,0:0:0:0:
150,309,155511,2,0,L|28:285,1,112.799996557617,10|2,0:0|0:0,0:0:0:0:
28,132,155864,2,0,L|194:99,1,169.199994836426,2|0,1:2|0:0,0:0:0:0:
268,126,156217,5,10,0:0:0:0:
477,25,156393,2,0,P|433:75|430:126,1,112.799996557617,2|0,0:0|0:0,0:0:0:0:
268,126,156746,1,2,0:0:0:0:
512,101,156923,6,0,P|502:155|463:194,1,112.799996557617,10|0,0:0|0:0,0:0:0:0:
345,230,157187,1,0,0:0:0:0:
345,230,157275,2,0,L|328:168,1,56.3999982788086,2|0,1:2|0:0,0:0:0:0:
440,266,157452,2,0,L|423:328,1,56.3999982788086,2|0,0:0|0:0,0:0:0:0:
268,220,157628,2,0,L|251:158,1,56.3999982788086,10|0,0:0|0:0,0:0:0:0:
506,312,157805,2,0,L|489:374,1,56.3999982788086,2|0,0:0|0:0,0:0:0:0:
253,164,157981,6,0,P|296:96|377:98,1,169.199994836426,2|0,1:2|0:0,0:0:0:0:
459,156,158334,1,8,0:0:0:0:
459,156,158511,2,0,L|437:213,1,56.3999982788086,2|0,0:0|0:0,0:0:0:0:
257,337,158687,6,0,P|213:268|132:270,1,169.199994836426,2|0,1:2|0:0,0:0:0:0:
44,283,159040,2,0,P|87:351|168:349,1,169.199994836426,10|0,0:0|0:0,0:0:0:0:
257,337,159393,5,6,1:2:0:0:
159,110,159570,1,2,0:0:0:0:
265,356,159746,1,10,0:1:0:0:
354,194,159923,1,2,0:0:0:0:
132,270,160099,1,10,0:1:0:0:
186,240,160187,1,8,0:1:0:0:
247,248,160275,1,8,1:0:0:0:
447,141,160452,2,0,P|407:178|353:193,1,112.799996557617,0|8,1:0|0:0,0:0:0:0:
64,57,160805,6,0,P|117:71|158:109,1,112.799996557617,6|0,1:2|0:0,0:0:0:0:
247,248,161158,1,8,0:0:0:0:
241,60,161334,2,0,P|255:113|243:168,1,112.799996557617,2|0,0:0|1:0,0:0:0:0:
166,313,161687,1,0,1:0:0:0:
28,160,161864,6,0,B|89:124|144:158|144:158|197:188|242:167,1,225.599993115235,10|0,1:2|1:0,0:0:0:0:
433,94,162393,1,2,0:0:0:0:
390,226,162570,1,10,0:0:0:0:
451,74,162746,1,2,0:0:0:0:
374,243,162923,2,0,L|392:356,2,112.799996557617,2|2|10,1:2|0:0|0:0,0:0:0:0:
468,56,163452,1,2,0:0:0:0:
297,200,163628,6,0,P|241:207|189:188,1,112.799996557617,6|0,1:2|0:0,0:0:0:0:
53,95,163981,1,8,0:0:0:0:
132,266,164157,2,0,P|97:222|87:167,1,112.799996557617,2|0,0:0|1:0,0:0:0:0:
102,4,164510,1,0,1:0:0:0:
255,125,164687,6,0,B|244:215|244:215|223:252|223:252|215:349,1,225.599993115235,10|0,0:0|1:0,0:0:0:0:
341,252,165217,1,2,0:0:0:0:
169,175,165393,1,10,0:0:0:0:
357,260,165570,1,2,0:0:0:0:
297,71,165746,1,2,1:2:0:0:
375,271,165923,1,10,0:1:0:0:
424,229,166011,1,8,0:1:0:0:
431,165,166099,1,10,0:1:0:0:
266,277,166275,1,10,0:1:0:0:
195,247,166364,1,8,0:1:0:0:
169,175,166452,6,0,P|182:90|257:49,1,176.25,6|0,0:0|0:0,0:0:0:0:
340,25,166805,2,0,P|329:90|294:139,1,117.5,10|0,0:0|1:0,0:0:0:0:
115,255,167158,2,0,P|84:205|75:147,1,117.5,10|0,0:0|0:0,0:0:0:0:
191,0,167511,2,0,L|168:178,1,176.25,10|0,0:0|0:0,0:0:0:0:
115,255,167864,5,10,0:0:0:0:
342,181,168040,2,0,L|347:117,1,58.75,2|2,1:2|0:0,0:0:0:0:
355,196,168217,5,10,0:0:0:0:
203,71,168393,1,2,1:2:0:0:
271,212,168570,1,10,0:0:0:0:
389,23,168746,1,2,1:2:0:0:
271,212,168923,1,10,0:1:0:0:
214,202,169011,1,8,0:1:0:0:
160,224,169099,1,10,1:0:0:0:
111,257,169187,1,8,0:1:0:0:
55,269,169275,5,6,1:2:0:0:
38,168,169628,1,2,0:0:0:0:
138,151,169981,1,2,1:2:0:0:
155,251,170334,1,2,0:0:0:0:
55,269,170687,5,2,0:0:0:0:
