osu file format v14

[General]
AudioFilename: audio.mp3
AudioLeadIn: 0
PreviewTime: 521
Countdown: 0
SampleSet: Soft
StackLeniency: 0.7
Mode: 0
LetterboxInBreaks: 0
WidescreenStoryboard: 0

[Editor]
DistanceSpacing: 1.5
BeatDivisor: 8
GridSize: 4
TimelineZoom: 1.7

[Metadata]
Title:Doushite Fabottekurenaino
TitleUnicode:どうしてふぁぼってくれないの
Artist:mafumafu
ArtistUnicode:まふまふ
Creator:hanyuu_nanodesu
Version:Please give like
Source:
Tags:why won't you give me like
BeatmapID:1711674
BeatmapSetID:816199

[Difficulty]
HPDrainRate:6
CircleSize:3.7
OverallDifficulty:6
ApproachRate:9
SliderMultiplier:2.8
SliderTickRate:2

[Events]
//Background and Video events
0,0,"doushite raw.jpg",0,0
//Break Periods
//Storyboard Layer 0 (Background)
//Storyboard Layer 1 (Fail)
//Storyboard Layer 2 (Pass)
//Storyboard Layer 3 (Foreground)
//Storyboard Sound Samples

[TimingPoints]
1913.34482758621,696.864111498258,4,2,0,70,1,0
11669,-100,4,2,0,60,0,0
13063,-100,4,2,0,70,0,0
19509,-100,4,2,0,40,0,0
19857,-100,4,2,0,70,0,0
21425,-200,4,2,0,50,0,0
24909,-200,4,2,0,45,0,0
25606,-200,4,2,0,40,0,0
26303,-200,4,2,0,35,0,0
27000,-200,4,2,0,30,0,0
27697,-200,4,2,0,25,0,0
28394,-200,4,2,0,20,0,0
29091,-200,4,2,0,15,0,0
29787,-200,4,2,0,10,0,0

[Colours]
Combo1 : 116,12,12
Combo2 : 128,128,128
Combo3 : 192,192,192
Combo4 : 210,26,26

[HitObjects]
268,132,1913,6,0,B|316:128|356:112|356:112|384:124|416:152,1,140,4|0,0:0|0:0,0:0:0:0:
392,240,2435,1,0,0:0:0:0:
216,236,2610,2,0,P|180:184|156:80,1,140,0|0,1:0|0:0,0:0:0:0:
232,36,3132,1,0,0:0:0:0:
376,96,3307,6,0,P|348:132|312:168,1,70
316,316,3655,2,0,P|298:273|285:224,1,70
156,160,4003,2,0,P|201:166|250:179,1,70,0|0,1:0|0:0,0:0:0:0:
104,256,4352,1,0,0:0:0:0:
44,168,4526,1,0,0:0:0:0:
252,96,4700,6,0,L|280:248,1,140
240,332,5223,1,0,0:0:0:0:
384,304,5397,2,0,L|409:166,1,140,0|0,1:0|0:0,0:0:0:0:
348,8,5920,1,0,0:0:0:0:
296,156,6094,5,0,0:0:0:0:
420,76,6268,1,0,0:0:0:0:
256,52,6442,2,0,P|200:56|164:64,1,70
96,172,6791,2,0,P|152:168|188:160,1,70,0|0,1:0|0:0,0:0:0:0:
348,204,7139,1,0,0:0:0:0:
232,284,7314,1,0,0:0:0:0:
336,116,7488,6,0,P|392:164|444:240,1,140,4|0,0:0|0:0,0:0:0:0:
424,320,8010,1,0,0:0:0:0:
268,364,8185,2,0,P|287:303|340:220,1,140,0|0,1:0|0:0,0:0:0:0:
288,140,8707,1,0,0:0:0:0:
448,168,8881,6,0,P|476:216|488:252,1,70
400,68,9230,2,0,P|427:19|452:-8,1,70
336,156,9578,2,0,P|280:156|243:148,1,70,0|0,1:0|0:0,0:0:0:0:
168,28,9927,1,0,0:0:0:0:
304,60,10101,1,0,0:0:0:0:
216,244,10275,6,0,P|184:188|172:92,1,140
224,24,10798,1,0,0:0:0:0:
60,112,10972,1,0,1:0:0:0:
228,156,11146,1,0,0:0:0:0:
112,24,11321,1,0,1:0:0:0:
64,216,11495,1,0,0:0:0:0:
260,156,11669,6,0,L|360:164,1,70,4|0,0:0|1:0,0:0:0:0:
364,168,11930,1,0,1:0:0:0:
399,171,12017,1,0,1:0:0:0:
472,352,12192,1,0,1:0:0:0:
304,304,12366,1,0,1:0:0:0:
476,224,12540,1,4,0:0:0:0:
388,376,12714,1,0,1:0:0:0:
288,260,12888,1,0,1:0:0:0:
416,140,13063,6,0,B|436:84|424:28|424:28|404:40|384:48,1,140,4|0,0:0|0:0,0:0:0:0:
296,20,13585,1,0,0:0:0:0:
160,128,13760,2,0,B|208:120|236:100|236:100|258:121|307:121,1,140,0|0,1:0|0:0,0:0:0:0:
356,200,14282,1,0,0:0:0:0:
264,324,14456,6,0,P|252:288|248:236,1,70
289,120,14805,1,0,0:0:0:0:
356,200,14979,1,0,0:0:0:0:
176,160,15153,2,0,L|252:144,1,70,0|0,1:0|0:0,0:0:0:0:
324,8,15502,2,0,L|255:22,1,70
356,200,15850,6,0,P|368:160|368:112,1,70
300,296,16199,2,0,P|340:308|388:308,1,70
208,244,16547,2,0,P|196:284|196:332,1,70,0|0,1:0|0:0,0:0:0:0:
264,144,16895,2,0,P|224:132|176:132,1,70
68,40,17244,6,0,P|102:36|136:26,1,70
304,80,17592,1,0,0:0:0:0:
184,144,17767,1,0,0:0:0:0:
328,0,17941,2,0,L|392:132,1,140,0|0,1:0|1:0,0:0:0:0:
336,272,18463,1,0,1:0:0:0:
136,208,18638,6,0,P|192:168|288:144,1,140,4|0,0:0|0:0,0:0:0:0:
352,196,19160,1,0,0:0:0:0:
364,56,19334,2,0,P|316:44|272:16,1,70,0|8,1:0|3:0,0:0:0:0:
428,136,19683,2,0,P|476:148|520:176,1,70,8|0,3:0|0:0,0:0:0:0:
416,312,20031,5,0,0:0:0:0:
251,309,20206,1,0,0:0:0:0:
385,214,20380,1,0,0:0:0:0:
333,370,20554,1,0,0:0:0:0:
285,212,20728,2,0,P|276:168|276:128,1,70,0|0,1:0|0:0,0:0:0:0:
385,214,21077,1,0,0:0:0:0:
333,370,21251,1,0,0:0:0:0:
160,352,21425,6,0,B|146:302|159:251|192:216|192:216|108:176|108:176|140:136|152:84|136:32,1,385,4|0,0:0|0:0,0:0:0:0:
44,12,23516,2,0,L|0:4,2,35
256,192,24212,12,0,29787,0:0:0:0:
