osu file format v14

[General]
AudioFilename: audio.mp3
AudioLeadIn: 0
PreviewTime: 521
Countdown: 0
SampleSet: None
StackLeniency: 0.7
Mode: 0
LetterboxInBreaks: 0
WidescreenStoryboard: 0

[Editor]
DistanceSpacing: 1.5
BeatDivisor: 4
GridSize: 4
TimelineZoom: 1.7

[Metadata]
Title:Doushite Fabottekurenaino
TitleUnicode:どうしてふぁぼってくれないの
Artist:mafumafu
ArtistUnicode:まふまふ
Creator:hanyuu_nanodesu
Version:Hard
Source:
Tags:why won't you give me like
BeatmapID:1711672
BeatmapSetID:816199

[Difficulty]
HPDrainRate:5
CircleSize:3.4
OverallDifficulty:4.5
ApproachRate:7
SliderMultiplier:2.4
SliderTickRate:2

[Events]
//Background and Video events
0,0,"doushite raw.jpg",0,0
//Break Periods
//Storyboard Layer 0 (Background)
//Storyboard Layer 1 (Fail)
//Storyboard Layer 2 (Pass)
//Storyboard Layer 3 (Foreground)
//Storyboard Sound Samples

[TimingPoints]
1913.34482758621,696.864111498258,4,2,0,70,1,0
11669,-100,4,2,0,60,0,0
13063,-100,4,2,0,70,0,0
19509,-100,4,2,0,40,0,0
19857,-100,4,2,0,70,0,0
21425,-100,4,2,0,50,0,0
24909,-100,4,2,0,45,0,0
25606,-100,4,2,0,40,0,0
26303,-100,4,2,0,35,0,0
27000,-100,4,2,0,30,0,0
27697,-100,4,2,0,25,0,0
28394,-100,4,2,0,20,0,0
29091,-100,4,2,0,15,0,0
29787,-100,4,2,0,10,0,0

[Colours]
Combo1 : 116,12,12
Combo2 : 128,128,128
Combo3 : 192,192,192
Combo4 : 210,26,26

[HitObjects]
40,64,1913,6,0,P|84:44|172:40,1,120,4|0,0:0|0:0,0:0:0:0:
308,132,2610,2,0,L|328:268,1,120,0|0,1:0|0:0,0:0:0:0:
280,328,3132,1,0,0:0:0:0:
424,304,3307,6,0,L|441:185,2,120,0|0|0,0:0|0:0|1:0,0:0:0:0:
360,368,4178,1,0,0:0:0:0:
280,328,4352,2,0,P|244:320|212:320,1,60
136,220,4700,6,0,P|192:216|272:188,1,120
300,120,5223,1,0,0:0:0:0:
380,80,5397,2,0,P|408:72|456:72,1,60,0|0,1:0|0:0,0:0:0:0:
496,156,5746,2,0,P|468:164|420:164,1,60
336,276,6094,6,0,P|388:276|468:308,1,120
284,364,6791,2,0,P|258:318|245:233,1,120,0|0,1:0|0:0,0:0:0:0:
272,168,7314,1,0,0:0:0:0:
120,132,7488,6,0,L|108:264,1,120,4|0,0:0|0:0,0:0:0:0:
272,168,8185,2,0,L|282:48,1,120,0|0,1:0|0:0,0:0:0:0:
368,28,8707,1,0,0:0:0:0:
363,184,8881,6,0,P|336:234|271:264,2,120,0|0|0,0:0|0:0|1:0,0:0:0:0:
272,168,9753,1,0,0:0:0:0:
192,124,9927,2,0,P|156:128|116:144,1,60
88,284,10275,6,0,P|116:320|196:360,1,120
264,324,10798,1,0,0:0:0:0:
344,280,10972,2,0,P|376:280|420:288,1,60,0|0,1:0|0:0,0:0:0:0:
448,192,11321,2,0,P|416:192|372:184,1,60,0|0,1:0|0:0,0:0:0:0:
256,112,11669,6,0,P|200:148|144:220,1,120,4|0,0:0|1:0,0:0:0:0:
144,276,12192,1,0,1:0:0:0:
200,354,12366,1,0,1:0:0:0:
298,316,12540,1,0,1:0:0:0:
398,370,12714,1,0,1:0:0:0:
479,282,12888,1,0,1:0:0:0:
489,150,13063,6,0,P|484:91|456:23,1,120,4|0,0:0|0:0,0:0:0:0:
284,52,13760,2,0,P|262:107|257:167,1,120,0|0,1:0|0:0,0:0:0:0:
300,248,14282,1,0,0:0:0:0:
444,216,14456,6,0,P|408:180|324:148,1,120
257,167,14979,1,0,0:0:0:0:
184,220,15153,2,0,P|132:232|52:216,1,120,0|0,1:0|0:0,0:0:0:0:
32,140,15676,1,0,0:0:0:0:
184,220,15850,6,0,P|192:264|196:300,1,60
284,296,16199,2,0,P|288:266|293:236,1,60
360,176,16547,2,0,P|365:146|369:116,1,60,0|0,1:0|0:0,0:0:0:0:
452,80,16895,2,0,P|456:109|461:139,1,60
352,24,17244,6,0,P|292:24|204:48,1,120
172,100,17767,1,0,0:0:0:0:
120,176,17941,2,0,L|132:328,1,120,0|0,1:0|1:0,0:0:0:0:
239,365,18463,1,0,1:0:0:0:
368,344,18638,6,0,P|388:288|380:192,1,120,4|0,0:0|0:0,0:0:0:0:
332,160,19160,1,0,0:0:0:0:
280,84,19334,2,0,P|280:52|284:20,2,60,0|8|8,0:0|3:0|3:0,0:0:0:0:
208,136,19857,1,0,0:0:0:0:
156,288,20031,5,0,0:0:0:0:
206,364,20206,1,0,0:0:0:0:
294,340,20380,1,0,0:0:0:0:
378,376,20554,1,0,0:0:0:0:
452,324,20728,2,0,P|472:272|468:192,1,120,0|0,1:0|0:0,0:0:0:0:
407,84,21251,1,0,0:0:0:0:
268,68,21425,5,4,0:0:0:0:
256,192,21599,12,0,24212,0:0:0:0:
256,192,24387,12,0,29787,0:0:0:0:
