osu file format v14

[General]
AudioFilename: audio.mp3
AudioLeadIn: 0
PreviewTime: 67696
Countdown: 0
SampleSet: Soft
StackLeniency: 0.7
Mode: 3
LetterboxInBreaks: 0
SpecialStyle: 0
WidescreenStoryboard: 0

[Editor]
DistanceSpacing: 1.2
BeatDivisor: 8
GridSize: 4
TimelineZoom: 2.799999

[Metadata]
Title:Art o Kagaku Suru
TitleUnicode:アートを科学する
Artist:mafumafu
ArtistUnicode:まふまふ
Creator:Angki
Version:Peaceful Art
Source:
Tags:神楽色アーティファクト kagurairo-artifact kagurairo artifact Wo Ainer Keilann j-pop jpop j-rock jrock pop rock japanese piano artcore male vocal
BeatmapID:2690794
BeatmapSetID:1296986

[Difficulty]
HPDrainRate:8.4
CircleSize:4
OverallDifficulty:8.6
ApproachRate:5
SliderMultiplier:3.59999990463257
SliderTickRate:4

[Events]
//Background and Video events
0,0,"77353145_p0.jpg",0,0
//Break Periods
//Storyboard Layer 0 (Background)
//Storyboard Layer 1 (Fail)
//Storyboard Layer 2 (Pass)
//Storyboard Layer 3 (Foreground)
//Storyboard Layer 4 (Overlay)
//Storyboard Sound Samples

[TimingPoints]
487,329.67032967033,4,2,1,65,1,0
61146,329.67032967033,3,2,1,65,1,0
67080,329.67032967033,4,2,1,65,1,0
68398,-100,4,2,1,75,0,1
88014,-100,4,2,1,65,0,0
130376,329.67032967033,3,2,1,65,1,0
136310,329.67032967033,4,2,1,65,1,0
137628,-100,4,2,1,75,0,1
157244,-100,4,2,1,65,0,0

[HitObjects]
64,192,487,5,0,0:0:0:0:
448,192,487,128,0,651:0:0:0:0:
192,192,651,1,0,0:0:0:0:
192,192,981,1,0,0:0:0:0:
64,192,1146,1,0,0:0:0:0:
320,192,1146,1,0,0:0:0:0:
192,192,1311,1,0,0:0:0:0:
448,192,1311,1,0,0:0:0:0:
320,192,1476,1,0,0:0:0:0:
192,192,1640,1,0,0:0:0:0:
448,192,1640,128,0,1970:0:0:0:0:
64,192,1970,1,0,0:0:0:0:
320,192,1970,1,0,0:0:0:0:
192,192,2300,1,0,0:0:0:0:
64,192,2465,1,0,0:0:0:0:
320,192,2629,1,0,0:0:0:0:
448,192,2629,1,0,0:0:0:0:
192,192,2794,1,0,0:0:0:0:
320,192,2959,1,0,0:0:0:0:
448,192,2959,1,0,0:0:0:0:
64,192,3124,128,0,3289:0:0:0:0:
192,192,3124,1,0,0:0:0:0:
448,192,3289,1,0,0:0:0:0:
448,192,3618,1,0,0:0:0:0:
64,192,3783,1,0,0:0:0:0:
320,192,3783,1,0,0:0:0:0:
192,192,3866,1,0,0:0:0:0:
64,192,3948,1,0,0:0:0:0:
448,192,3948,1,0,0:0:0:0:
192,192,4030,1,0,0:0:0:0:
64,192,4113,1,0,0:0:0:0:
320,192,4113,1,0,0:0:0:0:
192,192,4278,1,0,0:0:0:0:
448,192,4278,128,0,4607:0:0:0:0:
64,192,4607,1,0,0:0:0:0:
320,192,4607,1,0,0:0:0:0:
64,192,4937,1,0,0:0:0:0:
448,192,4937,1,0,0:0:0:0:
192,192,5102,1,0,0:0:0:0:
320,192,5267,1,0,0:0:0:0:
448,192,5267,1,0,0:0:0:0:
64,192,5432,1,0,0:0:0:0:
320,192,5596,1,0,0:0:0:0:
448,192,5596,1,0,0:0:0:0:
64,192,5761,128,0,5926:0:0:0:0:
192,192,5761,1,0,0:0:0:0:
320,192,5926,1,0,0:0:0:0:
320,192,6256,1,0,0:0:0:0:
192,192,6421,1,0,0:0:0:0:
448,192,6421,1,0,0:0:0:0:
64,192,6585,1,0,0:0:0:0:
320,192,6585,1,0,0:0:0:0:
192,192,6750,1,0,0:0:0:0:
64,192,6915,128,0,7245:0:0:0:0:
320,192,6915,1,0,0:0:0:0:
192,192,7245,1,0,0:0:0:0:
448,192,7245,1,0,0:0:0:0:
448,192,7574,1,0,0:0:0:0:
64,192,7739,1,0,0:0:0:0:
320,192,7739,1,0,0:0:0:0:
192,192,7904,1,0,0:0:0:0:
448,192,7904,1,0,0:0:0:0:
320,192,8069,1,0,0:0:0:0:
192,192,8234,1,0,0:0:0:0:
448,192,8234,1,0,0:0:0:0:
64,192,8399,128,0,8563:0:0:0:0:
320,192,8399,1,0,0:0:0:0:
192,192,8563,1,0,0:0:0:0:
64,192,8893,1,0,0:0:0:0:
192,192,9058,1,0,0:0:0:0:
448,192,9058,1,0,0:0:0:0:
320,192,9140,1,0,0:0:0:0:
64,192,9223,1,0,0:0:0:0:
448,192,9223,1,0,0:0:0:0:
320,192,9305,1,0,0:0:0:0:
192,192,9388,1,0,0:0:0:0:
448,192,9388,1,0,0:0:0:0:
64,192,9552,128,0,9882:0:0:0:0:
320,192,9552,1,0,0:0:0:0:
448,192,9717,1,0,0:0:0:0:
320,192,9882,1,0,0:0:0:0:
192,192,9965,1,0,0:0:0:0:
320,192,10047,1,0,0:0:0:0:
448,192,10212,1,0,0:0:0:0:
64,192,10377,128,0,10541:0:0:0:0:
320,192,10377,1,0,0:0:0:0:
192,192,10541,1,0,0:0:0:0:
64,192,11036,1,2,0:0:0:0:
192,192,11036,1,4,0:0:0:0:
320,192,11036,1,0,0:0:0:0:
448,192,11036,1,0,0:0:0:0:
320,192,11366,1,8,0:0:0:0:
448,192,11366,1,0,0:0:0:0:
192,192,11448,1,0,0:0:0:0:
64,192,11530,1,0,0:0:0:0:
320,192,11613,1,0,0:0:0:0:
64,192,11695,1,2,0:0:0:0:
448,192,11695,1,0,0:0:0:0:
192,192,11778,1,0,0:0:0:0:
320,192,11860,1,2,0:0:0:0:
448,192,11860,1,0,0:0:0:0:
64,192,11943,1,0,0:0:0:0:
192,192,12025,1,0,0:0:0:0:
320,192,12107,1,0,0:0:0:0:
64,192,12190,1,8,0:0:0:0:
192,192,12190,1,0,0:0:0:0:
448,192,12190,1,0,0:0:0:0:
64,192,12355,1,0,0:0:0:0:
320,192,12519,1,2,0:0:0:0:
448,192,12519,1,0,0:0:0:0:
64,192,12684,1,8,0:0:0:0:
320,192,12684,1,0,0:0:0:0:
448,192,12684,1,0,0:0:0:0:
192,192,12767,1,0,0:0:0:0:
64,192,12849,1,0,0:0:0:0:
320,192,12932,1,0,0:0:0:0:
192,192,13014,1,0,0:0:0:0:
448,192,13096,1,0,0:0:0:0:
64,192,13179,1,2,0:0:0:0:
320,192,13179,1,0,0:0:0:0:
192,192,13261,1,0,0:0:0:0:
64,192,13344,1,8,0:0:0:0:
320,192,13344,1,0,0:0:0:0:
448,192,13344,1,0,0:0:0:0:
448,192,13508,1,0,0:0:0:0:
64,192,13673,1,2,0:0:0:0:
192,192,13673,1,0,0:0:0:0:
320,192,13838,1,0,0:0:0:0:
64,192,14003,1,8,0:0:0:0:
192,192,14003,1,0,0:0:0:0:
448,192,14003,1,0,0:0:0:0:
320,192,14085,1,0,0:0:0:0:
192,192,14168,1,0,0:0:0:0:
448,192,14250,1,0,0:0:0:0:
64,192,14333,1,2,0:0:0:0:
320,192,14333,1,0,0:0:0:0:
192,192,14415,1,0,0:0:0:0:
64,192,14497,1,2,0:0:0:0:
448,192,14497,1,0,0:0:0:0:
320,192,14580,1,0,0:0:0:0:
192,192,14662,1,0,0:0:0:0:
320,192,14745,1,0,0:0:0:0:
64,192,14827,1,8,0:0:0:0:
192,192,14827,1,0,0:0:0:0:
448,192,14827,1,0,0:0:0:0:
64,192,14992,1,0,0:0:0:0:
320,192,15157,1,2,0:0:0:0:
448,192,15157,1,0,0:0:0:0:
192,192,15239,1,0,0:0:0:0:
64,192,15322,1,8,0:0:0:0:
320,192,15322,1,0,0:0:0:0:
448,192,15322,1,0,0:0:0:0:
192,192,15404,1,0,0:0:0:0:
64,192,15487,1,0,0:0:0:0:
320,192,15569,1,0,0:0:0:0:
448,192,15651,1,0,0:0:0:0:
192,192,15734,1,0,0:0:0:0:
64,192,15816,1,2,0:0:0:0:
320,192,15816,1,0,0:0:0:0:
448,192,15899,1,0,0:0:0:0:
64,192,15981,1,8,0:0:0:0:
192,192,15981,1,0,0:0:0:0:
320,192,15981,1,0,0:0:0:0:
448,192,16063,1,0,0:0:0:0:
192,192,16146,1,0,0:0:0:0:
320,192,16228,1,0,0:0:0:0:
64,192,16311,1,2,0:0:0:0:
192,192,16311,1,4,0:0:0:0:
448,192,16311,1,0,0:0:0:0:
64,192,16640,1,8,0:0:0:0:
192,192,16640,1,0,0:0:0:0:
448,192,16640,1,0,0:0:0:0:
320,192,16723,1,0,0:0:0:0:
192,192,16805,1,0,0:0:0:0:
64,192,16888,1,0,0:0:0:0:
320,192,16970,1,2,0:0:0:0:
448,192,16970,1,0,0:0:0:0:
192,192,17052,1,0,0:0:0:0:
64,192,17135,1,2,0:0:0:0:
320,192,17135,1,0,0:0:0:0:
448,192,17217,1,0,0:0:0:0:
192,192,17300,1,0,0:0:0:0:
320,192,17382,1,0,0:0:0:0:
64,192,17465,1,8,0:0:0:0:
192,192,17465,1,0,0:0:0:0:
448,192,17465,1,0,0:0:0:0:
64,192,17629,1,0,0:0:0:0:
320,192,17794,1,2,0:0:0:0:
448,192,17794,1,0,0:0:0:0:
64,192,17959,1,8,0:0:0:0:
320,192,17959,1,0,0:0:0:0:
448,192,17959,1,0,0:0:0:0:
192,192,18041,1,0,0:0:0:0:
64,192,18124,1,0,0:0:0:0:
448,192,18206,1,0,0:0:0:0:
320,192,18289,1,0,0:0:0:0:
64,192,18371,1,0,0:0:0:0:
192,192,18454,1,2,0:0:0:0:
448,192,18454,1,0,0:0:0:0:
320,192,18536,1,0,0:0:0:0:
64,192,18618,1,8,0:0:0:0:
192,192,18618,1,0,0:0:0:0:
448,192,18618,1,0,0:0:0:0:
64,192,18783,1,0,0:0:0:0:
320,192,18948,1,2,0:0:0:0:
448,192,18948,1,0,0:0:0:0:
192,192,19113,1,0,0:0:0:0:
64,192,19278,1,8,0:0:0:0:
320,192,19278,1,0,0:0:0:0:
448,192,19278,1,0,0:0:0:0:
192,192,19360,1,0,0:0:0:0:
320,192,19443,1,0,0:0:0:0:
64,192,19525,1,0,0:0:0:0:
192,192,19607,1,2,0:0:0:0:
448,192,19607,1,0,0:0:0:0:
320,192,19690,1,0,0:0:0:0:
64,192,19772,1,2,0:0:0:0:
192,192,19772,1,0,0:0:0:0:
320,192,19855,1,0,0:0:0:0:
64,192,19937,1,8,0:0:0:0:
448,192,19937,1,0,0:0:0:0:
192,192,20019,1,0,0:0:0:0:
64,192,20102,1,4,0:0:0:0:
320,192,20102,1,2,0:0:0:0:
448,192,20102,1,0,0:0:0:0:
448,192,20267,1,0,0:0:0:0:
64,192,20432,1,2,0:0:0:0:
320,192,20432,1,0,0:0:0:0:
192,192,20514,1,0,0:0:0:0:
64,192,20596,1,8,0:0:0:0:
448,192,20596,1,0,0:0:0:0:
320,192,20679,1,0,0:0:0:0:
192,192,20761,1,0,0:0:0:0:
64,192,20844,1,0,0:0:0:0:
320,192,20926,1,2,0:0:0:0:
448,192,20926,1,0,0:0:0:0:
192,192,21008,1,0,0:0:0:0:
64,192,21091,1,8,0:0:0:0:
448,192,21091,1,0,0:0:0:0:
192,192,21173,1,8,0:0:0:0:
320,192,21173,1,0,0:0:0:0:
64,192,21256,1,8,0:0:0:0:
448,192,21256,1,0,0:0:0:0:
320,192,21338,1,0,0:0:0:0:
64,192,21421,1,8,0:0:0:0:
192,192,21421,1,0,0:0:0:0:
448,192,21503,1,0,0:0:0:0:
64,192,21585,1,2,0:0:0:0:
192,192,21585,1,4,0:0:0:0:
320,192,21585,1,0,0:0:0:0:
320,192,21750,1,0,0:0:0:0:
64,192,21915,1,8,0:0:0:0:
192,192,21915,1,0,0:0:0:0:
448,192,21915,1,0,0:0:0:0:
320,192,21997,1,0,0:0:0:0:
192,192,22080,1,0,0:0:0:0:
448,192,22162,1,0,0:0:0:0:
64,192,22245,1,2,0:0:0:0:
320,192,22245,1,0,0:0:0:0:
192,192,22327,1,0,0:0:0:0:
320,192,22410,1,2,0:0:0:0:
448,192,22410,1,0,0:0:0:0:
64,192,22492,1,0,0:0:0:0:
192,192,22574,1,0,0:0:0:0:
320,192,22657,1,0,0:0:0:0:
64,192,22739,1,8,0:0:0:0:
192,192,22739,1,0,0:0:0:0:
448,192,22739,1,0,0:0:0:0:
192,192,22904,1,0,0:0:0:0:
320,192,23069,1,2,0:0:0:0:
448,192,23069,1,0,0:0:0:0:
64,192,23234,1,8,0:0:0:0:
192,192,23234,1,0,0:0:0:0:
448,192,23234,1,0,0:0:0:0:
320,192,23316,1,0,0:0:0:0:
64,192,23399,1,0,0:0:0:0:
192,192,23481,1,0,0:0:0:0:
448,192,23563,1,0,0:0:0:0:
320,192,23646,1,0,0:0:0:0:
64,192,23728,1,2,0:0:0:0:
192,192,23728,1,0,0:0:0:0:
448,192,23811,1,0,0:0:0:0:
64,192,23893,1,8,0:0:0:0:
192,192,23893,1,0,0:0:0:0:
320,192,23893,1,0,0:0:0:0:
320,192,24058,1,0,0:0:0:0:
192,192,24223,1,2,0:0:0:0:
448,192,24223,1,0,0:0:0:0:
64,192,24388,1,0,0:0:0:0:
192,192,24470,1,0,0:0:0:0:
64,192,24552,1,8,0:0:0:0:
320,192,24552,1,0,0:0:0:0:
448,192,24552,1,0,0:0:0:0:
192,192,24635,1,0,0:0:0:0:
448,192,24717,1,0,0:0:0:0:
320,192,24800,1,0,0:0:0:0:
64,192,24882,1,2,0:0:0:0:
192,192,24882,1,0,0:0:0:0:
448,192,24965,1,0,0:0:0:0:
192,192,25047,1,2,0:0:0:0:
320,192,25047,1,0,0:0:0:0:
64,192,25129,1,0,0:0:0:0:
448,192,25212,1,0,0:0:0:0:
320,192,25294,1,0,0:0:0:0:
64,192,25377,1,8,0:0:0:0:
192,192,25377,1,0,0:0:0:0:
448,192,25377,1,0,0:0:0:0:
192,192,25541,1,0,0:0:0:0:
320,192,25706,1,2,0:0:0:0:
448,192,25706,1,0,0:0:0:0:
64,192,25789,1,0,0:0:0:0:
192,192,25871,1,8,0:0:0:0:
320,192,25871,1,0,0:0:0:0:
448,192,25871,1,0,0:0:0:0:
64,192,25954,1,0,0:0:0:0:
320,192,26036,1,0,0:0:0:0:
192,192,26118,1,0,0:0:0:0:
64,192,26201,1,0,0:0:0:0:
448,192,26283,1,0,0:0:0:0:
64,192,26366,1,2,0:0:0:0:
320,192,26366,1,0,0:0:0:0:
192,192,26448,1,0,0:0:0:0:
64,192,26530,1,8,0:0:0:0:
320,192,26530,1,0,0:0:0:0:
448,192,26530,1,0,0:0:0:0:
192,192,26613,1,0,0:0:0:0:
448,192,26695,1,0,0:0:0:0:
320,192,26778,1,0,0:0:0:0:
64,192,26860,1,2,0:0:0:0:
192,192,26860,1,4,0:0:0:0:
448,192,26860,1,0,0:0:0:0:
64,192,27025,1,0,0:0:0:0:
192,192,27190,1,8,0:0:0:0:
320,192,27190,1,0,0:0:0:0:
448,192,27190,1,0,0:0:0:0:
64,192,27272,1,0,0:0:0:0:
320,192,27355,1,0,0:0:0:0:
192,192,27437,1,0,0:0:0:0:
64,192,27519,1,2,0:0:0:0:
448,192,27519,1,0,0:0:0:0:
320,192,27602,1,0,0:0:0:0:
192,192,27684,1,2,0:0:0:0:
448,192,27684,1,0,0:0:0:0:
64,192,27767,1,0,0:0:0:0:
320,192,27849,1,0,0:0:0:0:
448,192,27932,1,0,0:0:0:0:
64,192,28014,1,8,0:0:0:0:
192,192,28014,1,0,0:0:0:0:
320,192,28014,1,0,0:0:0:0:
192,192,28179,1,0,0:0:0:0:
64,192,28344,1,2,0:0:0:0:
448,192,28344,1,0,0:0:0:0:
320,192,28426,1,0,0:0:0:0:
64,192,28508,1,8,0:0:0:0:
192,192,28508,1,0,0:0:0:0:
448,192,28508,1,0,0:0:0:0:
320,192,28591,1,0,0:0:0:0:
64,192,28673,1,0,0:0:0:0:
192,192,28756,1,0,0:0:0:0:
320,192,28838,1,0,0:0:0:0:
448,192,28921,1,0,0:0:0:0:
64,192,29003,1,2,0:0:0:0:
192,192,29003,1,0,0:0:0:0:
320,192,29085,1,0,0:0:0:0:
64,192,29168,1,8,0:0:0:0:
192,192,29168,1,0,0:0:0:0:
448,192,29168,1,0,0:0:0:0:
448,192,29333,1,0,0:0:0:0:
64,192,29497,1,2,0:0:0:0:
192,192,29497,1,4,0:0:0:0:
320,192,29497,1,0,0:0:0:0:
64,192,29662,1,2,0:0:0:0:
192,192,29662,1,0,0:0:0:0:
64,192,29827,1,8,0:0:0:0:
320,192,29827,1,0,0:0:0:0:
448,192,29827,1,0,0:0:0:0:
192,192,29992,1,2,0:0:0:0:
320,192,29992,1,4,0:0:0:0:
448,192,29992,1,0,0:0:0:0:
64,192,30322,1,2,0:0:0:0:
192,192,30322,1,4,0:0:0:0:
320,192,30322,1,0,0:0:0:0:
64,192,30651,1,2,0:0:0:0:
192,192,30651,1,4,0:0:0:0:
320,192,30651,1,0,0:0:0:0:
448,192,30651,1,0,0:0:0:0:
320,192,31146,128,0,31970:0:0:0:0:
192,192,31476,128,0,31970:0:0:0:0:
64,192,31805,128,0,31970:0:0:0:0:
64,192,32135,128,2,32465:0:0:0:0:
192,192,32135,128,4,32300:0:0:0:0:
320,192,32135,1,0,0:0:0:0:
192,192,32465,1,8,0:0:0:0:
320,192,32465,1,0,0:0:0:0:
448,192,32465,128,0,32547:0:0:0:0:
448,192,32629,128,0,32794:0:0:0:0:
64,192,32794,1,2,0:0:0:0:
192,192,32794,1,0,0:0:0:0:
192,192,32959,1,2,0:0:0:0:
448,192,32959,1,0,0:0:0:0:
320,192,33124,1,0,0:0:0:0:
64,192,33289,1,8,0:0:0:0:
192,192,33289,1,0,0:0:0:0:
448,192,33289,1,0,0:0:0:0:
320,192,33618,1,2,0:0:0:0:
448,192,33618,128,0,33948:0:0:0:0:
64,192,33783,1,8,0:0:0:0:
192,192,33783,1,0,0:0:0:0:
320,192,33783,1,0,0:0:0:0:
192,192,33948,128,0,34278:0:0:0:0:
64,192,34278,128,2,34607:0:0:0:0:
320,192,34278,1,0,0:0:0:0:
192,192,34443,1,8,0:0:0:0:
320,192,34443,1,0,0:0:0:0:
448,192,34443,1,0,0:0:0:0:
448,192,34607,128,0,34772:0:0:0:0:
64,192,34772,1,2,0:0:0:0:
192,192,34772,128,0,34937:0:0:0:0:
320,192,34937,128,0,35102:0:0:0:0:
64,192,35102,1,8,0:0:0:0:
192,192,35102,1,0,0:0:0:0:
448,192,35102,128,0,35267:0:0:0:0:
192,192,35267,128,0,35432:0:0:0:0:
64,192,35432,1,2,0:0:0:0:
448,192,35432,1,0,0:0:0:0:
320,192,35596,1,2,0:0:0:0:
448,192,35596,1,0,0:0:0:0:
192,192,35761,1,0,0:0:0:0:
64,192,35926,1,8,0:0:0:0:
320,192,35926,1,0,0:0:0:0:
448,192,35926,1,0,0:0:0:0:
192,192,36256,1,2,0:0:0:0:
448,192,36256,1,0,0:0:0:0:
64,192,36421,1,8,0:0:0:0:
192,192,36421,1,0,0:0:0:0:
320,192,36421,1,0,0:0:0:0:
64,192,36585,1,0,0:0:0:0:
448,192,36750,1,0,0:0:0:0:
64,192,36915,1,2,0:0:0:0:
192,192,36915,1,0,0:0:0:0:
192,192,37080,1,8,0:0:0:0:
320,192,37080,1,0,0:0:0:0:
448,192,37080,1,0,0:0:0:0:
448,192,37245,1,0,0:0:0:0:
64,192,37410,128,2,37739:0:0:0:0:
192,192,37410,1,4,0:0:0:0:
320,192,37410,1,0,0:0:0:0:
192,192,37739,1,8,0:0:0:0:
320,192,37739,128,0,37904:0:0:0:0:
448,192,37739,1,0,0:0:0:0:
192,192,37904,128,0,38234:0:0:0:0:
320,192,38069,1,2,0:0:0:0:
448,192,38069,1,0,0:0:0:0:
64,192,38234,1,2,0:0:0:0:
448,192,38234,128,0,38563:0:0:0:0:
64,192,38563,128,8,38893:0:0:0:0:
192,192,38563,1,0,0:0:0:0:
320,192,38563,1,0,0:0:0:0:
320,192,38893,1,2,0:0:0:0:
448,192,38893,1,0,0:0:0:0:
192,192,38934,1,0,0:0:0:0:
64,192,39058,1,8,0:0:0:0:
320,192,39058,128,0,39223:0:0:0:0:
448,192,39058,1,0,0:0:0:0:
192,192,39223,128,0,39388:0:0:0:0:
64,192,39388,128,0,39552:0:0:0:0:
320,192,39552,128,2,39717:0:0:0:0:
448,192,39552,1,0,0:0:0:0:
64,192,39717,128,8,39882:0:0:0:0:
192,192,39717,1,0,0:0:0:0:
448,192,39717,1,0,0:0:0:0:
448,192,39882,128,0,40047:0:0:0:0:
64,192,40047,1,2,0:0:0:0:
192,192,40047,128,0,40377:0:0:0:0:
64,192,40377,1,8,0:0:0:0:
320,192,40377,1,0,0:0:0:0:
448,192,40377,1,0,0:0:0:0:
448,192,40541,128,0,40706:0:0:0:0:
64,192,40706,1,2,0:0:0:0:
192,192,40706,1,0,0:0:0:0:
192,192,40871,1,2,0:0:0:0:
320,192,40871,1,0,0:0:0:0:
64,192,41036,1,8,0:0:0:0:
320,192,41036,1,0,0:0:0:0:
448,192,41036,1,0,0:0:0:0:
64,192,41201,1,4,0:0:0:0:
192,192,41201,1,2,0:0:0:0:
448,192,41201,1,0,0:0:0:0:
320,192,41283,1,0,0:0:0:0:
192,192,41366,1,0,0:0:0:0:
448,192,41448,1,0,0:0:0:0:
64,192,41530,1,2,0:0:0:0:
320,192,41530,1,0,0:0:0:0:
192,192,41613,1,0,0:0:0:0:
64,192,41695,1,8,0:0:0:0:
320,192,41695,1,0,0:0:0:0:
448,192,41695,1,0,0:0:0:0:
192,192,41778,1,0,0:0:0:0:
448,192,41860,1,0,0:0:0:0:
320,192,41943,1,0,0:0:0:0:
64,192,42025,1,2,0:0:0:0:
192,192,42025,1,0,0:0:0:0:
320,192,42190,1,8,0:0:0:0:
448,192,42190,1,0,0:0:0:0:
64,192,42272,1,8,0:0:0:0:
192,192,42272,1,0,0:0:0:0:
320,192,42355,1,8,0:0:0:0:
448,192,42355,1,0,0:0:0:0:
192,192,42519,1,8,0:0:0:0:
320,192,42519,1,0,0:0:0:0:
64,192,42684,1,2,0:0:0:0:
192,192,42684,1,4,0:0:0:0:
448,192,42684,128,0,43014:0:0:0:0:
64,192,43014,1,8,0:0:0:0:
192,192,43014,1,0,0:0:0:0:
320,192,43014,1,0,0:0:0:0:
448,192,43096,1,0,0:0:0:0:
64,192,43179,128,0,43344:0:0:0:0:
320,192,43344,1,2,0:0:0:0:
448,192,43344,1,0,0:0:0:0:
192,192,43508,1,2,0:0:0:0:
448,192,43508,1,0,0:0:0:0:
192,192,43673,1,0,0:0:0:0:
64,192,43838,1,8,0:0:0:0:
320,192,43838,1,0,0:0:0:0:
448,192,43838,128,0,44168:0:0:0:0:
64,192,44168,128,2,44497:0:0:0:0:
192,192,44168,1,0,0:0:0:0:
192,192,44333,1,8,0:0:0:0:
320,192,44333,1,0,0:0:0:0:
448,192,44333,1,0,0:0:0:0:
320,192,44497,128,0,44662:0:0:0:0:
448,192,44662,128,0,44827:0:0:0:0:
192,192,44827,128,2,44992:0:0:0:0:
320,192,44827,1,0,0:0:0:0:
64,192,44992,128,8,45157:0:0:0:0:
320,192,44992,1,0,0:0:0:0:
448,192,44992,1,0,0:0:0:0:
448,192,45157,128,0,45322:0:0:0:0:
64,192,45322,128,2,45651:0:0:0:0:
192,192,45322,1,4,0:0:0:0:
320,192,45322,1,0,0:0:0:0:
192,192,45651,1,8,0:0:0:0:
320,192,45651,128,0,45816:0:0:0:0:
448,192,45651,1,0,0:0:0:0:
192,192,45816,128,0,45981:0:0:0:0:
320,192,45981,1,2,0:0:0:0:
448,192,45981,1,0,0:0:0:0:
64,192,46146,1,2,0:0:0:0:
192,192,46146,1,4,0:0:0:0:
448,192,46146,1,0,0:0:0:0:
192,192,46311,1,8,0:0:0:0:
320,192,46311,1,0,0:0:0:0:
64,192,46476,1,2,0:0:0:0:
320,192,46476,128,4,46805:0:0:0:0:
448,192,46476,128,0,46805:0:0:0:0:
64,192,46805,1,2,0:0:0:0:
192,192,46805,1,0,0:0:0:0:
64,192,46970,1,8,0:0:0:0:
320,192,46970,128,0,47135:0:0:0:0:
448,192,46970,1,0,0:0:0:0:
192,192,47300,128,0,47465:0:0:0:0:
320,192,47465,1,2,0:0:0:0:
448,192,47465,1,0,0:0:0:0:
64,192,47629,128,8,47794:0:0:0:0:
192,192,47629,1,0,0:0:0:0:
448,192,47629,1,0,0:0:0:0:
192,192,47959,1,2,0:0:0:0:
320,192,47959,1,4,0:0:0:0:
448,192,47959,128,0,48289:0:0:0:0:
64,192,48289,1,8,0:0:0:0:
192,192,48289,128,0,48454:0:0:0:0:
320,192,48289,1,0,0:0:0:0:
320,192,48454,128,0,48618:0:0:0:0:
64,192,48618,1,2,0:0:0:0:
448,192,48618,1,0,0:0:0:0:
64,192,48783,128,2,49113:0:0:0:0:
192,192,48783,1,0,0:0:0:0:
192,192,49113,1,8,0:0:0:0:
320,192,49113,1,0,0:0:0:0:
448,192,49113,128,0,49443:0:0:0:0:
64,192,49443,1,2,0:0:0:0:
320,192,49443,1,0,0:0:0:0:
64,192,49607,1,8,0:0:0:0:
192,192,49607,1,0,0:0:0:0:
448,192,49607,1,0,0:0:0:0:
192,192,49772,128,0,50102:0:0:0:0:
320,192,50102,1,2,0:0:0:0:
448,192,50102,128,0,50432:0:0:0:0:
64,192,50267,1,8,0:0:0:0:
192,192,50267,1,0,0:0:0:0:
320,192,50267,1,0,0:0:0:0:
64,192,50432,128,0,50596:0:0:0:0:
192,192,50596,128,2,50926:0:0:0:0:
448,192,50596,1,0,0:0:0:0:
320,192,50926,1,8,0:0:0:0:
448,192,50926,1,0,0:0:0:0:
192,192,51008,1,0,0:0:0:0:
64,192,51091,1,0,0:0:0:0:
320,192,51173,1,0,0:0:0:0:
64,192,51256,1,2,0:0:0:0:
192,192,51256,1,0,0:0:0:0:
448,192,51338,1,0,0:0:0:0:
192,192,51421,1,2,0:0:0:0:
320,192,51421,1,0,0:0:0:0:
64,192,51503,1,0,0:0:0:0:
320,192,51585,1,8,0:0:0:0:
448,192,51585,1,0,0:0:0:0:
192,192,51668,1,0,0:0:0:0:
64,192,51750,1,2,0:0:0:0:
320,192,51750,1,4,0:0:0:0:
448,192,51750,1,0,0:0:0:0:
192,192,51833,1,0,0:0:0:0:
320,192,51915,1,0,0:0:0:0:
448,192,51997,1,0,0:0:0:0:
64,192,52080,1,2,0:0:0:0:
192,192,52080,1,0,0:0:0:0:
320,192,52162,1,0,0:0:0:0:
64,192,52245,128,8,52574:0:0:0:0:
192,192,52245,128,0,52574:0:0:0:0:
448,192,52245,1,0,0:0:0:0:
320,192,52574,1,2,0:0:0:0:
448,192,52574,1,0,0:0:0:0:
64,192,52739,1,8,0:0:0:0:
192,192,52739,1,0,0:0:0:0:
320,192,52822,1,8,0:0:0:0:
448,192,52822,1,0,0:0:0:0:
64,192,52904,1,8,0:0:0:0:
192,192,52904,1,0,0:0:0:0:
192,192,53069,1,8,0:0:0:0:
320,192,53069,1,0,0:0:0:0:
64,192,53151,1,0,0:0:0:0:
320,192,53234,1,2,0:0:0:0:
448,192,53234,128,0,53893:0:0:0:0:
64,192,53563,1,2,0:0:0:0:
320,192,53563,1,0,0:0:0:0:
192,192,53893,128,2,54223:0:0:0:0:
320,192,53893,1,0,0:0:0:0:
448,192,54058,1,0,0:0:0:0:
64,192,54223,128,2,54552:0:0:0:0:
320,192,54223,1,0,0:0:0:0:
192,192,54388,1,0,0:0:0:0:
320,192,54552,1,2,0:0:0:0:
448,192,54552,128,0,54882:0:0:0:0:
64,192,54717,1,0,0:0:0:0:
192,192,54882,1,2,0:0:0:0:
320,192,54882,128,0,55212:0:0:0:0:
448,192,55047,1,0,0:0:0:0:
64,192,55212,128,2,55541:0:0:0:0:
192,192,55212,1,0,0:0:0:0:
320,192,55377,1,0,0:0:0:0:
192,192,55541,128,2,55871:0:0:0:0:
448,192,55541,1,0,0:0:0:0:
320,192,55706,1,0,0:0:0:0:
64,192,55871,1,2,0:0:0:0:
448,192,55871,128,0,56201:0:0:0:0:
192,192,56036,1,0,0:0:0:0:
64,192,56201,1,2,0:0:0:0:
320,192,56201,128,0,56530:0:0:0:0:
448,192,56366,1,0,0:0:0:0:
64,192,56530,128,2,56860:0:0:0:0:
192,192,56530,1,0,0:0:0:0:
320,192,56695,1,0,0:0:0:0:
192,192,56860,1,2,0:0:0:0:
448,192,56860,128,0,57190:0:0:0:0:
64,192,57025,1,0,0:0:0:0:
192,192,57190,128,2,57519:0:0:0:0:
320,192,57190,1,0,0:0:0:0:
448,192,57355,1,0,0:0:0:0:
64,192,57519,1,2,0:0:0:0:
320,192,57519,1,0,0:0:0:0:
192,192,57684,1,0,0:0:0:0:
320,192,57849,1,2,0:0:0:0:
448,192,57849,1,0,0:0:0:0:
64,192,58014,1,0,0:0:0:0:
192,192,58179,128,2,58508:0:0:0:0:
448,192,58179,1,0,0:0:0:0:
320,192,58344,1,0,0:0:0:0:
64,192,58508,1,2,0:0:0:0:
320,192,58508,128,0,58838:0:0:0:0:
448,192,58508,1,0,0:0:0:0:
64,192,58673,1,0,0:0:0:0:
192,192,58838,1,2,0:0:0:0:
448,192,58838,128,0,59168:0:0:0:0:
320,192,59003,1,0,0:0:0:0:
64,192,59168,128,2,59497:0:0:0:0:
192,192,59168,1,0,0:0:0:0:
448,192,59333,1,0,0:0:0:0:
192,192,59497,128,2,59827:0:0:0:0:
320,192,59497,1,0,0:0:0:0:
64,192,59662,1,0,0:0:0:0:
320,192,59827,128,2,60487:0:0:0:0:
448,192,59827,1,0,0:0:0:0:
192,192,59992,1,0,0:0:0:0:
64,192,60157,1,2,0:0:0:0:
448,192,60157,1,0,0:0:0:0:
192,192,60322,1,0,0:0:0:0:
64,192,60487,1,2,0:0:0:0:
448,192,60487,128,0,61146:0:0:0:0:
320,192,60651,1,0,0:0:0:0:
64,192,60816,1,2,0:0:0:0:
192,192,60816,1,0,0:0:0:0:
320,192,60981,1,0,0:0:0:0:
64,192,61146,1,4,0:0:0:0:
192,192,61146,1,2,0:0:0:0:
320,192,61146,1,0,0:0:0:0:
64,192,61310,1,0,0:0:0:0:
192,192,61393,1,0,0:0:0:0:
320,192,61475,1,2,0:0:0:0:
448,192,61475,1,0,0:0:0:0:
192,192,61558,1,0,0:0:0:0:
64,192,61640,1,8,0:0:0:0:
448,192,61640,1,0,0:0:0:0:
320,192,61722,1,0,0:0:0:0:
192,192,61805,1,0,0:0:0:0:
448,192,61887,1,0,0:0:0:0:
64,192,61970,1,8,0:0:0:0:
192,192,61970,1,0,0:0:0:0:
320,192,62052,1,0,0:0:0:0:
64,192,62135,1,2,0:0:0:0:
448,192,62135,1,0,0:0:0:0:
192,192,62217,1,0,0:0:0:0:
320,192,62299,1,8,0:0:0:0:
448,192,62299,1,0,0:0:0:0:
64,192,62382,1,0,0:0:0:0:
192,192,62464,1,2,0:0:0:0:
448,192,62464,1,0,0:0:0:0:
320,192,62547,1,0,0:0:0:0:
64,192,62629,1,8,0:0:0:0:
192,192,62629,1,0,0:0:0:0:
448,192,62711,1,0,0:0:0:0:
320,192,62794,1,0,0:0:0:0:
192,192,62876,1,0,0:0:0:0:
64,192,62959,1,8,0:0:0:0:
448,192,62959,1,0,0:0:0:0:
320,192,63041,1,0,0:0:0:0:
64,192,63124,1,2,0:0:0:0:
192,192,63124,1,0,0:0:0:0:
320,192,63206,1,0,0:0:0:0:
192,192,63288,1,8,0:0:0:0:
448,192,63288,1,0,0:0:0:0:
64,192,63371,1,0,0:0:0:0:
320,192,63453,1,2,0:0:0:0:
448,192,63453,1,0,0:0:0:0:
192,192,63536,1,0,0:0:0:0:
64,192,63618,1,8,0:0:0:0:
448,192,63618,1,0,0:0:0:0:
320,192,63700,1,0,0:0:0:0:
192,192,63783,1,0,0:0:0:0:
448,192,63865,1,0,0:0:0:0:
64,192,63948,1,8,0:0:0:0:
192,192,63948,1,0,0:0:0:0:
320,192,64030,1,0,0:0:0:0:
64,192,64113,1,2,0:0:0:0:
448,192,64113,1,0,0:0:0:0:
192,192,64195,1,0,0:0:0:0:
320,192,64277,1,8,0:0:0:0:
448,192,64277,1,0,0:0:0:0:
64,192,64360,1,0,0:0:0:0:
192,192,64442,1,2,0:0:0:0:
320,192,64442,1,0,0:0:0:0:
448,192,64525,1,0,0:0:0:0:
64,192,64607,1,8,0:0:0:0:
192,192,64607,1,0,0:0:0:0:
320,192,64689,1,0,0:0:0:0:
192,192,64772,1,0,0:0:0:0:
64,192,64854,1,0,0:0:0:0:
320,192,64937,1,8,0:0:0:0:
448,192,64937,1,0,0:0:0:0:
192,192,65019,1,0,0:0:0:0:
64,192,65102,1,2,0:0:0:0:
320,192,65102,1,4,0:0:0:0:
448,192,65102,1,0,0:0:0:0:
448,192,65266,1,0,0:0:0:0:
320,192,65349,1,0,0:0:0:0:
64,192,65431,1,2,0:0:0:0:
192,192,65431,1,0,0:0:0:0:
448,192,65514,1,0,0:0:0:0:
64,192,65596,1,8,0:0:0:0:
192,192,65596,1,0,0:0:0:0:
448,192,65678,1,0,0:0:0:0:
192,192,65761,1,0,0:0:0:60:tom01.wav
320,192,65761,1,0,0:0:0:0:
64,192,65843,1,0,0:0:0:0:
320,192,65926,1,0,0:0:0:60:tom02.wav
448,192,65926,1,0,0:0:0:0:
192,192,66008,1,0,0:0:0:0:
64,192,66091,1,2,0:0:0:0:
320,192,66091,1,0,0:0:0:60:tom04.wav
192,192,66173,1,0,0:0:0:0:
64,192,66255,1,8,0:0:0:0:
448,192,66255,1,0,0:0:0:0:
320,192,66338,1,0,0:0:0:0:
192,192,66420,1,0,0:0:0:60:tom03.wav
448,192,66420,1,0,0:0:0:0:
320,192,66503,1,0,0:0:0:0:
64,192,66585,128,2,67368:0:0:0:0:
192,192,66585,1,4,0:0:0:0:
448,192,66585,1,0,0:0:0:0:
320,192,66750,1,0,0:0:0:0:
448,192,66832,1,0,0:0:0:0:
320,192,66915,1,0,0:0:0:0:
192,192,66997,128,0,67368:0:0:0:0:
448,192,67368,1,0,0:0:0:0:
320,192,67450,1,0,0:0:0:0:
448,192,67533,1,0,0:0:0:0:
320,192,67615,1,0,0:0:0:0:
448,192,67698,1,0,0:0:0:0:
320,192,67780,1,0,0:0:0:0:
448,192,67862,1,0,0:0:0:0:
64,192,67904,128,0,68069:0:0:0:0:
320,192,68069,128,0,68233:0:0:0:0:
448,192,68233,128,0,68398:0:0:0:0:
64,192,68398,1,2,0:0:0:0:
192,192,68398,1,4,0:1:0:0:
320,192,68398,1,0,0:0:0:0:
448,192,68563,1,0,0:0:0:0:
320,192,68645,1,0,0:0:0:0:
64,192,68728,1,8,0:0:0:0:
192,192,68728,1,0,0:0:0:0:
448,192,68728,1,0,0:0:0:0:
64,192,68893,1,0,0:0:0:0:
192,192,68975,1,0,0:0:0:0:
320,192,69058,1,2,0:0:0:0:
448,192,69058,1,0,0:0:0:0:
192,192,69222,1,0,0:0:0:0:
64,192,69305,1,0,0:0:0:0:
192,192,69387,1,8,0:0:0:0:
320,192,69387,1,0,0:0:0:0:
448,192,69387,1,0,0:0:0:0:
320,192,69552,1,0,0:0:0:0:
448,192,69634,1,0,0:0:0:0:
64,192,69717,1,2,0:0:0:0:
192,192,69717,1,0,0:0:0:0:
448,192,69882,1,0,0:0:0:0:
320,192,69964,1,0,0:0:0:0:
64,192,70047,1,8,0:0:0:0:
192,192,70047,1,0,0:0:0:0:
448,192,70047,1,0,0:0:0:0:
192,192,70211,1,0,0:0:0:0:
320,192,70294,1,0,0:0:0:0:
64,192,70376,1,2,0:0:0:0:
448,192,70376,1,0,0:0:0:0:
320,192,70541,1,0,0:0:0:0:
192,192,70623,1,0,0:0:0:0:
64,192,70706,1,8,0:0:0:0:
320,192,70706,1,0,0:0:0:0:
448,192,70706,1,0,0:0:0:0:
192,192,70788,1,0,0:0:0:0:
64,192,70871,1,0,0:0:0:0:
320,192,70953,1,0,0:0:0:0:
192,192,71036,1,2,0:0:0:0:
448,192,71036,1,0,0:0:0:0:
64,192,71118,1,0,0:0:0:0:
320,192,71200,1,0,0:0:0:0:
448,192,71283,1,0,0:0:0:0:
64,192,71365,1,8,0:0:0:0:
192,192,71365,1,0,0:0:0:0:
320,192,71365,1,0,0:0:0:0:
192,192,71530,1,0,0:0:0:0:
64,192,71612,1,0,0:0:0:0:
320,192,71695,1,2,0:0:0:0:
448,192,71695,1,0,0:0:0:0:
192,192,71860,1,0,0:0:0:0:
320,192,71942,1,0,0:0:0:0:
64,192,72025,1,8,0:0:0:0:
192,192,72025,1,0,0:0:0:0:
448,192,72025,1,0,0:0:0:0:
320,192,72189,1,0,0:0:0:0:
448,192,72272,1,0,0:0:0:0:
64,192,72354,1,2,0:0:0:0:
192,192,72354,1,0,0:0:0:0:
320,192,72519,1,0,0:0:0:0:
192,192,72601,1,0,0:0:0:0:
64,192,72684,1,8,0:0:0:0:
320,192,72684,1,0,0:0:0:0:
448,192,72684,1,0,0:0:0:0:
448,192,72849,1,0,0:0:0:0:
320,192,72931,1,0,0:0:0:0:
64,192,73014,1,2,0:0:0:0:
192,192,73014,1,0,0:0:0:0:
320,192,73178,1,0,0:0:0:0:
448,192,73261,1,0,0:0:0:0:
64,192,73343,1,8,0:0:0:0:
192,192,73343,1,0,0:0:0:0:
320,192,73343,1,0,0:0:0:0:
64,192,73508,1,0,0:0:0:0:
192,192,73590,1,0,0:0:0:0:
64,192,73673,1,2,0:0:0:0:
320,192,73673,1,4,0:0:0:0:
448,192,73673,1,0,0:0:0:0:
192,192,73755,1,0,0:0:0:0:
320,192,73838,1,0,0:0:0:0:
448,192,73920,1,0,0:0:0:0:
64,192,74003,1,8,0:0:0:0:
192,192,74003,1,0,0:0:0:0:
320,192,74003,1,0,0:0:0:0:
448,192,74167,1,0,0:0:0:0:
320,192,74250,1,0,0:0:0:0:
64,192,74332,1,2,0:0:0:0:
192,192,74332,1,0,0:0:0:0:
320,192,74497,1,0,0:0:0:0:
192,192,74580,1,0,0:0:0:0:
64,192,74662,1,8,0:0:0:0:
320,192,74662,1,0,0:0:0:0:
448,192,74662,1,0,0:0:0:0:
192,192,74827,1,0,0:0:0:0:
320,192,74909,1,0,0:0:0:0:
64,192,74992,1,2,0:0:0:0:
448,192,74992,1,0,0:0:0:0:
192,192,75074,1,0,0:0:0:0:
64,192,75156,1,0,0:0:0:0:
320,192,75239,1,0,0:0:0:0:
64,192,75321,1,8,0:0:0:0:
192,192,75321,1,0,0:0:0:0:
448,192,75321,1,0,0:0:0:0:
320,192,75404,1,0,0:0:0:0:
448,192,75486,1,0,0:0:0:0:
192,192,75569,1,0,0:0:0:0:
64,192,75651,1,2,0:0:0:0:
320,192,75651,1,0,0:0:0:0:
448,192,75733,1,0,0:0:0:0:
192,192,75816,1,0,0:0:0:0:
64,192,75898,1,0,0:0:0:0:
192,192,75981,1,8,0:0:0:0:
320,192,75981,1,0,0:0:0:0:
448,192,75981,1,0,0:0:0:0:
64,192,76063,1,0,0:0:0:0:
320,192,76145,1,0,0:0:0:0:
192,192,76228,1,0,0:0:0:0:
64,192,76310,1,2,0:0:0:0:
448,192,76310,1,0,0:0:0:0:
320,192,76393,1,0,0:0:0:0:
192,192,76475,1,0,0:0:0:0:
448,192,76558,1,0,0:0:0:0:
64,192,76640,1,8,0:0:0:0:
192,192,76640,1,0,0:0:0:0:
320,192,76640,1,0,0:0:0:0:
448,192,76722,1,0,0:0:0:0:
64,192,76805,1,0,0:0:0:0:
192,192,76887,1,0,0:0:0:0:
320,192,76970,1,2,0:0:0:0:
448,192,76970,1,0,0:0:0:0:
64,192,77052,1,0,0:0:0:0:
192,192,77134,1,0,0:0:0:0:
320,192,77217,1,0,0:0:0:0:
64,192,77299,1,8,0:0:0:0:
192,192,77299,1,0,0:0:0:0:
448,192,77299,1,0,0:0:0:0:
320,192,77382,1,0,0:0:0:0:
64,192,77464,1,0,0:0:0:0:
192,192,77547,1,0,0:0:0:0:
64,192,77629,1,2,0:0:0:0:
320,192,77629,1,4,0:0:0:0:
448,192,77629,1,0,0:0:0:0:
320,192,77794,1,2,0:0:0:0:
448,192,77794,1,0,0:0:0:0:
64,192,77959,1,8,0:0:0:0:
192,192,77959,1,0,0:0:0:0:
448,192,77959,1,0,0:0:0:0:
64,192,78123,1,4,0:0:0:0:
192,192,78123,1,2,0:0:0:0:
320,192,78123,1,0,0:0:0:0:
320,192,78453,1,2,0:0:0:0:
448,192,78453,1,0,0:0:0:0:
64,192,78536,1,0,0:0:0:0:
192,192,78536,1,0,0:0:0:0:
320,192,78618,1,8,0:0:0:0:
448,192,78618,1,0,0:0:0:0:
192,192,78783,1,0,0:0:0:0:
320,192,78783,1,0,0:0:0:0:
64,192,78948,1,4,0:0:0:0:
192,192,78948,1,2,0:0:0:0:
448,192,78948,1,0,0:0:0:0:
320,192,79112,1,0,0:0:0:0:
448,192,79195,1,0,0:0:0:0:
64,192,79277,1,8,0:0:0:0:
192,192,79277,1,0,0:0:0:0:
320,192,79277,1,0,0:0:0:0:
192,192,79442,1,0,0:0:0:0:
320,192,79525,1,0,0:0:0:0:
64,192,79607,1,2,0:0:0:0:
448,192,79607,1,0,0:0:0:0:
192,192,79772,1,0,0:0:0:0:
64,192,79854,1,0,0:0:0:0:
192,192,79937,1,8,0:0:0:0:
320,192,79937,1,0,0:0:0:0:
448,192,79937,1,0,0:0:0:0:
448,192,80101,1,0,0:0:0:0:
320,192,80184,1,0,0:0:0:0:
64,192,80266,1,2,0:0:0:0:
192,192,80266,1,0,0:0:0:0:
320,192,80431,1,0,0:0:0:0:
192,192,80514,1,0,0:0:0:0:
64,192,80596,1,8,0:0:0:0:
320,192,80596,1,0,0:0:0:0:
448,192,80596,1,0,0:0:0:0:
448,192,80761,1,0,0:0:0:0:
320,192,80843,1,0,0:0:0:0:
64,192,80926,1,2,0:0:0:0:
192,192,80926,1,0,0:0:0:0:
320,192,81090,1,0,0:0:0:0:
448,192,81173,1,0,0:0:0:0:
64,192,81255,1,8,0:0:0:0:
192,192,81255,1,0,0:0:0:0:
320,192,81255,1,0,0:0:0:0:
448,192,81338,1,0,0:0:0:0:
192,192,81420,1,0,0:0:0:0:
320,192,81503,1,0,0:0:0:0:
64,192,81585,1,2,0:0:0:0:
448,192,81585,1,0,0:0:0:0:
192,192,81667,1,0,0:0:0:0:
320,192,81750,1,0,0:0:0:0:
448,192,81832,1,0,0:0:0:0:
64,192,81915,1,8,0:0:0:0:
192,192,81915,1,0,0:0:0:0:
320,192,81915,1,0,0:0:0:0:
192,192,82080,1,0,0:0:0:0:
320,192,82162,1,0,0:0:0:0:
64,192,82244,1,2,0:0:0:0:
448,192,82244,1,0,0:0:0:0:
192,192,82409,1,0,0:0:0:0:
64,192,82492,1,0,0:0:0:0:
192,192,82574,1,8,0:0:0:0:
320,192,82574,1,0,0:0:0:0:
448,192,82574,1,0,0:0:0:0:
448,192,82739,1,0,0:0:0:0:
320,192,82821,1,0,0:0:0:0:
64,192,82904,1,2,0:0:0:0:
192,192,82904,1,0,0:0:0:0:
320,192,83069,1,0,0:0:0:0:
192,192,83151,1,0,0:0:0:0:
64,192,83233,1,8,0:0:0:0:
320,192,83233,1,0,0:0:0:0:
448,192,83233,1,0,0:0:0:0:
64,192,83398,1,0,0:0:0:0:
192,192,83481,1,0,0:0:0:0:
320,192,83563,1,2,0:0:0:0:
448,192,83563,1,0,0:0:0:0:
320,192,83728,1,0,0:0:0:0:
192,192,83810,1,0,0:0:0:0:
64,192,83893,1,8,0:0:0:0:
320,192,83893,1,0,0:0:0:0:
448,192,83893,1,0,0:0:0:0:
192,192,84058,1,0,0:0:0:0:
320,192,84140,1,0,0:0:0:0:
64,192,84222,1,4,0:0:0:0:
192,192,84222,1,2,0:0:0:0:
448,192,84222,1,0,0:0:0:0:
320,192,84305,1,0,0:0:0:0:
448,192,84387,1,0,0:0:0:0:
64,192,84470,1,0,0:0:0:0:
192,192,84552,1,8,0:0:0:0:
320,192,84552,1,0,0:0:0:0:
448,192,84552,1,0,0:0:0:0:
64,192,84634,1,0,0:0:0:0:
320,192,84717,1,0,0:0:0:0:
192,192,84799,1,0,0:0:0:0:
64,192,84882,1,2,0:0:0:0:
448,192,84882,1,0,0:0:0:0:
320,192,84964,1,0,0:0:0:0:
192,192,85047,1,0,0:0:0:0:
448,192,85129,1,0,0:0:0:0:
64,192,85211,1,8,0:0:0:0:
192,192,85211,1,0,0:0:0:0:
320,192,85211,1,0,0:0:0:0:
448,192,85294,1,0,0:0:0:0:
64,192,85376,1,0,0:0:0:0:
192,192,85459,1,0,0:0:0:0:
320,192,85541,1,2,0:0:0:0:
448,192,85541,1,0,0:0:0:0:
192,192,85623,1,0,0:0:0:0:
320,192,85706,1,0,0:0:0:0:
64,192,85788,1,0,0:0:0:0:
192,192,85871,1,8,0:0:0:0:
320,192,85871,1,0,0:0:0:0:
448,192,85871,1,0,0:0:0:0:
64,192,85953,1,0,0:0:0:0:
448,192,86036,1,0,0:0:0:0:
320,192,86118,1,0,0:0:0:0:
64,192,86200,1,2,0:0:0:0:
192,192,86200,1,0,0:0:0:0:
448,192,86283,1,0,0:0:0:0:
320,192,86365,1,0,0:0:0:0:
192,192,86448,1,0,0:0:0:0:
64,192,86530,1,8,0:0:0:0:
320,192,86530,1,0,0:0:0:0:
448,192,86530,1,0,0:0:0:0:
192,192,86612,1,0,0:0:0:0:
448,192,86695,1,0,0:0:0:0:
320,192,86777,1,0,0:0:0:0:
64,192,86860,1,4,0:0:0:0:
192,192,86860,1,2,0:0:0:0:
448,192,86860,1,0,0:0:0:0:
64,192,87025,1,2,0:0:0:0:
192,192,87025,1,0,0:0:0:0:
192,192,87189,1,8,0:0:0:0:
320,192,87189,1,0,0:0:0:0:
448,192,87189,1,0,0:0:0:0:
64,192,87354,1,2,0:0:0:0:
320,192,87354,1,4,0:0:0:0:
448,192,87354,1,0,0:0:0:0:
64,192,87684,1,2,0:0:0:0:
320,192,87684,1,4,0:0:0:0:
448,192,87684,1,0,0:0:0:0:
64,192,88014,1,4,0:0:0:0:
192,192,88014,1,2,0:0:0:0:
448,192,88014,128,0,88508:0:0:0:0:
64,192,88508,128,0,88838:0:0:0:0:
320,192,88838,128,0,89167:0:0:0:0:
192,192,89167,128,0,89497:0:0:0:0:
64,192,89497,1,2,0:0:0:0:
320,192,89497,1,4,0:0:0:0:
448,192,89497,1,0,0:0:0:0:
320,192,89662,1,2,0:0:0:0:
448,192,89662,1,0,0:0:0:0:
64,192,89827,1,8,0:0:0:0:
192,192,89827,1,0,0:0:0:0:
448,192,89827,1,0,0:0:0:0:
64,192,89992,1,2,0:0:0:0:
192,192,89992,1,4,0:0:0:0:
320,192,89992,1,0,0:0:0:0:
192,192,90321,1,0,0:0:0:0:
320,192,90404,1,0,0:0:0:0:
192,192,90486,1,0,0:0:0:0:
320,192,90569,1,0,0:0:0:0:
192,192,90651,1,0,0:0:0:0:
320,192,90733,1,0,0:0:0:0:
64,192,90816,1,2,0:0:0:0:
192,192,90816,1,4,0:0:0:0:
448,192,90816,1,0,0:0:0:0:
64,192,91145,1,8,0:0:0:0:
320,192,91145,1,0,0:0:0:0:
448,192,91145,1,0,0:0:0:0:
192,192,91228,1,0,0:0:0:0:
320,192,91310,1,0,0:0:0:0:
64,192,91393,1,0,0:0:0:0:
192,192,91475,1,2,0:0:0:0:
448,192,91475,1,0,0:0:0:0:
320,192,91558,1,0,0:0:0:0:
64,192,91640,1,2,0:0:0:0:
192,192,91640,1,0,0:0:0:0:
448,192,91722,1,0,0:0:0:0:
320,192,91805,1,0,0:0:0:0:
192,192,91887,1,0,0:0:0:0:
64,192,91970,1,8,0:0:0:0:
320,192,91970,1,0,0:0:0:0:
448,192,91970,1,0,0:0:0:0:
320,192,92134,1,0,0:0:0:0:
64,192,92299,1,2,0:0:0:0:
192,192,92299,1,0,0:0:0:0:
64,192,92464,1,8,0:0:0:0:
320,192,92464,1,0,0:0:0:0:
448,192,92464,1,0,0:0:0:0:
192,192,92547,1,0,0:0:0:0:
448,192,92629,1,0,0:0:0:0:
320,192,92711,1,0,0:0:0:0:
64,192,92794,1,0,0:0:0:0:
192,192,92876,1,0,0:0:0:0:
320,192,92959,1,2,0:0:0:0:
448,192,92959,1,0,0:0:0:0:
64,192,93041,1,0,0:0:0:0:
192,192,93123,1,8,0:0:0:0:
320,192,93123,1,0,0:0:0:0:
448,192,93123,1,0,0:0:0:0:
192,192,93288,1,0,0:0:0:0:
64,192,93453,1,2,0:0:0:0:
320,192,93453,1,0,0:0:0:0:
448,192,93618,1,0,0:0:0:0:
320,192,93700,1,0,0:0:0:0:
64,192,93783,1,8,0:0:0:0:
192,192,93783,1,0,0:0:0:0:
448,192,93783,1,0,0:0:0:0:
320,192,93865,1,0,0:0:0:0:
64,192,93948,1,0,0:0:0:0:
192,192,94030,1,0,0:0:0:0:
320,192,94112,1,2,0:0:0:0:
448,192,94112,1,0,0:0:0:0:
64,192,94195,1,0,0:0:0:0:
192,192,94277,1,2,0:0:0:0:
320,192,94277,1,0,0:0:0:0:
448,192,94360,1,0,0:0:0:0:
64,192,94442,1,0,0:0:0:0:
192,192,94525,1,0,0:0:0:0:
64,192,94607,1,8,0:0:0:0:
320,192,94607,1,0,0:0:0:0:
448,192,94607,1,0,0:0:0:0:
320,192,94772,1,0,0:0:0:0:
64,192,94937,1,2,0:0:0:0:
192,192,94937,1,0,0:0:0:0:
448,192,95019,1,0,0:0:0:0:
64,192,95101,1,8,0:0:0:0:
192,192,95101,1,0,0:0:0:0:
320,192,95101,1,0,0:0:0:0:
448,192,95184,1,0,0:0:0:0:
192,192,95266,1,0,0:0:0:0:
320,192,95349,1,0,0:0:0:0:
448,192,95431,1,0,0:0:0:0:
64,192,95514,1,0,0:0:0:0:
192,192,95596,1,2,0:0:0:0:
448,192,95596,1,0,0:0:0:0:
320,192,95678,1,0,0:0:0:0:
64,192,95761,1,8,0:0:0:0:
192,192,95761,1,0,0:0:0:0:
448,192,95761,1,0,0:0:0:0:
320,192,95843,1,0,0:0:0:0:
64,192,95926,1,0,0:0:0:0:
192,192,96008,1,0,0:0:0:0:
64,192,96090,1,2,0:0:0:0:
320,192,96090,1,4,0:0:0:0:
448,192,96090,1,0,0:0:0:0:
64,192,96420,1,8,0:0:0:0:
192,192,96420,1,0,0:0:0:0:
320,192,96420,1,0,0:0:0:0:
448,192,96503,1,0,0:0:0:0:
192,192,96585,1,0,0:0:0:0:
320,192,96667,1,0,0:0:0:0:
64,192,96750,1,2,0:0:0:0:
448,192,96750,1,0,0:0:0:0:
192,192,96832,1,0,0:0:0:0:
64,192,96915,1,2,0:0:0:0:
320,192,96915,1,0,0:0:0:0:
448,192,96997,1,0,0:0:0:0:
192,192,97080,1,0,0:0:0:0:
64,192,97162,1,0,0:0:0:0:
192,192,97244,1,8,0:0:0:0:
320,192,97244,1,0,0:0:0:0:
448,192,97244,1,0,0:0:0:0:
320,192,97409,1,0,0:0:0:0:
64,192,97574,1,2,0:0:0:0:
448,192,97574,1,0,0:0:0:0:
192,192,97656,1,0,0:0:0:0:
64,192,97739,1,8,0:0:0:0:
320,192,97739,1,0,0:0:0:0:
448,192,97739,1,0,0:0:0:0:
192,192,97821,1,0,0:0:0:0:
448,192,97904,1,0,0:0:0:0:
320,192,97986,1,0,0:0:0:0:
192,192,98069,1,0,0:0:0:0:
64,192,98151,1,0,0:0:0:0:
320,192,98233,1,2,0:0:0:0:
448,192,98233,1,0,0:0:0:0:
192,192,98316,1,0,0:0:0:0:
64,192,98398,1,8,0:0:0:0:
320,192,98398,1,0,0:0:0:0:
448,192,98398,1,0,0:0:0:0:
64,192,98563,1,0,0:0:0:0:
192,192,98728,1,2,0:0:0:0:
320,192,98728,1,4,0:0:0:0:
448,192,98728,1,0,0:0:0:0:
320,192,98893,1,2,0:0:0:0:
448,192,98893,1,0,0:0:0:0:
64,192,99058,1,8,0:0:0:0:
192,192,99058,1,0,0:0:0:0:
448,192,99058,1,0,0:0:0:0:
64,192,99222,1,2,0:0:0:0:
192,192,99222,1,4,0:0:0:0:
320,192,99222,1,0,0:0:0:0:
192,192,99552,1,2,0:0:0:0:
320,192,99552,1,4,0:0:0:0:
448,192,99552,1,0,0:0:0:0:
64,192,99882,1,4,0:0:0:0:
192,192,99882,1,2,0:0:0:0:
320,192,99882,1,0,0:0:0:0:
448,192,99882,1,0,0:0:0:0:
192,192,100376,128,0,101200:0:0:0:0:
320,192,100706,128,0,101200:0:0:0:0:
448,192,101036,128,0,101200:0:0:0:0:
192,192,101365,1,4,0:0:0:0:
320,192,101365,128,2,101695:0:0:0:0:
448,192,101365,128,0,101860:0:0:0:0:
64,192,101695,128,0,102189:0:0:0:0:
192,192,101860,128,0,102189:0:0:0:0:
64,192,102354,1,8,0:0:0:0:
192,192,102354,1,0,0:0:0:0:
448,192,102354,1,0,0:0:0:0:
64,192,102519,1,2,0:0:0:0:
320,192,102519,1,4,0:0:0:0:
448,192,102519,1,0,0:0:0:0:
320,192,102849,128,0,103178:0:0:0:0:
192,192,103014,128,0,103343:0:0:0:0:
448,192,103178,128,0,103508:0:0:0:0:
320,192,103343,128,0,103508:0:0:0:0:
64,192,103508,1,2,0:0:0:0:
192,192,103508,1,0,0:0:0:0:
64,192,103673,1,8,0:0:0:0:
192,192,103673,1,0,0:0:0:0:
448,192,103673,1,0,0:0:0:0:
320,192,103838,1,0,0:0:0:0:
192,192,103920,1,0,0:0:0:0:
64,192,104003,1,2,0:0:0:0:
320,192,104003,1,0,0:0:0:0:
448,192,104003,128,0,104332:0:0:0:0:
64,192,104332,128,8,104497:0:0:0:0:
192,192,104332,1,0,0:0:0:0:
320,192,104332,1,0,0:0:0:0:
320,192,104497,128,0,104662:0:0:0:0:
64,192,104662,1,2,0:0:0:0:
448,192,104662,1,0,0:0:0:0:
64,192,104827,1,2,0:0:0:0:
192,192,104827,1,0,0:0:0:0:
320,192,104992,1,0,0:0:0:0:
64,192,105156,1,8,0:0:0:0:
192,192,105156,1,0,0:0:0:0:
448,192,105156,1,0,0:0:0:0:
64,192,105486,1,2,0:0:0:0:
320,192,105486,1,0,0:0:0:0:
192,192,105651,1,8,0:0:0:0:
320,192,105651,1,0,0:0:0:0:
448,192,105651,1,0,0:0:0:0:
448,192,105816,1,0,0:0:0:0:
64,192,105981,1,0,0:0:0:0:
192,192,106145,1,2,0:0:0:0:
448,192,106145,1,0,0:0:0:0:
64,192,106310,1,8,0:0:0:0:
192,192,106310,1,0,0:0:0:0:
320,192,106310,1,0,0:0:0:0:
64,192,106475,1,0,0:0:0:0:
192,192,106640,1,2,0:0:0:0:
320,192,106640,1,4,0:0:0:0:
448,192,106640,128,0,106970:0:0:0:0:
64,192,106970,1,8,0:0:0:0:
192,192,106970,128,0,107134:0:0:0:0:
320,192,106970,1,0,0:0:0:0:
320,192,107134,128,0,107464:0:0:0:0:
64,192,107299,1,2,0:0:0:0:
192,192,107299,1,0,0:0:0:0:
64,192,107464,128,2,107794:0:0:0:0:
448,192,107464,1,0,0:0:0:0:
192,192,107794,1,8,0:0:0:0:
320,192,107794,1,0,0:0:0:0:
448,192,107794,128,0,108123:0:0:0:0:
64,192,108123,1,2,0:0:0:0:
192,192,108123,1,0,0:0:0:0:
320,192,108165,1,0,0:0:0:0:
64,192,108288,1,8,0:0:0:0:
192,192,108288,128,0,108453:0:0:0:0:
448,192,108288,1,0,0:0:0:0:
320,192,108453,128,0,108618:0:0:0:0:
64,192,108618,128,0,108783:0:0:0:0:
192,192,108783,128,2,108948:0:0:0:0:
448,192,108783,1,0,0:0:0:0:
64,192,108948,1,8,0:0:0:0:
320,192,108948,1,0,0:0:0:0:
448,192,108948,128,0,109112:0:0:0:0:
64,192,109112,128,0,109277:0:0:0:0:
320,192,109277,128,2,109607:0:0:0:0:
448,192,109277,1,0,0:0:0:0:
64,192,109607,1,8,0:0:0:0:
192,192,109607,1,0,0:0:0:0:
448,192,109607,1,0,0:0:0:0:
64,192,109772,128,0,109937:0:0:0:0:
320,192,109937,1,2,0:0:0:0:
448,192,109937,1,0,0:0:0:0:
192,192,110101,1,2,0:0:0:0:
320,192,110101,1,0,0:0:0:0:
64,192,110266,1,8,0:0:0:0:
192,192,110266,1,0,0:0:0:0:
448,192,110266,1,0,0:0:0:0:
64,192,110431,1,2,0:0:0:0:
320,192,110431,1,4,0:0:0:0:
448,192,110431,1,0,0:0:0:0:
192,192,110514,1,0,0:0:0:0:
320,192,110596,1,0,0:0:0:0:
64,192,110678,1,0,0:0:0:0:
192,192,110761,1,2,0:0:0:0:
448,192,110761,1,0,0:0:0:0:
320,192,110843,1,0,0:0:0:0:
64,192,110926,1,8,0:0:0:0:
192,192,110926,1,0,0:0:0:0:
448,192,110926,1,0,0:0:0:0:
320,192,111008,1,0,0:0:0:0:
64,192,111090,1,0,0:0:0:0:
192,192,111173,1,0,0:0:0:0:
320,192,111255,1,2,0:0:0:0:
448,192,111255,1,0,0:0:0:0:
64,192,111420,1,8,0:0:0:0:
192,192,111420,1,0,0:0:0:0:
320,192,111503,1,8,0:0:0:0:
448,192,111503,1,0,0:0:0:0:
64,192,111585,1,8,0:0:0:0:
192,192,111585,1,0,0:0:0:0:
192,192,111750,1,8,0:0:0:0:
320,192,111750,1,0,0:0:0:0:
64,192,111915,128,2,112244:0:0:0:0:
320,192,111915,1,4,0:0:0:0:
448,192,111915,1,0,0:0:0:0:
192,192,112244,1,8,0:0:0:0:
320,192,112244,1,0,0:0:0:0:
448,192,112244,1,0,0:0:0:0:
64,192,112327,1,0,0:0:0:0:
448,192,112409,128,0,112574:0:0:0:0:
64,192,112574,1,2,0:0:0:0:
192,192,112574,1,0,0:0:0:0:
64,192,112739,1,2,0:0:0:0:
320,192,112739,1,0,0:0:0:0:
320,192,112904,1,0,0:0:0:0:
64,192,113069,128,8,113398:0:0:0:0:
192,192,113069,1,0,0:0:0:0:
448,192,113069,1,0,0:0:0:0:
320,192,113398,1,2,0:0:0:0:
448,192,113398,128,0,113728:0:0:0:0:
64,192,113563,1,8,0:0:0:0:
192,192,113563,1,0,0:0:0:0:
320,192,113563,1,0,0:0:0:0:
192,192,113728,128,0,113893:0:0:0:0:
64,192,113893,128,0,114058:0:0:0:0:
192,192,114058,1,2,0:0:0:0:
320,192,114058,128,0,114222:0:0:0:0:
64,192,114222,1,8,0:0:0:0:
192,192,114222,1,0,0:0:0:0:
448,192,114222,128,0,114387:0:0:0:0:
64,192,114387,128,0,114552:0:0:0:0:
192,192,114552,1,2,0:0:0:0:
320,192,114552,1,4,0:0:0:0:
448,192,114552,128,0,114882:0:0:0:0:
64,192,114882,1,8,0:0:0:0:
192,192,114882,128,0,115047:0:0:0:0:
320,192,114882,1,0,0:0:0:0:
320,192,115047,128,0,115211:0:0:0:0:
64,192,115211,1,2,0:0:0:0:
192,192,115211,1,0,0:0:0:0:
64,192,115376,1,2,0:0:0:0:
320,192,115376,1,4,0:0:0:0:
448,192,115376,1,0,0:0:0:0:
192,192,115541,1,8,0:0:0:0:
320,192,115541,1,0,0:0:0:0:
64,192,115706,128,2,116036:0:0:0:0:
192,192,115706,128,4,116036:0:0:0:0:
448,192,115706,1,0,0:0:0:0:
320,192,116036,1,2,0:0:0:0:
448,192,116036,1,0,0:0:0:0:
64,192,116200,1,8,0:0:0:0:
192,192,116200,128,0,116365:0:0:0:0:
448,192,116200,1,0,0:0:0:0:
320,192,116530,128,0,116695:0:0:0:0:
64,192,116695,1,2,0:0:0:0:
192,192,116695,1,0,0:0:0:0:
64,192,116860,1,8,0:0:0:0:
320,192,116860,1,0,0:0:0:0:
448,192,116860,128,0,117025:0:0:0:0:
64,192,117189,128,2,117519:0:0:0:0:
192,192,117189,1,4,0:0:0:0:
320,192,117189,1,0,0:0:0:0:
192,192,117519,1,8,0:0:0:0:
320,192,117519,128,0,117684:0:0:0:0:
448,192,117519,1,0,0:0:0:0:
192,192,117684,128,0,117849:0:0:0:0:
64,192,117849,1,2,0:0:0:0:
448,192,117849,1,0,0:0:0:0:
320,192,118014,1,2,0:0:0:0:
448,192,118014,128,0,118343:0:0:0:0:
64,192,118343,128,8,118673:0:0:0:0:
192,192,118343,1,0,0:0:0:0:
320,192,118343,1,0,0:0:0:0:
192,192,118673,1,2,0:0:0:0:
448,192,118673,1,0,0:0:0:0:
64,192,118838,1,8,0:0:0:0:
320,192,118838,1,0,0:0:0:0:
448,192,118838,1,0,0:0:0:0:
320,192,119003,128,0,119332:0:0:0:0:
64,192,119332,128,2,119662:0:0:0:0:
192,192,119332,1,0,0:0:0:0:
192,192,119497,1,8,0:0:0:0:
320,192,119497,1,0,0:0:0:0:
448,192,119497,1,0,0:0:0:0:
448,192,119662,128,0,119827:0:0:0:0:
64,192,119827,1,2,0:0:0:0:
320,192,119827,128,0,120156:0:0:0:0:
64,192,120156,1,8,0:0:0:0:
192,192,120156,1,0,0:0:0:0:
320,192,120239,1,0,0:0:0:0:
448,192,120321,1,0,0:0:0:0:
192,192,120404,1,0,0:0:0:0:
320,192,120486,1,2,0:0:0:0:
448,192,120486,1,0,0:0:0:0:
64,192,120569,1,0,0:0:0:0:
192,192,120651,1,2,0:0:0:0:
320,192,120651,1,0,0:0:0:0:
448,192,120733,1,0,0:0:0:0:
64,192,120816,1,8,0:0:0:0:
192,192,120816,1,0,0:0:0:0:
320,192,120898,1,0,0:0:0:0:
64,192,120981,1,2,0:0:0:0:
192,192,120981,1,4,0:0:0:0:
448,192,120981,1,0,0:0:0:0:
320,192,121063,1,0,0:0:0:0:
192,192,121145,1,0,0:0:0:0:
64,192,121228,1,0,0:0:0:0:
320,192,121310,1,2,0:0:0:0:
448,192,121310,1,0,0:0:0:0:
192,192,121393,1,0,0:0:0:0:
64,192,121475,1,8,0:0:0:0:
320,192,121475,128,0,121805:0:0:0:0:
448,192,121475,128,0,121805:0:0:0:0:
64,192,121805,1,2,0:0:0:0:
192,192,121805,1,0,0:0:0:0:
320,192,121970,1,8,0:0:0:0:
448,192,121970,1,0,0:0:0:0:
64,192,122052,1,8,0:0:0:0:
192,192,122052,1,0,0:0:0:0:
320,192,122134,1,8,0:0:0:0:
448,192,122134,1,0,0:0:0:0:
64,192,122299,1,8,0:0:0:0:
320,192,122299,1,0,0:0:0:0:
448,192,122382,1,0,0:0:0:0:
192,192,122464,128,0,122794:0:0:0:0:
320,192,122959,128,0,123412:0:0:0:0:
64,192,123412,128,0,123700:0:0:0:0:
320,192,123783,1,0,0:0:0:0:
448,192,123783,128,0,124937:0:0:0:0:
192,192,124442,1,0,0:0:0:0:
64,192,124483,1,0,0:0:0:0:
64,192,125101,128,0,125184:0:0:0:0:
192,192,125431,128,0,125514:0:0:0:0:
64,192,125761,1,0,0:0:0:0:
320,192,125761,128,0,126338:0:0:0:0:
192,192,126420,1,0,0:0:0:0:
448,192,126420,128,0,126956:0:0:0:0:
64,192,127080,128,0,127615:0:0:0:0:
320,192,127080,1,0,0:0:0:0:
192,192,127409,1,0,0:0:0:0:
320,192,127739,128,0,128398:0:0:0:0:
448,192,127739,1,0,0:0:0:0:
64,192,128398,1,0,0:0:0:0:
64,192,129058,1,0,0:0:0:0:
192,192,129058,128,0,130376:0:0:0:0:
448,192,129387,1,0,0:0:0:0:
64,192,130376,1,2,0:0:0:0:
320,192,130376,1,4,0:0:0:0:
448,192,130376,1,0,0:0:0:0:
448,192,130540,1,0,0:0:0:0:
320,192,130623,1,0,0:0:0:0:
64,192,130705,1,2,0:0:0:0:
192,192,130705,1,0,0:0:0:0:
320,192,130788,1,0,0:0:0:0:
64,192,130870,1,8,0:0:0:0:
448,192,130870,1,0,0:0:0:0:
192,192,130952,1,0,0:0:0:0:
320,192,131035,1,0,0:0:0:0:
64,192,131117,1,0,0:0:0:0:
320,192,131200,1,8,0:0:0:0:
448,192,131200,1,0,0:0:0:0:
192,192,131282,1,0,0:0:0:0:
64,192,131365,1,2,0:0:0:0:
448,192,131365,1,0,0:0:0:0:
320,192,131447,1,0,0:0:0:0:
64,192,131529,1,8,0:0:0:0:
192,192,131529,1,0,0:0:0:0:
448,192,131612,1,0,0:0:0:0:
64,192,131694,1,2,0:0:0:0:
320,192,131694,1,0,0:0:0:0:
192,192,131777,1,0,0:0:0:0:
320,192,131859,1,8,0:0:0:0:
448,192,131859,1,0,0:0:0:0:
64,192,131941,1,0,0:0:0:0:
192,192,132024,1,0,0:0:0:0:
320,192,132106,1,0,0:0:0:0:
64,192,132189,1,8,0:0:0:0:
448,192,132189,1,0,0:0:0:0:
192,192,132271,1,0,0:0:0:0:
320,192,132354,1,2,0:0:0:0:
448,192,132354,1,0,0:0:0:0:
192,192,132436,1,0,0:0:0:0:
64,192,132518,1,8,0:0:0:0:
320,192,132518,1,0,0:0:0:0:
448,192,132601,1,0,0:0:0:0:
64,192,132683,1,2,0:0:0:0:
192,192,132683,1,0,0:0:0:0:
320,192,132766,1,0,0:0:0:0:
64,192,132848,1,8,0:0:0:0:
448,192,132848,1,0,0:0:0:0:
192,192,132930,1,0,0:0:0:0:
320,192,133013,1,0,0:0:0:0:
64,192,133095,1,0,0:0:0:0:
320,192,133178,1,8,0:0:0:0:
448,192,133178,1,0,0:0:0:0:
192,192,133260,1,0,0:0:0:0:
64,192,133343,1,2,0:0:0:0:
448,192,133343,1,0,0:0:0:0:
320,192,133425,1,0,0:0:0:0:
192,192,133507,1,8,0:0:0:0:
448,192,133507,1,0,0:0:0:0:
64,192,133590,1,0,0:0:0:0:
192,192,133672,1,2,0:0:0:0:
320,192,133672,1,0,0:0:0:0:
448,192,133755,1,0,0:0:0:0:
64,192,133837,1,8,0:0:0:0:
320,192,133837,1,0,0:0:0:0:
192,192,133919,1,0,0:0:0:0:
320,192,134002,1,0,0:0:0:0:
448,192,134084,1,0,0:0:0:0:
64,192,134167,1,8,0:0:0:0:
192,192,134167,1,0,0:0:0:0:
320,192,134249,1,0,0:0:0:0:
64,192,134332,1,4,0:0:0:0:
192,192,134332,1,2,0:0:0:0:
448,192,134332,1,0,0:0:0:0:
64,192,134496,1,0,0:0:0:0:
192,192,134579,1,0,0:0:0:0:
320,192,134661,1,2,0:0:0:0:
448,192,134661,1,0,0:0:0:0:
64,192,134744,1,0,0:0:0:0:
320,192,134826,1,8,0:0:0:0:
448,192,134826,1,0,0:0:0:0:
64,192,134908,1,0,0:0:0:0:
192,192,134991,1,0,0:0:0:60:tom01.wav
320,192,134991,1,0,0:0:0:0:
448,192,135073,1,0,0:0:0:0:
64,192,135156,1,0,0:0:0:60:tom02.wav
192,192,135156,1,0,0:0:0:0:
320,192,135238,1,0,0:0:0:0:
192,192,135321,1,2,0:0:0:0:
448,192,135321,1,0,0:0:0:60:tom04.wav
320,192,135403,1,0,0:0:0:0:
64,192,135485,1,8,0:0:0:0:
448,192,135485,1,0,0:0:0:0:
192,192,135568,1,0,0:0:0:0:
64,192,135650,1,0,0:0:0:60:tom03.wav
320,192,135650,1,0,0:0:0:0:
192,192,135733,1,0,0:0:0:0:
64,192,135815,1,4,0:0:0:0:
320,192,135815,1,2,0:0:0:0:
448,192,135815,128,0,136639:0:0:0:0:
192,192,135980,1,0,0:0:0:0:
64,192,136062,1,0,0:0:0:0:
192,192,136145,1,0,0:0:0:0:
320,192,136227,128,0,136639:0:0:0:0:
64,192,136474,1,0,0:0:0:60:tom01.wav
192,192,136557,1,0,0:0:0:60:tom01.wav
64,192,136639,1,0,0:0:0:60:tom01.wav
320,192,136804,1,0,0:0:0:60:tom01.wav
448,192,136804,1,0,0:0:0:0:
64,192,136969,1,0,0:0:0:60:tom02.wav
192,192,136969,1,0,0:0:0:0:
64,192,137134,1,0,0:0:0:60:tom02.wav
448,192,137134,128,0,137299:0:0:0:0:
192,192,137299,128,0,137463:0:0:0:60:tom03.wav
320,192,137299,1,0,0:0:0:0:
64,192,137463,128,0,137628:0:0:0:60:tom03.wav
448,192,137463,1,0,0:0:0:0:
192,192,137628,1,4,0:1:0:0:
320,192,137628,1,2,0:0:0:0:
448,192,137628,1,0,0:0:0:0:
64,192,137793,1,0,0:0:0:0:
192,192,137875,1,0,0:0:0:0:
64,192,137958,1,8,0:0:0:0:
320,192,137958,1,0,0:0:0:0:
448,192,137958,1,0,0:0:0:0:
448,192,138123,1,0,0:0:0:0:
320,192,138205,1,0,0:0:0:0:
64,192,138288,1,2,0:0:0:0:
192,192,138288,1,0,0:0:0:0:
320,192,138452,1,0,0:0:0:0:
448,192,138535,1,0,0:0:0:0:
64,192,138617,1,8,0:0:0:0:
192,192,138617,1,0,0:0:0:0:
320,192,138617,1,0,0:0:0:0:
192,192,138782,1,0,0:0:0:0:
64,192,138864,1,0,0:0:0:0:
320,192,138947,1,2,0:0:0:0:
448,192,138947,1,0,0:0:0:0:
64,192,139112,1,0,0:0:0:0:
192,192,139194,1,0,0:0:0:0:
64,192,139277,1,8,0:0:0:0:
320,192,139277,1,0,0:0:0:0:
448,192,139277,1,0,0:0:0:0:
320,192,139441,1,0,0:0:0:0:
192,192,139524,1,0,0:0:0:0:
64,192,139606,1,2,0:0:0:0:
448,192,139606,1,0,0:0:0:0:
192,192,139771,1,0,0:0:0:0:
320,192,139853,1,0,0:0:0:0:
64,192,139936,1,8,0:0:0:0:
192,192,139936,1,0,0:0:0:0:
448,192,139936,1,0,0:0:0:0:
320,192,140018,1,0,0:0:0:0:
448,192,140101,1,0,0:0:0:0:
192,192,140183,1,0,0:0:0:0:
64,192,140266,1,2,0:0:0:0:
320,192,140266,1,0,0:0:0:0:
448,192,140348,1,0,0:0:0:0:
192,192,140430,1,0,0:0:0:0:
64,192,140513,1,0,0:0:0:0:
192,192,140595,1,8,0:0:0:0:
320,192,140595,1,0,0:0:0:0:
448,192,140595,1,0,0:0:0:0:
320,192,140760,1,0,0:0:0:0:
448,192,140842,1,0,0:0:0:0:
64,192,140925,1,2,0:0:0:0:
192,192,140925,1,0,0:0:0:0:
320,192,141090,1,0,0:0:0:0:
192,192,141172,1,0,0:0:0:0:
64,192,141255,1,8,0:0:0:0:
320,192,141255,1,0,0:0:0:0:
448,192,141255,1,0,0:0:0:0:
192,192,141419,1,0,0:0:0:0:
64,192,141502,1,0,0:0:0:0:
320,192,141584,1,2,0:0:0:0:
448,192,141584,1,0,0:0:0:0:
192,192,141749,1,0,0:0:0:0:
320,192,141831,1,0,0:0:0:0:
64,192,141914,1,8,0:0:0:0:
192,192,141914,1,0,0:0:0:0:
448,192,141914,1,0,0:0:0:0:
64,192,142079,1,0,0:0:0:0:
192,192,142161,1,0,0:0:0:0:
320,192,142244,1,2,0:0:0:0:
448,192,142244,1,0,0:0:0:0:
192,192,142408,1,0,0:0:0:0:
64,192,142491,1,0,0:0:0:0:
192,192,142573,1,8,0:0:0:0:
320,192,142573,1,0,0:0:0:0:
448,192,142573,1,0,0:0:0:0:
448,192,142738,1,0,0:0:0:0:
320,192,142820,1,0,0:0:0:0:
64,192,142903,1,4,0:0:0:0:
192,192,142903,1,2,0:0:0:0:
448,192,142903,1,0,0:0:0:0:
320,192,142985,1,0,0:0:0:0:
192,192,143068,1,0,0:0:0:0:
64,192,143150,1,0,0:0:0:0:
192,192,143233,1,8,0:0:0:0:
320,192,143233,1,0,0:0:0:0:
448,192,143233,1,0,0:0:0:0:
64,192,143397,1,0,0:0:0:0:
192,192,143480,1,0,0:0:0:0:
320,192,143562,1,2,0:0:0:0:
448,192,143562,1,0,0:0:0:0:
192,192,143727,1,0,0:0:0:0:
320,192,143810,1,0,0:0:0:0:
64,192,143892,1,8,0:0:0:0:
192,192,143892,1,0,0:0:0:0:
448,192,143892,1,0,0:0:0:0:
320,192,144057,1,0,0:0:0:0:
192,192,144139,1,0,0:0:0:0:
64,192,144222,1,2,0:0:0:0:
448,192,144222,1,0,0:0:0:0:
320,192,144304,1,0,0:0:0:0:
448,192,144386,1,0,0:0:0:0:
192,192,144469,1,0,0:0:0:0:
64,192,144551,1,8,0:0:0:0:
320,192,144551,1,0,0:0:0:0:
448,192,144551,1,0,0:0:0:0:
192,192,144634,1,0,0:0:0:0:
64,192,144716,1,0,0:0:0:0:
320,192,144799,1,0,0:0:0:0:
192,192,144881,1,2,0:0:0:0:
448,192,144881,1,0,0:0:0:0:
64,192,144963,1,0,0:0:0:0:
320,192,145046,1,0,0:0:0:0:
448,192,145128,1,0,0:0:0:0:
64,192,145211,1,8,0:0:0:0:
192,192,145211,1,0,0:0:0:0:
320,192,145211,1,0,0:0:0:0:
448,192,145293,1,0,0:0:0:0:
192,192,145375,1,0,0:0:0:0:
320,192,145458,1,0,0:0:0:0:
64,192,145540,1,2,0:0:0:0:
448,192,145540,1,0,0:0:0:0:
192,192,145623,1,0,0:0:0:0:
320,192,145705,1,0,0:0:0:0:
64,192,145788,1,0,0:0:0:0:
192,192,145870,1,8,0:0:0:0:
320,192,145870,1,0,0:0:0:0:
448,192,145870,1,0,0:0:0:0:
64,192,145952,1,0,0:0:0:0:
448,192,146035,1,0,0:0:0:0:
320,192,146117,1,0,0:0:0:0:
64,192,146200,1,2,0:0:0:0:
192,192,146200,1,0,0:0:0:0:
448,192,146282,1,0,0:0:0:0:
320,192,146364,1,0,0:0:0:0:
192,192,146447,1,0,0:0:0:0:
64,192,146529,1,8,0:0:0:0:
320,192,146529,1,0,0:0:0:0:
448,192,146529,1,0,0:0:0:0:
192,192,146612,1,0,0:0:0:0:
448,192,146694,1,0,0:0:0:0:
320,192,146777,1,0,0:0:0:0:
64,192,146859,1,4,0:0:0:0:
192,192,146859,1,2,0:0:0:0:
448,192,146859,1,0,0:0:0:0:
64,192,147024,1,2,0:0:0:0:
192,192,147024,1,0,0:0:0:0:
64,192,147189,1,8,0:0:0:0:
320,192,147189,1,0,0:0:0:0:
448,192,147189,1,0,0:0:0:0:
192,192,147353,1,2,0:0:0:0:
320,192,147353,1,4,0:0:0:0:
448,192,147353,1,0,0:0:0:0:
64,192,147518,1,0,0:0:0:60:tom01.wav
448,192,147518,1,0,0:0:0:0:
192,192,147601,1,0,0:0:0:60:tom02.wav
320,192,147601,1,0,0:0:0:0:
64,192,147683,1,2,0:0:0:0:
448,192,147683,1,0,0:0:0:60:tom03.wav
64,192,147848,1,8,0:0:0:0:
192,192,147848,1,0,0:0:0:0:
192,192,148013,1,0,0:0:0:0:
320,192,148013,1,0,0:0:0:0:
64,192,148178,1,2,0:0:0:0:
320,192,148178,1,4,0:0:0:0:
448,192,148178,1,0,0:0:0:0:
192,192,148342,1,0,0:0:0:0:
64,192,148425,1,0,0:0:0:0:
192,192,148507,1,8,0:0:0:0:
320,192,148507,1,0,0:0:0:0:
448,192,148507,1,0,0:0:0:0:
320,192,148672,1,0,0:0:0:0:
192,192,148755,1,0,0:0:0:0:
64,192,148837,1,2,0:0:0:0:
448,192,148837,1,0,0:0:0:0:
320,192,149002,1,0,0:0:0:0:
448,192,149084,1,0,0:0:0:0:
64,192,149167,1,8,0:0:0:0:
192,192,149167,1,0,0:0:0:0:
320,192,149167,1,0,0:0:0:0:
64,192,149331,1,0,0:0:0:0:
192,192,149414,1,0,0:0:0:0:
320,192,149496,1,2,0:0:0:0:
448,192,149496,1,0,0:0:0:0:
192,192,149661,1,0,0:0:0:0:
320,192,149744,1,0,0:0:0:0:
64,192,149826,1,8,0:0:0:0:
192,192,149826,1,0,0:0:0:0:
448,192,149826,1,0,0:0:0:0:
64,192,149991,1,0,0:0:0:0:
192,192,150073,1,0,0:0:0:0:
320,192,150156,1,2,0:0:0:0:
448,192,150156,1,0,0:0:0:0:
192,192,150320,1,0,0:0:0:0:
64,192,150403,1,0,0:0:0:0:
192,192,150485,1,8,0:0:0:0:
320,192,150485,1,0,0:0:0:0:
448,192,150485,1,0,0:0:0:0:
64,192,150568,1,0,0:0:0:0:
320,192,150650,1,0,0:0:0:0:
192,192,150733,1,0,0:0:0:0:
64,192,150815,1,2,0:0:0:0:
448,192,150815,1,0,0:0:0:0:
320,192,150897,1,0,0:0:0:0:
192,192,150980,1,0,0:0:0:0:
64,192,151062,1,0,0:0:0:0:
192,192,151145,1,8,0:0:0:0:
320,192,151145,1,0,0:0:0:0:
448,192,151145,1,0,0:0:0:0:
320,192,151310,1,0,0:0:0:0:
192,192,151392,1,0,0:0:0:0:
64,192,151474,1,2,0:0:0:0:
448,192,151474,1,0,0:0:0:0:
320,192,151639,1,0,0:0:0:0:
448,192,151722,1,0,0:0:0:0:
64,192,151804,1,8,0:0:0:0:
192,192,151804,1,0,0:0:0:0:
320,192,151804,1,0,0:0:0:0:
64,192,151969,1,0,0:0:0:0:
192,192,152051,1,0,0:0:0:0:
320,192,152134,1,2,0:0:0:0:
448,192,152134,1,0,0:0:0:0:
192,192,152299,1,0,0:0:0:0:
320,192,152381,1,0,0:0:0:0:
64,192,152463,1,8,0:0:0:0:
192,192,152463,1,0,0:0:0:0:
448,192,152463,1,0,0:0:0:0:
448,192,152628,1,0,0:0:0:0:
320,192,152711,1,0,0:0:0:0:
64,192,152793,1,2,0:0:0:0:
192,192,152793,1,0,0:0:0:0:
192,192,152958,1,0,0:0:0:0:
320,192,153040,1,0,0:0:0:0:
64,192,153123,1,8,0:0:0:0:
192,192,153123,1,0,0:0:0:0:
448,192,153123,1,0,0:0:0:0:
320,192,153288,1,0,0:0:0:0:
192,192,153370,1,0,0:0:0:0:
64,192,153452,1,2,0:0:0:0:
320,192,153452,1,4,0:0:0:0:
448,192,153452,1,0,0:0:0:0:
192,192,153535,1,0,0:0:0:0:
64,192,153617,1,0,0:0:0:0:
448,192,153700,1,0,0:0:0:0:
64,192,153782,1,8,0:0:0:0:
192,192,153782,1,0,0:0:0:0:
320,192,153782,1,0,0:0:0:0:
448,192,153864,1,0,0:0:0:0:
192,192,153947,1,0,0:0:0:0:
320,192,154029,1,0,0:0:0:0:
64,192,154112,1,2,0:0:0:0:
448,192,154112,1,0,0:0:0:0:
192,192,154194,1,0,0:0:0:0:
320,192,154277,1,0,0:0:0:0:
64,192,154359,1,0,0:0:0:0:
192,192,154441,1,8,0:0:0:0:
320,192,154441,1,0,0:0:0:0:
448,192,154441,1,0,0:0:0:0:
64,192,154524,1,0,0:0:0:0:
448,192,154606,1,0,0:0:0:0:
320,192,154689,1,0,0:0:0:0:
64,192,154771,1,2,0:0:0:0:
192,192,154771,1,0,0:0:0:0:
320,192,154853,1,0,0:0:0:0:
192,192,154936,1,0,0:0:0:0:
448,192,155018,1,0,0:0:0:0:
64,192,155101,1,8,0:0:0:0:
192,192,155101,1,0,0:0:0:0:
320,192,155101,1,0,0:0:0:0:
448,192,155183,1,0,0:0:0:0:
64,192,155266,1,0,0:0:0:0:
192,192,155348,1,0,0:0:0:0:
320,192,155430,1,2,0:0:0:0:
448,192,155430,1,0,0:0:0:0:
64,192,155513,1,0,0:0:0:0:
192,192,155595,1,0,0:0:0:0:
320,192,155678,1,0,0:0:0:0:
64,192,155760,1,8,0:0:0:0:
192,192,155760,1,0,0:0:0:0:
448,192,155760,1,0,0:0:0:0:
320,192,155842,1,0,0:0:0:0:
64,192,155925,1,0,0:0:0:0:
192,192,156007,1,0,0:0:0:0:
64,192,156090,1,2,0:0:0:0:
320,192,156090,1,4,0:0:0:0:
448,192,156090,1,0,0:0:0:0:
320,192,156255,1,2,0:0:0:0:
448,192,156255,1,0,0:0:0:0:
64,192,156419,1,8,0:0:0:0:
192,192,156419,1,0,0:0:0:0:
320,192,156419,1,0,0:0:0:0:
64,192,156584,1,4,0:0:0:0:
192,192,156584,1,2,0:0:0:0:
448,192,156584,1,0,0:0:0:0:
64,192,156914,1,4,0:0:0:0:
192,192,156914,1,2,0:0:0:0:
448,192,156914,1,0,0:0:0:0:
64,192,157244,128,2,157738:0:0:0:0:
320,192,157244,1,4,0:0:0:0:
448,192,157244,1,0,0:0:0:0:
448,192,157738,128,0,158068:0:0:0:0:
192,192,158068,128,0,158397:0:0:0:0:
320,192,158397,128,0,158727:0:0:0:0:
64,192,158727,1,0,0:0:0:0:
448,192,158727,1,0,0:0:0:0:
448,192,158892,1,0,0:0:0:0:
192,192,159057,1,0,0:0:0:0:
320,192,159222,1,0,0:0:0:0:
448,192,159222,1,0,0:0:0:0:
320,192,159386,1,0,0:0:0:0:
64,192,159551,1,0,0:0:0:0:
192,192,159716,1,0,0:0:0:0:
320,192,159716,1,0,0:0:0:0:
192,192,159881,1,0,0:0:0:0:
448,192,160046,1,0,0:0:0:0:
64,192,160211,1,0,0:0:0:0:
192,192,160211,1,0,0:0:0:0:
64,192,160375,1,0,0:0:0:0:
320,192,160540,1,0,0:0:0:0:
192,192,160705,1,0,0:0:0:0:
448,192,160705,1,0,0:0:0:0:
448,192,160870,1,0,0:0:0:0:
448,192,161035,1,0,0:0:0:0:
64,192,161200,1,0,0:0:0:0:
320,192,161200,1,0,0:0:0:0:
320,192,161364,1,0,0:0:0:0:
320,192,161529,1,0,0:0:0:0:
192,192,161694,1,0,0:0:0:0:
448,192,161694,1,0,0:0:0:0:
192,192,161859,1,0,0:0:0:0:
192,192,162024,1,0,0:0:0:0:
64,192,162189,1,0,0:0:0:0:
320,192,162189,1,0,0:0:0:0:
64,192,162353,1,0,0:0:0:0:
64,192,162518,1,0,0:0:0:0:
320,192,162683,1,0,0:0:0:0:
448,192,162683,1,0,0:0:0:0:
192,192,162766,1,0,0:0:0:0:
