osu file format v14

[General]
AudioFilename: audio.mp3
AudioLeadIn: 0
PreviewTime: 62477
Countdown: 0
SampleSet: Soft
StackLeniency: 0.7
Mode: 0
LetterboxInBreaks: 0
WidescreenStoryboard: 0

[Editor]
Bookmarks: 23538,28236,43230,62923,72769,82615
DistanceSpacing: 2.08
BeatDivisor: 6
GridSize: 32
TimelineZoom: 2.799999

[Metadata]
Title:Ame to Petra
TitleUnicode:雨とペトラ
Artist:mafumafu
ArtistUnicode:まふまふ
Creator:Mafumafu
Version:Logic Agent's Extra
Source:
Tags:regraz Lobelia abhor バルーン Balloon utaite vocaloid cover flower Logic Agent Logic_Agent gokugohan12468 kittyadventure japanese rock vocaloid utaite cover
BeatmapID:2381082
BeatmapSetID:1139958

[Difficulty]
HPDrainRate:6
CircleSize:4
OverallDifficulty:8.7
ApproachRate:9.3
SliderMultiplier:1.8
SliderTickRate:1

[Events]
//Background and Video events
0,0,"BG7.png",0,0
//Break Periods
//Storyboard Layer 0 (Background)
//Storyboard Layer 1 (Fail)
//Storyboard Layer 2 (Pass)
//Storyboard Layer 3 (Foreground)
//Storyboard Layer 4 (Overlay)
//Storyboard Sound Samples

[TimingPoints]
170,307.692307692308,4,2,1,48,1,0
1400,-111.111111111111,4,2,1,48,0,0
3862,-90.9090909090908,4,2,1,60,0,0
23554,-111.111111111111,4,2,1,40,0,0
32785,-166.666666666667,4,2,1,40,0,0
33400,-100,4,2,1,50,0,0
43246,-111.111111111111,4,2,1,50,0,0
53093,-166.666666666667,4,2,1,40,0,0
58016,-111.111111111111,4,2,1,50,0,0
60477,-166.666666666667,4,2,1,50,0,0
62939,-90.9090909090909,4,2,1,72,0,1
72170,-90.9090909090909,4,2,1,72,0,0
72785,-90.9090909090909,4,2,1,72,0,1
82631,-90.9090909090909,4,2,1,72,0,0
91093,-90.9090909090909,4,2,1,40,0,0

[Colours]
Combo1 : 190,124,124
Combo2 : 137,226,245
Combo3 : 0,128,192
Combo4 : 255,128,128

[HitObjects]
23,315,1246,5,4,3:0:0:0:
23,315,1298,1,4,3:0:0:0:
23,315,1349,1,4,3:0:0:0:
23,315,1400,2,0,P|101:317|154:259,1,161.999995056153,6|2,0:0|0:0,0:0:0:0:
154,258,1862,1,0,0:0:0:0:
73,148,2016,2,0,P|67:188|63:228,1,80.9999975280763,2|2,0:0|0:0,0:0:0:0:
271,148,2323,1,10,0:0:0:0:
171,97,2477,6,0,P|160:177|153:257,1,161.999995056153,4|2,3:0|0:0,0:0:0:0:
280,228,2939,2,0,P|275:187|270:147,1,80.9999975280763,2|2,0:0|0:0,0:0:0:0:
256,65,3246,1,2,0:0:0:0:
238,81,3400,5,0,0:0:0:0:
343,83,3554,1,0,0:0:0:0:
448,85,3708,1,0,0:0:0:0:
268,326,3862,6,0,P|273:276|280:227,1,99.0000030212403,4|2,0:0|0:0,0:0:0:0:
343,83,4170,1,8,0:0:0:0:
478,296,4323,1,2,0:0:0:0:
478,296,4400,1,2,0:0:0:0:
478,296,4477,2,0,P|428:289|379:284,1,99.0000030212403,4|2,3:0|0:0,0:0:0:0:
197,354,4785,1,8,0:0:0:0:
256,31,4939,6,0,P|269:129|279:227,1,198.000006042481,2|2,0:0|0:0,0:0:0:0:
459,183,5400,2,0,P|454:133|447:84,1,99.0000030212403,8|2,0:0|0:0,0:0:0:0:
379,284,5708,1,4,3:0:0:0:
263,35,5862,1,2,0:0:0:0:
263,35,5939,1,2,0:0:0:0:
263,35,6016,1,8,0:0:0:0:
459,183,6170,1,2,0:0:0:0:
150,169,6323,6,0,P|100:174|51:181,1,99.0000030212403,4|2,3:0|0:0,0:0:0:0:
197,354,6631,1,8,0:0:0:0:
383,127,6785,1,2,0:0:0:0:
383,127,6862,1,2,0:0:0:0:
383,127,6939,2,0,P|428:144|459:183,1,99.0000030212403,4|2,3:0|0:0,0:0:0:0:
258,38,7246,1,8,0:0:0:0:
176,250,7400,6,0,P|274:228|370:219,1,198.000006042481,2|2,0:0|0:0,0:0:0:0:
197,354,7862,2,0,P|147:343|99:338,1,99.0000030212403,8|2,0:0|0:0,0:0:0:0:
197,146,8170,1,4,3:0:0:0:
372,218,8323,5,2,0:0:0:0:
297,275,8477,1,8,0:0:0:0:
285,182,8631,1,8,0:0:0:0:
285,182,8708,1,8,0:0:0:0:
285,182,8785,6,0,P|290:132|297:83,1,99.0000030212403,4|2,0:0|0:0,0:0:0:0:
384,312,9093,1,8,0:0:0:0:
99,338,9246,1,2,0:0:0:0:
99,338,9323,1,2,0:0:0:0:
99,338,9400,2,0,P|49:343|0:350,1,99.0000030212403,4|2,3:0|0:0,0:0:0:0:
99,183,9708,1,8,0:0:0:0:
289,374,9862,6,0,P|387:360|485:350,1,198.000006042481,2|2,0:0|0:0,0:0:0:0:
285,182,10323,2,0,P|278:231|273:280,1,99.0000030212403,8|2,0:0|0:0,0:0:0:0:
459,183,10631,1,4,3:0:0:0:
175,65,10785,1,2,0:0:0:0:
177,89,10862,1,2,0:0:0:0:
180,114,10939,1,8,0:0:0:0:
344,4,11093,1,2,0:0:0:0:
370,296,11246,6,0,P|321:285|272:280,1,99.0000030212403,4|2,3:0|0:0,0:0:0:0:
15,357,11554,1,8,0:0:0:0:
175,65,11708,1,2,0:0:0:0:
175,65,11785,1,2,0:0:0:0:
175,65,11862,2,0,P|205:102|212:151,1,99.0000030212403,4|2,3:0|0:0,0:0:0:0:
27,69,12170,1,8,0:0:0:0:
113,330,12323,6,0,P|178:261|272:279,1,198.000006042481,2|4,0:0|3:0,0:0:0:0:
331,333,12708,1,4,3:0:0:0:
331,333,12785,1,4,3:0:0:0:
403,29,12939,1,8,0:0:0:0:
211,151,13093,1,4,3:0:0:0:
462,217,13246,1,8,0:0:0:0:
460,241,13323,1,8,0:0:0:0:
457,266,13400,1,4,3:0:0:0:
196,29,13554,1,8,0:0:0:0:
196,29,13631,1,8,0:0:0:0:
196,29,13708,6,0,P|146:34|97:40,1,99.0000030212403,4|2,0:0|0:0,0:0:0:0:
320,158,14016,1,8,0:0:0:0:
113,330,14170,1,2,0:0:0:0:
113,330,14247,1,2,0:0:0:0:
113,330,14323,2,0,P|93:286|98:236,1,99.0000030212403,4|2,3:0|0:0,0:0:0:0:
210,153,14631,1,8,0:0:0:0:
462,356,14785,6,0,P|364:342|265:331,1,198.000006042481,2|2,0:0|0:0,0:0:0:0:
0,247,15246,2,0,P|49:240|98:236,1,99.0000030212403,8|2,0:0|0:0,0:0:0:0:
320,158,15554,1,4,3:0:0:0:
113,330,15708,1,2,0:0:0:0:
113,330,15785,1,2,0:0:0:0:
113,330,15862,1,8,0:0:0:0:
136,56,16016,1,2,0:0:0:0:
254,233,16170,6,0,P|260:282|264:331,1,99.0000030212403,4|2,3:0|0:0,0:0:0:0:
117,146,16477,1,8,0:0:0:0:
330,59,16631,1,2,0:0:0:0:
330,59,16708,1,2,0:0:0:0:
330,59,16785,2,0,P|323:108|319:157,1,99.0000030212403,4|2,3:0|0:0,0:0:0:0:
48,84,17093,1,8,0:0:0:0:
69,362,17246,6,0,P|167:340|263:331,1,198.000006042481,2|2,0:0|0:0,0:0:0:0:
242,142,17708,2,0,P|197:159|166:198,1,99.0000030212403,8|2,0:0|0:0,0:0:0:0:
362,345,18016,1,4,3:0:0:0:
330,59,18170,1,2,0:0:0:0:
330,59,18246,1,2,0:0:0:0:
330,59,18323,1,8,0:0:0:0:
254,233,18477,1,2,0:0:0:0:
495,141,18631,6,0,P|490:91|484:42,1,99.0000030212403,4|2,0:0|0:0,0:0:0:0:
215,25,18939,1,8,0:0:0:0:
352,250,19092,1,2,0:0:0:0:
352,250,19169,1,2,0:0:0:0:
352,250,19246,2,0,P|401:243|450:239,1,99.0000030212403,4|2,3:0|0:0,0:0:0:0:
242,142,19554,1,8,0:0:0:0:
165,366,19708,6,0,P|263:353|361:344,1,198.000006042481,2|2,0:0|0:0,0:0:0:0:
110,183,20170,2,0,P|103:233|99:282,1,99.0000030212403,8|2,0:0|0:0,0:0:0:0:
242,142,20477,1,4,3:0:0:0:
15,248,20631,1,2,0:0:0:0:
15,248,20708,1,2,0:0:0:0:
15,248,20785,1,8,0:0:0:0:
165,366,20939,1,2,0:0:0:0:
151,85,21093,6,0,P|102:74|53:69,1,99.0000030212403,4|2,3:0|0:0,0:0:0:0:
203,239,21399,1,8,0:0:0:0:
398,50,21554,1,2,0:0:0:0:
398,50,21631,1,2,0:0:0:0:
398,50,21708,2,0,P|428:87|435:136,1,99.0000030212403,4|2,3:0|0:0,0:0:0:0:
281,45,22016,1,8,0:0:0:0:
231,319,22170,6,0,P|329:297|425:288,1,198.000006042481,2|8,0:0|0:0,0:0:0:0:
490,334,22554,1,8,0:0:0:0:
490,334,22631,1,8,0:0:0:0:
341,127,22785,1,2,0:0:0:0:
203,239,22939,1,4,3:0:0:0:
417,194,23093,1,2,0:0:0:0:
417,194,23170,1,2,0:0:0:0:
417,194,23246,1,8,0:0:0:0:
236,143,23400,1,0,0:0:0:0:
309,300,23554,6,0,P|358:293|407:289,1,80.9999975280763,4|0,0:0|0:0,0:0:0:0:
497,203,23862,2,0,P|456:197|416:193,1,80.9999975280763,4|0,3:0|0:0,0:0:0:0:
309,106,24170,2,0,P|349:100|389:96,1,80.9999975280763,4|0,3:0|0:0,0:0:0:0:
497,9,24477,2,0,P|456:3|416:-1,1,80.9999975280763,4|0,3:0|0:0,0:0:0:0:
248,31,24785,6,0,P|213:101|244:174,1,161.999995056153,4|4,3:0|3:0,0:0:0:0:
335,196,25246,1,0,0:0:0:0:
335,196,25400,2,0,P|329:237|325:277,1,80.9999975280763,4|0,3:0|0:0,0:0:0:0:
366,356,25631,1,2,0:0:0:0:
366,356,25708,1,4,3:0:0:0:
243,173,25862,1,0,0:0:0:0:
81,288,26016,6,0,P|161:276|241:268,2,161.999995056153,4|4|4,3:0|3:0|3:0,0:0:0:0:
20,222,26785,1,0,0:0:0:0:
39,378,26939,2,0,P|79:371|119:367,1,80.9999975280763,4|0,3:0|0:0,0:0:0:0:
241,267,27246,6,0,P|201:259|160:254,1,80.9999975280763,4|0,3:0|0:0,0:0:0:0:
193,338,27554,1,4,3:0:0:0:
296,133,27708,2,0,P|310:212|320:293,1,161.999995056153,0|8,0:0|0:0,0:0:0:0:
405,301,28093,1,8,0:0:0:0:
405,301,28170,2,0,P|452:292|500:286,1,80.9999975280763,4|0,3:0|0:0,0:0:0:0:
392,118,28477,6,0,P|348:52|270:43,1,161.999995056153,4|4,3:0|3:0,0:0:0:0:
296,133,28939,1,0,0:0:0:0:
408,214,29094,2,0,P|448:207|488:203,1,80.9999975280763,4|0,3:0|0:0,0:0:0:0:
392,118,29400,1,4,3:0:0:0:
345,325,29554,6,0,P|424:311|505:301,1,161.999995056153
408,214,30016,2,0,P|368:207|328:203,1,80.9999975280763,4|0,3:0|0:0,0:0:0:0:
270,271,30323,1,4,3:0:0:0:
392,118,30477,1,2,0:0:0:0:
392,118,30554,1,2,0:0:0:0:
392,118,30631,1,4,3:0:0:0:
408,214,30785,1,0,0:0:0:0:
308,53,30939,6,0,P|300:93|295:134,1,80.9999975280763,4|0,3:0|0:0,0:0:0:0:
392,118,31246,1,4,3:0:0:0:
225,193,31400,2,0,P|185:185|144:180,1,80.9999975280763,0|4,0:0|3:0,0:0:0:0:
97,256,31708,1,0,0:0:0:0:
193,104,31862,1,4,3:0:0:0:
270,271,32016,6,0,P|333:224|418:248,1,161.999995056153,2|2,0:0|0:0,0:0:0:0:
356,321,32400,1,4,3:0:0:0:
356,321,32477,1,8,0:0:0:0:
193,104,32631,1,8,0:0:0:0:
193,104,32708,1,8,0:0:0:0:
193,104,32785,6,0,P|139:94|86:89,1,107.999996704102,4|0,3:0|0:0,0:0:0:0:
85,89,33400,6,0,P|74:132|70:177,1,90,4|0,0:0|0:0,0:0:0:0:
102,282,33708,1,8,0:0:0:0:
283,133,33862,1,4,3:0:0:0:
283,133,33939,1,2,0:0:0:0:
283,133,34016,2,0,P|286:88|270:46,1,90,2|4,0:0|3:0,0:0:0:0:
69,177,34323,1,8,0:0:0:0:
193,104,34477,1,0,0:0:0:0:
301,313,34631,6,0,P|385:328|443:263,1,180,4|8,3:0|0:0,0:0:0:0:
208,245,35093,1,4,3:0:0:0:
208,245,35170,1,2,0:0:0:0:
208,245,35246,2,0,P|197:288|193:333,1,90,2|4,0:0|3:0,0:0:0:0:
447,253,35554,2,0,P|443:208|431:164,1,90,8|0,0:0|0:0,0:0:0:0:
281,32,35862,6,0,P|304:118|316:207,1,180,4|8,3:0|0:0,0:0:0:0:
188,104,36323,1,4,3:0:0:0:
188,104,36400,1,2,0:0:0:0:
188,104,36477,1,0,0:0:0:0:
431,164,36631,1,4,3:0:0:0:
208,245,36785,1,8,0:0:0:0:
459,73,36939,6,0,P|521:136|508:220,1,180
281,32,37400,1,8,0:0:0:0:
208,245,37554,1,4,3:0:0:0:
208,245,37631,1,2,0:0:0:0:
208,245,37708,2,0,P|251:234|296:230,1,90,2|4,0:0|3:0,0:0:0:0:
483,321,38016,2,0,P|440:310|395:306,1,90,8|0,0:0|0:0,0:0:0:0:
101,181,38323,6,0,P|78:267|66:356,1,180,4|8,3:0|0:0,0:0:0:0:
314,324,38785,1,4,3:0:0:0:
314,324,38862,1,2,0:0:0:0:
314,324,38939,2,0,P|308:279|296:236,1,90,2|4,0:0|3:0,0:0:0:0:
184,343,39246,1,8,0:0:0:0:
14,88,39400,6,0,P|98:104|157:42,1,180
200,176,39862,1,8,0:0:0:0:
75,21,40016,1,4,3:0:0:0:
75,21,40093,1,2,0:0:0:0:
75,21,40170,1,2,0:0:0:0:
11,227,40323,1,4,3:0:0:0:
157,40,40477,1,8,0:0:0:0:
14,88,40631,1,0,0:0:0:0:
186,261,40785,6,0,P|202:220|199:175,1,90,4|0,3:0|0:0,0:0:0:0:
90,317,41093,1,8,0:0:0:0:
290,350,41246,2,0,P|333:337|377:332,1,90,4|0,3:0|0:0,0:0:0:0:
292,232,41554,1,4,3:0:0:0:
90,317,41708,1,8,0:0:0:0:
244,101,41862,1,2,0:0:0:0:
244,101,41939,1,2,0:0:0:0:
244,101,42016,6,0,P|298:91|351:86,1,90,4|0,3:0|0:0,0:0:0:0:
276,9,42323,1,8,0:0:0:0:
217,196,42477,2,0,P|305:178|394:168,1,180,4|4,3:0|3:0,0:0:0:0:
399,180,42939,1,4,3:0:0:0:
405,190,43246,6,0,P|395:244|390:297,1,80.9999975280763,4|0,0:0|0:0,0:0:0:0:
332,87,43554,1,8,0:0:0:0:
387,290,43708,1,4,3:0:0:0:
387,290,44016,1,4,3:0:0:0:
217,196,44170,2,0,P|177:188|137:182,1,80.9999975280763,8|0,0:0|0:0,0:0:0:0:
0,359,44477,6,0,P|55:304|133:316,1,161.999995056153,4|8,3:0|0:0,0:0:0:0:
133,316,44939,1,4,3:0:0:0:
217,196,45093,2,0,P|224:235|230:275,1,80.9999975280763,0|4,0:0|3:0,0:0:0:0:
381,275,45400,2,0,P|372:314|368:354,1,80.9999975280763,8|0,0:0|0:0,0:0:0:0:
406,166,45708,6,0,P|351:174|299:186,1,80.9999975280763,4|0,3:0|0:0,0:0:0:0:
488,243,46016,1,8,0:0:0:0:
299,188,46170,1,4,3:0:0:0:
299,188,46477,1,4,3:0:0:0:
449,96,46631,2,0,P|476:125|487:164,1,80.9999975280763,8|0,0:0|0:0,0:0:0:0:
260,275,46939,6,0,P|205:192|237:116,1,161.999995056153,4|8,3:0|0:0,0:0:0:0:
299,188,47400,1,4,3:0:0:0:
250,42,47554,2,0,P|210:33|170:30,1,80.9999975280763,0|4,0:0|3:0,0:0:0:0:
22,140,47862,2,0,P|61:131|101:127,1,80.9999975280763,8|0,0:0|0:0,0:0:0:0:
243,297,48170,6,0,P|234:216|218:137,1,161.999995056153,4|8,3:0|0:0,0:0:0:0:
131,236,48631,1,4,3:0:0:0:
131,236,48939,1,4,3:0:0:0:
340,287,49093,2,0,P|379:278|419:274,1,80.9999975280763,8|0,0:0|0:0,0:0:0:0:
507,95,49400,6,0,P|427:103|370:51,1,161.999995056153,4|8,3:0|0:0,0:0:0:0:
457,14,49862,1,4,3:0:0:0:
261,14,50016,2,0,P|252:53|248:93,1,80.9999975280763,0|4,0:0|3:0,0:0:0:0:
340,287,50323,2,0,P|335:246|327:207,1,80.9999975280763,8|0,0:0|0:0,0:0:0:0:
28,242,50631,6,0,P|107:225|187:217,1,161.999995056153,4|8,3:0|0:0,0:0:0:0:
39,148,51093,1,4,3:0:0:0:
95,317,51246,2,0,P|134:308|174:304,1,80.9999975280763,0|4,0:0|3:0,0:0:0:0:
406,220,51554,2,0,P|367:211|327:207,1,80.9999975280763,8|0,0:0|0:0,0:0:0:0:
99,23,51862,5,4,3:0:0:0:
185,217,52016,1,4,3:0:0:0:
185,217,52093,1,4,3:0:0:0:
185,217,52170,1,4,3:0:0:0:
182,81,52323,1,4,3:0:0:0:
31,241,52477,1,4,3:0:0:0:
260,263,52631,1,4,3:0:0:0:
116,132,52785,2,0,P|107:171|103:211,1,80.9999975280763,4|0,3:0|0:0,0:0:0:0:
256,146,53093,6,0,L|246:92,1,53.9999983520508,4|0,0:0|0:0,0:0:0:0:
340,21,53400,2,0,L|330:74,1,53.9999983520508
319,216,53708,2,0,P|272:241|217:232,1,107.999996704102,8|0,0:0|0:0,0:0:0:0:
256,146,54170,1,4,3:0:0:0:
382,286,54323,6,0,L|436:276,1,53.9999983520508,0|8,0:0|0:0,0:0:0:0:
319,356,54631,2,0,L|265:346,1,53.9999983520508,4|0,3:0|0:0,0:0:0:0:
148,285,54939,1,8,0:0:0:0:
148,286,55093,2,0,L|202:276,1,53.9999983520508,4|4,3:0|3:0,0:0:0:0:
265,205,55400,1,0,0:0:0:0:
155,92,55554,5,4,3:0:0:0:
156,92,55708,2,0,L|146:146,1,53.9999983520508,4|0,3:0|0:0,0:0:0:0:
72,73,56016,1,0,0:0:0:0:
224,16,56170,2,0,L|243:122,1,107.999996704102,8|0,0:0|0:0,0:0:0:0:
265,205,56631,1,4,3:0:0:0:
182,182,56785,5,0,0:0:0:0:
325,144,56939,2,0,P|346:178|351:204,1,53.9999983520508,8|4,0:0|3:0,0:0:0:0:
184,346,57246,1,4,3:0:0:0:
184,346,57298,1,4,3:0:0:0:
184,346,57349,1,4,3:0:0:0:
184,346,57400,1,8,0:0:0:0:
243,122,57554,1,8,0:0:0:0:
386,348,57708,1,4,3:0:0:0:
129,192,57862,1,4,3:0:0:0:
304,61,58016,6,0,P|358:51|411:46,1,80.9999975280763,4|0,0:0|0:0,0:0:0:0:
427,242,58324,2,0,P|373:232|320:227,1,80.9999975280763,8|0,0:0|0:0,0:0:0:0:
129,192,58631,1,4,3:0:0:0:
243,122,58785,1,4,3:0:0:0:
37,34,58939,2,0,P|29:73|23:113,1,80.9999975280763,8|0,0:0|0:0,0:0:0:0:
256,201,59246,6,0,P|250:160|242:121,1,80.9999975280763,4|4,3:0|3:0,0:0:0:0:
190,286,59554,1,8,0:0:0:0:
161,75,59708,2,0,P|220:23|298:35,1,161.999995056153,4|4,3:0|3:0,0:0:0:0:
393,16,60170,2,0,P|384:55|379:95,1,80.9999975280763,8|0,0:0|0:0,0:0:0:0:
349,314,60477,6,0,P|269:297|189:285,1,161.999995056153,4|4,0:0|3:0,0:0:0:0:
118,315,61016,1,4,3:0:0:0:
118,315,61093,1,8,0:0:0:0:
239,102,61554,5,4,3:0:0:0:
241,112,61631,1,4,3:0:0:0:
242,121,61708,2,0,P|250:160|256:200,2,80.9999975280763,8|8|8,0:0|0:0|0:0,0:0:0:0:
164,177,62323,1,0,0:0:0:0:
451,121,62477,5,0,0:0:0:0:
254,0,62631,1,0,0:0:0:0:
339,257,62785,1,2,0:0:0:0:
339,257,62862,1,2,0:0:0:0:
339,257,62939,6,0,P|291:245|242:239,1,99.0000030212403,4|2,0:0|0:0,0:0:0:0:
393,342,63246,1,4,3:0:0:0:
164,177,63400,2,0,P|152:225|146:274,1,99.0000030212403,2|4,0:0|3:0,0:0:0:0:
278,140,63708,1,2,0:0:0:0:
146,384,63862,1,4,3:0:0:0:
72,153,64016,1,2,0:0:0:0:
72,153,64093,1,2,0:0:0:0:
72,152,64170,6,0,P|97:110|139:86,1,99.0000030212403,4|2,3:0|0:0,0:0:0:0:
241,238,64477,1,4,3:0:0:0:
203,17,64631,2,0,P|220:38|231:61,1,49.5000015106202,2|0,0:0|0:0,0:0:0:0:
145,274,64785,2,0,P|97:262|48:256,1,99.0000030212403,4|2,3:0|0:0,0:0:0:0:
281,144,65093,2,0,P|328:131|377:125,1,99.0000030212403,4|2,3:0|0:0,0:0:0:0:
370,328,65400,5,4,3:0:0:0:
241,238,65554,1,2,0:0:0:0:
444,191,65708,2,0,P|468:148|468:99,1,99.0000030212403,4|2,3:0|0:0,0:0:0:0:
377,125,65939,1,2,0:0:0:0:
377,125,66015,1,4,3:0:0:0:
511,257,66170,1,2,0:0:0:0:
400,34,66323,1,4,3:0:0:0:
270,330,66477,6,0,P|207:257|112:264,1,198.000006042481,2|2,0:0|0:0,0:0:0:0:
0,109,66939,2,0,P|12:157|18:206,1,99.0000030212403,4|2,3:0|0:0,0:0:0:0:
155,88,67246,1,4,3:0:0:0:
172,364,67399,1,2,0:0:0:0:
172,364,67476,1,8,0:0:0:0:
172,364,67553,1,8,0:0:0:0:
315,181,67708,6,0,P|413:168|512:163,1,198.000006042481,4|2,0:0|0:0,0:0:0:0:
368,338,68170,2,0,P|318:331|269:329,1,99.0000030212403,4|2,3:0|0:0,0:0:0:0:
159,177,68477,2,0,P|165:225|168:275,1,99.0000030212403,4|2,3:0|0:0,0:0:0:0:
170,362,68708,1,2,0:0:0:0:
170,362,68785,1,8,0:0:0:0:
68,150,68939,6,0,P|136:84|227:111,1,198.000006042481,4|2,0:0|0:0,0:0:0:0:
168,275,69400,2,0,P|118:268|69:266,1,99.0000030212403,4|2,3:0|0:0,0:0:0:0:
269,197,69708,1,4,3:0:0:0:
170,362,69862,1,2,0:0:0:0:
170,362,69939,1,2,0:0:0:0:
170,362,70016,1,4,3:0:0:0:
68,150,70170,1,2,0:0:0:0:
336,263,70323,6,0,P|360:220|360:171,1,99.0000030212403,4|2,3:0|0:0,0:0:0:0:
249,10,70631,1,4,3:0:0:0:
68,150,70785,2,0,L|77:202,1,49.5000015106202,8|0,0:0|0:0,0:0:0:0:
157,159,70939,1,4,3:0:0:0:
344,311,71093,2,0,L|334:258,1,49.5000015106202,8|0,0:0|0:0,0:0:0:0:
255,302,71247,1,4,3:0:0:0:
345,69,71400,6,0,P|436:92|504:23,1,198.000006042481,4|2,0:0|0:0,0:0:0:0:
249,10,71862,2,0,P|237:58|231:107,1,99.0000030212403,4|2,3:0|0:0,0:0:0:0:
410,0,72170,1,4,3:0:0:0:
382,276,72323,5,8,0:0:0:0:
334,262,72399,1,8,0:0:0:0:
285,256,72477,2,0,P|261:250|236:246,1,49.5000015106202,4|0,3:0|0:0,0:0:0:0:
10,168,72631,1,8,0:0:0:0:
35,108,72707,1,8,0:0:0:0:
97,93,72785,6,0,P|113:139|123:188,1,99.0000030212403,4|2,0:0|0:0,0:0:0:0:
4,30,73093,1,4,3:0:0:0:
40,325,73246,2,0,P|88:313|137:307,1,99.0000030212403,2|4,0:0|3:0,0:0:0:0:
365,196,73554,1,2,0:0:0:0:
220,360,73708,1,4,3:0:0:0:
457,172,73862,1,2,0:0:0:0:
457,172,73939,1,2,0:0:0:0:
457,171,74016,6,0,P|432:129|390:105,1,99.0000030212403,4|2,3:0|0:0,0:0:0:0:
215,243,74323,1,4,3:0:0:0:
480,270,74477,2,0,P|456:264|431:261,1,49.5000015106202,2|0,0:0|0:0,0:0:0:0:
143,151,74632,2,0,P|190:139|240:132,1,99.0000030212403,4|2,3:0|0:0,0:0:0:0:
316,378,74940,2,0,P|268:366|218:359,1,99.0000030212403,4|2,3:0|0:0,0:0:0:0:
365,196,75246,5,4,3:0:0:0:
215,243,75400,1,2,0:0:0:0:
432,262,75554,2,0,P|456:219|456:170,1,99.0000030212403,4|2,3:0|0:0,0:0:0:0:
365,196,75785,1,2,0:0:0:0:
365,196,75861,1,4,3:0:0:0:
261,46,76016,1,2,0:0:0:0:
307,288,76170,1,4,3:0:0:0:
0,126,76323,6,0,P|98:113|197:108,1,198.000006042481,2|2,0:0|0:0,0:0:0:0:
447,24,76785,2,0,P|398:17|348:15,1,99.0000030212403,4|2,3:0|0:0,0:0:0:0:
307,288,77093,1,4,3:0:0:0:
261,46,77246,1,8,0:0:0:0:
261,46,77323,1,8,0:0:0:0:
261,46,77400,1,4,3:0:0:0:
22,258,77554,6,0,P|82:184|176:192,1,198.000006042481,4|2,0:0|0:0,0:0:0:0:
98,368,78016,2,0,P|49:361|-1:359,1,99.0000030212403,4|2,3:0|0:0,0:0:0:0:
193,208,78323,2,0,P|242:201|292:199,1,99.0000030212403,4|2,3:0|0:0,0:0:0:0:
364,232,78554,1,0,0:0:0:0:
364,232,78631,1,8,0:0:0:0:
39,61,78785,6,0,P|26:159|21:258,1,198.000006042481,2|2,0:0|0:0,0:0:0:0:
178,102,79246,2,0,P|202:59|199:6,1,99.0000030212403,4|2,3:0|0:0,0:0:0:0:
127,41,79477,1,2,0:0:0:0:
127,41,79554,1,4,3:0:0:0:
191,296,79708,1,2,0:0:0:0:
204,294,79785,1,2,0:0:0:0:
218,293,79862,1,4,3:0:0:0:
347,145,80016,2,0,L|274:135,1,49.5000015106202,2|0,0:0|0:0,0:0:0:0:
115,240,80170,5,4,3:0:0:0:
97,271,80246,1,10,0:0:0:0:
94,308,80323,1,10,0:0:0:0:
106,343,80400,1,10,0:0:0:0:
131,370,80477,1,4,3:0:0:0:
413,238,80631,2,0,L|340:228,1,49.5000015106202,8|0,0:0|0:0,0:0:0:0:
222,207,80785,1,4,3:0:0:0:
512,93,80939,2,0,L|439:83,1,49.5000015106202,8|0,0:0|0:0,0:0:0:0:
321,62,81093,1,4,3:0:0:0:
317,356,81246,6,0,P|418:334|513:329,1,198.000006042481,8|4,0:0|3:0,0:0:0:0:
319,220,81708,2,0,P|270:209|221:206,1,99.0000030212403,8|8,0:0|0:0,0:0:0:0:
151,263,82016,1,8,0:0:0:0:
135,281,82170,5,2,0:0:0:0:
133,176,82324,1,2,0:0:0:0:
131,71,82478,1,2,0:0:0:0:
386,154,82631,6,0,P|410:197|410:246,1,99.0000030212403,4|2,0:0|0:0,0:0:0:0:
259,113,82939,1,8,0:0:0:0:
218,367,83093,1,2,0:0:0:0:
218,367,83170,1,2,0:0:0:0:
218,367,83247,2,0,P|268:360|317:355,1,99.0000030212403,4|2,3:0|0:0,0:0:0:0:
319,220,83554,1,8,0:0:0:0:
46,133,83708,6,0,P|32:233|22:331,1,198.000006042481,2|2,0:0|0:0,0:0:0:0:
163,177,84170,2,0,P|170:227|175:276,1,99.0000030212403,8|2,0:0|0:0,0:0:0:0:
259,113,84477,1,4,3:0:0:0:
16,39,84631,1,2,0:0:0:0:
16,39,84708,1,2,0:0:0:0:
16,39,84785,1,8,0:0:0:0:
163,177,84939,1,2,0:0:0:0:
355,49,85093,6,0,P|402:36|449:48,1,99.0000030212403,4|2,3:0|0:0,0:0:0:0:
267,229,85400,1,8,0:0:0:0:
512,336,85554,1,2,0:0:0:0:
512,336,85631,1,2,0:0:0:0:
512,336,85708,2,0,P|506:286|500:237,1,99.0000030212403,4|2,3:0|0:0,0:0:0:0:
403,131,86016,1,8,0:0:0:0:
152,338,86170,6,0,P|215:267|308:287,1,198.000006042481,2|2,0:0|0:0,0:0:0:0:
403,131,86631,2,0,P|396:180|391:229,1,99.0000030212403,8|2,0:0|0:0,0:0:0:0:
265,119,86939,1,4,3:0:0:0:
244,359,87093,1,2,0:0:0:0:
244,359,87169,1,4,3:0:0:0:
244,359,87246,1,8,0:0:0:0:
340,48,87400,1,10,0:0:0:0:
163,177,87554,6,0,P|114:170|65:165,1,99.0000030212403,4|2,0:0|0:0,0:0:0:0:
242,19,87862,1,8,0:0:0:0:
415,222,88016,1,2,0:0:0:0:
415,222,88093,1,2,0:0:0:0:
415,222,88170,2,0,P|460:205|491:166,1,99.0000030212403,4|2,3:0|0:0,0:0:0:0:
340,48,88477,1,8,0:0:0:0:
299,332,88631,6,0,P|397:318|495:308,1,198.000006042481,2|2,0:0|0:0,0:0:0:0:
261,189,89093,2,0,P|212:182|163:177,1,99.0000030212403,8|2,0:0|0:0,0:0:0:0:
132,370,89400,1,4,3:0:0:0:
37,109,89554,1,2,0:0:0:0:
62,106,89631,1,2,0:0:0:0:
86,104,89708,1,8,0:0:0:0:
222,269,89862,1,2,0:0:0:0:
198,271,89939,1,8,0:0:0:0:
173,274,90016,6,0,P|123:279|74:286,1,99.0000030212403,4|2,3:0|0:0,0:0:0:0:
30,368,90246,1,2,0:0:0:0:
30,368,90323,1,8,0:0:0:0:
313,257,90477,1,2,0:0:0:0:
313,257,90554,1,2,0:0:0:0:
313,257,90631,2,0,P|296:212|257:181,1,99.0000030212403,4|2,3:0|0:0,0:0:0:0:
86,104,90939,1,8,0:0:0:0:
25,292,91093,6,0,P|123:278|221:268,1,198.000006042481,2|2,0:0|0:0,0:0:0:0:
301,308,91554,5,2,0:0:0:0:
299,203,91708,1,2,0:0:0:0:
297,98,91862,1,2,0:0:0:0:
