osu file format v14

[General]
AudioFilename: audio.mp3
AudioLeadIn: 0
PreviewTime: 62477
Countdown: 0
SampleSet: Soft
StackLeniency: 0.7
Mode: 0
LetterboxInBreaks: 0
WidescreenStoryboard: 1

[Editor]
Bookmarks: 23538,43230,62923,72769,82615
DistanceSpacing: 1.3
BeatDivisor: 4
GridSize: 32
TimelineZoom: 2.5

[Metadata]
Title:Ame to Petra
TitleUnicode:雨とペトラ
Artist:mafumafu
ArtistUnicode:まふまふ
Creator:Mafumafu
Version:Lobelia's Hard
Source:
Tags:regraz Lobelia abhor バルーン Balloon utaite vocaloid cover flower Logic Agent Logic_Agent gokugohan12468 kittyadventure japanese rock vocaloid utaite cover
BeatmapID:2431367
BeatmapSetID:1139958

[Difficulty]
HPDrainRate:5
CircleSize:3.4
OverallDifficulty:6
ApproachRate:8
SliderMultiplier:1.4
SliderTickRate:1

[Events]
//Background and Video events
0,0,"BG7.png",0,0
//Break Periods
//Storyboard Layer 0 (Background)
//Storyboard Layer 1 (Fail)
//Storyboard Layer 2 (Pass)
//Storyboard Layer 3 (Foreground)
//Storyboard Layer 4 (Overlay)
//Storyboard Sound Samples

[TimingPoints]
170,307.692307692308,4,2,1,48,1,0
3862,-100,4,2,1,60,0,0
6631,-100,4,2,1,60,0,0
10939,-100,4,2,1,60,0,0
16477,-100,4,2,1,60,0,0
20785,-100,4,2,1,60,0,0
23554,-125,4,2,1,40,0,0
26939,-125,4,2,1,40,0,0
33400,-100,4,2,1,50,0,0
43246,-100,4,2,1,50,0,0
53093,-111.111111111111,4,2,1,40,0,0
58016,-100,4,2,1,50,0,0
62939,-83.3333333333333,4,2,1,72,0,1
63246,-83.3333333333333,4,2,1,72,0,1
64477,-83.3333333333333,4,2,1,72,0,1
66016,-83.3333333333333,4,2,1,72,0,1
68477,-83.3333333333333,4,2,1,72,0,1
72170,-100,4,2,1,72,0,0
72785,-83.3333333333333,4,2,1,72,0,1
73093,-83.3333333333333,4,2,1,72,0,1
74323,-83.3333333333333,4,2,1,72,0,1
75862,-83.3333333333333,4,2,1,72,0,1
78323,-83.3333333333333,4,2,1,72,0,1
81554,-83.3333333333333,4,2,1,72,0,1
81862,-83.3333333333333,4,2,1,72,0,1
82631,-100,4,2,1,72,0,0
85400,-100,4,2,1,72,0,0
91093,-100,4,2,1,40,0,0

[Colours]
Combo1 : 190,124,124
Combo2 : 137,226,245
Combo3 : 0,128,192
Combo4 : 255,128,128

[HitObjects]
94,57,1400,6,0,L|109:210,1,140,6|2,0:0|0:0,0:0:0:0:
96,337,2016,2,0,B|130:342|130:342|162:325,1,70,2|2,0:0|0:0,0:0:0:0:
223,257,2323,1,10,0:0:0:0:
223,257,2477,6,0,B|253:281|257:327|257:327|281:341|328:336,1,140,4|2,3:0|0:0,0:0:0:0:
381,270,2939,2,0,P|414:278|448:269,2,70,2|2|2,0:0|0:0|0:0,0:0:0:0:
416,195,3400,1,0,0:0:0:0:
416,195,3554,2,0,P|419:155|432:117,1,70
298,68,3862,6,0,B|330:129|299:140|330:218,2,140,4|8|4,0:0|0:0|3:0,0:0:0:0:
162,111,4785,1,8,0:0:0:0:
162,111,4939,2,0,P|193:131|242:126,1,70,2|4,0:0|3:0,0:0:0:0:
105,40,5246,2,0,P|75:53|25:55,2,70,2|8|2,0:0|0:0|0:0,0:0:0:0:
219,49,5708,2,0,P|193:121|184:196,1,140,4|8,3:0|0:0,0:0:0:0:
172,338,6323,6,0,P|136:281|106:313,1,105,4|0,3:0|0:0,0:0:0:0:
94,314,6631,2,0,B|170:331|166:296|238:312,1,140,8|4,0:0|3:0,0:0:0:0:
314,277,7093,1,2,0:0:0:0:
305,356,7246,1,8,0:0:0:0:
232,310,7400,6,0,L|214:162,1,140,2|2,0:0|0:0,0:0:0:0:
274,107,7862,2,0,B|300:83|300:83|346:88,2,70,8|2|4,0:0|0:0|3:0,0:0:0:0:
215,171,8323,1,2,0:0:0:0:
139,130,8477,2,0,L|132:53,1,70,8|8,0:0|0:0,0:0:0:0:
130,39,8708,1,8,0:0:0:0:
128,39,8785,6,0,P|66:69|43:138,2,140,4|8|4,0:0|0:0|3:0,0:0:0:0:
213,58,9554,2,0,P|237:64|283:54,1,70,2|8,0:0|0:0,0:0:0:0:
368,46,9862,6,0,B|370:93|340:122|340:122|352:185,1,140,2|2,0:0|0:0,0:0:0:0:
402,243,10323,2,0,B|376:265|376:265|340:261,1,70,8|2,0:0|0:0,0:0:0:0:
267,214,10631,2,0,B|252:252|252:252|265:328,1,105,4|0,3:0|0:0,0:0:0:0:
266,336,10939,2,0,P|226:316|171:312,1,70,8|2,0:0|0:0,0:0:0:0:
75,350,11246,6,0,B|102:343|102:343|83:220,2,140,4|8|4,3:0|0:0|3:0,0:0:0:0:
7,295,12016,2,0,L|-3:218,1,70,2|8,0:0|0:0,0:0:0:0:
49,153,12323,1,2,0:0:0:0:
49,153,12400,1,0,0:0:0:0:
49,153,12477,6,0,P|85:146|131:159,1,70,4|4,3:0|3:0,0:0:0:0:
137,160,12708,1,4,3:0:0:0:
154,172,12785,2,0,L|143:98,2,70,4|8|4,3:0|0:0|3:0,0:0:0:0:
227,215,13246,1,8,0:0:0:0:
310,194,13400,2,0,P|313:230|294:269,1,70,4|8,3:0|0:0,0:0:0:0:
287,277,13631,1,8,0:0:0:0:
269,288,13708,6,0,L|410:277,2,140,4|8|4,0:0|0:0|3:0,0:0:0:0:
212,352,14477,2,0,P|177:357|138:337,1,70,2|8,0:0|0:0,0:0:0:0:
97,274,14785,6,0,B|79:286|69:310|69:310|56:207,1,140,2|2,0:0|0:0,0:0:0:0:
42,134,15246,1,8,0:0:0:0:
130,172,15400,1,2,0:0:0:0:
130,172,15477,1,0,0:0:0:0:
130,172,15554,2,0,B|203:188|201:147|276:172,1,140,4|8,3:0|0:0,0:0:0:0:
354,202,16016,1,2,0:0:0:0:
291,324,16170,6,0,P|235:307|237:248,1,105,4|0,3:0|0:0,0:0:0:0:
231,246,16477,2,0,P|225:289|129:325,1,140,8|4,0:0|3:0,0:0:0:0:
71,289,16939,2,0,L|59:214,1,70,2|8,0:0|0:0,0:0:0:0:
42,109,17246,5,2,0:0:0:0:
42,109,17554,1,2,0:0:0:0:
114,154,17708,2,0,P|150:158|184:143,2,70,8|2|4,0:0|0:0|3:0,0:0:0:0:
138,75,18170,1,2,0:0:0:0:
226,72,18323,1,8,0:0:0:0:
268,147,18477,1,2,0:0:0:0:
349,174,18631,6,0,P|381:172|402:72,2,140,4|8|4,0:0|0:0|3:0,0:0:0:0:
268,147,19400,2,0,P|261:181|281:226,1,70,2|8,0:0|0:0,0:0:0:0:
381,284,19708,6,0,B|340:284|340:284|284:303|284:303|239:300,1,140,2|2,0:0|0:0,0:0:0:0:
162,336,20170,2,0,L|157:252,1,70,8|2,0:0|0:0,0:0:0:0:
75,249,20477,2,0,L|82:365,1,105,4|0,3:0|0:0,0:0:0:0:
83,375,20785,2,0,P|41:361|23:333,1,70,8|2,0:0|0:0,0:0:0:0:
10,188,21093,6,0,P|59:164|143:195,2,140,4|8|4,3:0|0:0|3:0,0:0:0:0:
13,79,21862,2,0,P|36:79|92:56,1,70,2|8,0:0|0:0,0:0:0:0:
184,41,22170,6,0,L|192:120,1,70,2|4,0:0|3:0,0:0:0:0:
281,144,22477,1,8,0:0:0:0:
281,144,22554,1,8,0:0:0:0:
281,144,22631,2,0,L|274:66,1,70,8|2,0:0|0:0,0:0:0:0:
361,118,22939,5,4,3:0:0:0:
410,186,23093,1,2,0:0:0:0:
361,254,23247,1,8,0:0:0:0:
281,228,23400,1,0,0:0:0:0:
281,144,23554,6,0,P|234:138|163:148,1,112,4|4,0:0|3:0,0:0:0:0:
120,213,24016,1,0,0:0:0:0:
120,213,24170,2,0,P|63:219|8:207,1,112,4|4,3:0|3:0,0:0:0:0:
14,343,24785,6,0,P|27:303|82:322,1,112,4|4,3:0|3:0,0:0:0:0:
154,359,25246,1,0,0:0:0:0:
154,359,25400,2,0,P|200:366|265:350,1,112,4|4,3:0|3:0,0:0:0:0:
336,310,25862,1,0,0:0:0:0:
402,358,26016,6,0,P|420:311|390:248,1,112,4|4,3:0|3:0,0:0:0:0:
319,228,26477,1,0,0:0:0:0:
319,228,26631,2,0,L|325:123,1,84,4|0,3:0|0:0,0:0:0:0:
302,125,26939,2,0,L|222:118,1,56,4|0,3:0|0:0,0:0:0:0:
223,227,27246,5,4,3:0:0:0:
223,227,27400,2,0,P|188:235|159:228,1,56,0|4,0:0|3:0,0:0:0:0:
109,175,27708,2,0,L|118:299,1,112,0|8,0:0|0:0,0:0:0:0:
121,314,28093,2,0,L|83:320,1,28,8|4,0:0|3:0,0:0:0:0:
255,346,28477,5,4,3:0:0:0:
255,346,28785,2,0,P|285:351|317:349,1,56,4|0,3:0|0:0,0:0:0:0:
397,340,29093,2,0,P|395:293|376:221,1,112,4|4,3:0|3:0,0:0:0:0:
290,217,29554,6,0,P|287:189|296:161,1,56,0|4,0:0|3:0,0:0:0:0:
374,119,29862,1,0,0:0:0:0:
295,75,30016,2,0,L|285:17,2,56,4|0|4,3:0|0:0|3:0,0:0:0:0:
478,127,30631,2,0,L|465:198,1,56,4|0,3:0|0:0,0:0:0:0:
454,266,30939,6,0,P|405:279|346:236,1,112,4|4,3:0|3:0,0:0:0:0:
273,228,31400,2,0,L|288:339,1,112
204,319,31862,1,4,3:0:0:0:
204,319,32016,6,0,L|195:252,1,56,2|4,0:0|3:0,0:0:0:0:
118,302,32323,2,0,P|92:309|49:300,1,56,2|4,0:0|3:0,0:0:0:0:
88,220,32631,1,8,0:0:0:0:
88,220,32708,1,8,0:0:0:0:
88,220,32785,1,4,3:0:0:0:
126,37,33400,6,0,P|125:100|186:144,1,140,4|8,0:0|0:0,0:0:0:0:
202,65,33862,2,0,P|235:53|270:57,1,70,4|0,3:0|0:0,0:0:0:0:
334,118,34170,1,4,3:0:0:0:
334,118,34323,2,0,P|372:123|412:110,1,70,8|0,0:0|0:0,0:0:0:0:
479,62,34631,6,0,L|483:-7,2,46.6666666666667,4|0|0,3:0|0:0|0:0,0:0:0:0:
501,103,34939,1,8,0:0:0:0:
510,208,35093,2,0,B|438:192|444:230|373:213,1,140,4|4,3:0|3:0,0:0:0:0:
293,173,35554,2,0,L|298:93,1,70,8|0,0:0|0:0,0:0:0:0:
220,59,35862,6,0,L|208:209,1,140,4|8,3:0|0:0,0:0:0:0:
203,280,36323,2,0,P|168:274|142:251,1,70,4|0,3:0|0:0,0:0:0:0:
92,187,36631,1,4,3:0:0:0:
92,187,36785,2,0,P|67:213|58:253,1,70,8|0,0:0|0:0,0:0:0:0:
42,351,37093,6,0,L|113:341,1,70,4|0,3:0|0:0,0:0:0:0:
188,299,37400,2,0,L|264:337,1,70,8|4,0:0|3:0,0:0:0:0:
332,364,37708,2,0,L|401:345,1,70,0|4,0:0|3:0,0:0:0:0:
497,360,38016,2,0,B|486:304|486:304|489:279|489:279|480:213,1,140,8|4,0:0|3:0,0:0:0:0:
343,45,38631,5,8,0:0:0:0:
343,45,38785,2,0,P|335:77|346:117,1,70,4|0,3:0|0:0,0:0:0:0:
437,112,39093,1,4,3:0:0:0:
437,112,39246,2,0,P|445:78|437:44,1,70,8|0,0:0|0:0,0:0:0:0:
343,196,39554,6,0,L|286:204,2,46.6666666666667,4|0|0,3:0|0:0|0:0,0:0:0:0:
387,209,39862,1,8,0:0:0:0:
452,297,40016,2,0,P|388:322|333:277,1,140,4|4,3:0|3:0,0:0:0:0:
250,276,40477,1,8,0:0:0:0:
250,276,40631,1,0,0:0:0:0:
182,334,40785,6,0,P|161:280|203:202,1,140,4|8,3:0|0:0,0:0:0:0:
277,174,41246,2,0,L|262:90,1,70,4|0,3:0|0:0,0:0:0:0:
366,58,41554,1,4,3:0:0:0:
366,58,41708,2,0,L|358:135,1,70,8|0,0:0|0:0,0:0:0:0:
453,54,42016,6,0,B|465:113|465:113|459:148|459:148|469:192,1,140,4|8,3:0|0:0,0:0:0:0:
487,278,42477,1,4,3:0:0:0:
487,278,42785,1,4,3:0:0:0:
395,338,42939,2,0,P|373:347|325:331,1,70,4|0,3:0|0:0,0:0:0:0:
323,248,43246,6,0,P|290:237|253:323,1,140,4|8,0:0|0:0,0:0:0:0:
329,335,43708,1,4,3:0:0:0:
245,312,43862,2,0,L|234:243,1,70,0|4,0:0|3:0,0:0:0:0:
197,168,44170,2,0,L|210:252,1,70,8|0,0:0|0:0,0:0:0:0:
130,311,44477,6,0,B|102:313|78:298|78:298|92:208,1,140,4|8,3:0|0:0,0:0:0:0:
105,131,44939,1,4,3:0:0:0:
156,55,45093,2,0,P|100:40|26:82,1,140,0|8,0:0|0:0,0:0:0:0:
288,99,45708,6,0,P|325:111|375:27,1,140,4|8,3:0|0:0,0:0:0:0:
299,17,46170,1,4,3:0:0:0:
379,41,46323,2,0,L|387:111,1,70,0|4,0:0|3:0,0:0:0:0:
419,184,46631,2,0,L|412:109,1,70,8|0,0:0|0:0,0:0:0:0:
447,265,46939,6,0,B|376:281|382:237|296:253,1,140,4|8,3:0|0:0,0:0:0:0:
270,318,47400,2,0,L|285:166,1,140,4|4,3:0|3:0,0:0:0:0:
337,114,47862,2,0,B|308:90|308:90|267:96,1,70,8|0,0:0|0:0,0:0:0:0:
177,206,48170,6,0,B|200:194|200:194|184:68,1,140,4|8,3:0|0:0,0:0:0:0:
106,54,48631,1,4,3:0:0:0:
57,122,48785,2,0,L|67:199,1,70,0|4,0:0|3:0,0:0:0:0:
55,272,49093,2,0,L|43:191,1,70,8|0,0:0|0:0,0:0:0:0:
103,340,49400,6,0,B|127:326|136:301|136:301|165:334|223:333,1,140,4|8,3:0|0:0,0:0:0:0:
294,291,49862,1,4,3:0:0:0:
376,256,50016,2,0,P|383:292|373:333,2,70,0|4|8,0:0|3:0|0:0,0:0:0:0:
293,93,50631,6,0,B|341:101|341:101|388:93|388:93|435:98,1,140,4|8,3:0|0:0,0:0:0:0:
341,19,51093,1,4,3:0:0:0:
208,61,51246,2,0,P|203:93|213:140,1,70,0|4,0:0|3:0,0:0:0:0:
303,209,51554,2,0,L|229:207,1,70,8|0,0:0|0:0,0:0:0:0:
145,206,51862,5,4,3:0:0:0:
104,288,52016,1,4,3:0:0:0:
104,288,52093,1,4,3:0:0:0:
104,288,52170,2,0,L|111:357,1,70,4|4,3:0|3:0,0:0:0:0:
210,364,52477,2,0,L|201:288,1,70,4|4,3:0|3:0,0:0:0:0:
307,312,52785,1,4,3:0:0:0:
307,312,53093,6,0,B|371:309|378:343|442:338,1,125.999996154785,4|0,0:0|0:0,0:0:0:0:
477,272,53554,1,0,0:0:0:0:
437,200,53708,2,0,L|439:122,1,62.9999980773926,8|0,0:0|0:0,0:0:0:0:
344,147,54016,2,0,L|353:226,1,62.9999980773926,0|4,0:0|3:0,0:0:0:0:
275,231,54323,5,0,0:0:0:0:
275,231,54631,1,4,3:0:0:0:
122,171,54939,2,0,L|129:95,2,62.9999980773926,8|4|4,0:0|3:0|3:0,0:0:0:0:
174,324,55554,6,0,P|237:344|278:297,1,125.999996154785,4|0,3:0|0:0,0:0:0:0:
277,224,56016,1,0,0:0:0:0:
296,144,56170,2,0,L|370:162,1,62.9999980773926,8|0,0:0|0:0,0:0:0:0:
300,53,56477,2,0,L|215:76,1,62.9999980773926,0|4,0:0|3:0,0:0:0:0:
161,84,56785,5,0,0:0:0:0:
161,84,56939,1,8,0:0:0:0:
76,70,57093,2,0,P|42:59|-2:66,1,62.9999980773926,4|4,3:0|3:0,0:0:0:0:
3,149,57400,2,0,P|12:184|3:220,1,62.9999980773926,8|8,0:0|0:0,0:0:0:0:
13,292,57708,2,0,L|87:285,1,62.9999980773926,4|4,3:0|3:0,0:0:0:0:
211,253,58016,6,0,B|287:276|252:314|320:337,1,140,4|8,0:0|0:0,0:0:0:0:
480,274,58631,2,0,L|487:186,2,70,4|4|8,3:0|3:0|0:0,0:0:0:0:
396,111,59246,6,0,L|403:185,1,70,4|4,3:0|3:0,0:0:0:0:
346,248,59554,1,8,0:0:0:0:
284,305,59708,2,0,B|257:283|257:283|271:165,1,140,4|4,3:0|3:0,0:0:0:0:
279,67,60170,2,0,P|251:73|207:96,1,70,8|0,0:0|0:0,0:0:0:0:
153,195,60477,6,0,B|209:125|227:-9|6:-8|-27:93|48:198,1,420,4|0,0:0|0:0,0:0:0:0:
149,328,61708,6,0,L|40:321,2,105,8|8|8,0:0|0:0|0:0,0:0:0:0:
233,335,62323,5,0,0:0:0:0:
233,335,62477,2,0,P|280:327|247:256,1,140
179,224,62939,6,0,L|197:80,1,125.999996154785,4|0,0:0|0:0,0:0:0:0:
197,74,63246,1,4,3:0:0:0:
252,4,63400,2,0,P|277:36|279:91,1,83.9999974365235,2|4,0:0|3:0,0:0:0:0:
271,202,63708,1,2,0:0:0:0:
179,224,63862,2,0,L|94:214,1,83.9999974365235,4|2,3:0|0:0,0:0:0:0:
25,328,64170,6,0,L|154:310,1,125.999996154785,4|0,3:0|0:0,0:0:0:0:
175,307,64477,2,0,P|185:342|229:375,1,83.9999974365235,4|2,3:0|0:0,0:0:0:0:
304,360,64785,2,0,P|382:350|419:265,1,167.999994873047,4|4,3:0|3:0,0:0:0:0:
480,123,65400,6,0,L|396:135,1,83.9999974365235,4|2,3:0|0:0,0:0:0:0:
322,182,65708,2,0,B|278:192|241:159|241:159|195:176,1,125.999996154785,4|0,3:0|0:0,0:0:0:0:
181,180,66016,2,0,L|188:71,2,83.9999974365235,4|2|4,3:0|0:0|3:0,0:0:0:0:
82,208,66477,6,0,B|88:314|88:314|138:355,1,167.999994873047,2|2,0:0|0:0,0:0:0:0:
198,296,66939,1,4,3:0:0:0:
268,341,67093,1,2,0:0:0:0:
316,272,67246,2,0,L|406:265,1,83.9999974365235,4|2,3:0|0:0,0:0:0:0:
425,263,67477,1,8,0:0:0:0:
450,261,67554,1,8,0:0:0:0:
487,346,67708,6,0,L|494:171,1,167.999994873047,4|2,0:0|0:0,0:0:0:0:
486,93,68170,2,0,B|418:93|435:149|366:145,1,125.999996154785,4|0,3:0|0:0,0:0:0:0:
352,139,68477,2,0,L|362:49,1,83.9999974365235,4|2,3:0|0:0,0:0:0:0:
284,19,68785,1,8,0:0:0:0:
251,122,68939,6,0,P|175:93|130:154,1,167.999994873047,4|2,0:0|0:0,0:0:0:0:
133,237,69400,2,0,L|240:228,1,83.9999974365235,4|2,3:0|0:0,0:0:0:0:
301,225,69708,1,4,3:0:0:0:
433,328,70016,1,4,3:0:0:0:
355,359,70170,1,2,0:0:0:0:
355,359,70246,1,2,0:0:0:0:
355,359,70323,6,0,B|294:351|294:351|251:329|251:329|186:322,1,167.999994873047,4|4,3:0|3:0,0:0:0:0:
108,316,70785,1,8,0:0:0:0:
29,345,70939,2,0,P|25:296|43:262,1,83.9999974365235,4|8,3:0|0:0,0:0:0:0:
161,246,71246,1,4,3:0:0:0:
38,239,71400,6,0,B|29:119|29:119|61:76,1,167.999994873047,4|2,0:0|0:0,0:0:0:0:
88,1,71862,2,0,B|125:18|125:18|140:58,1,83.9999974365235,4|2,3:0|0:0,0:0:0:0:
213,149,72170,2,0,L|229:53,1,70,4|8,3:0|0:0,0:0:0:0:
319,142,72477,2,0,L|309:67,1,70,4|8,3:0|0:0,0:0:0:0:
311,51,72708,1,8,0:0:0:0:
326,37,72785,6,0,P|392:19|439:68,1,125.999996154785,4|0,0:0|0:0,0:0:0:0:
444,74,73093,1,4,3:0:0:0:
475,156,73246,2,0,P|431:164|389:140,1,83.9999974365235,2|4,0:0|3:0,0:0:0:0:
312,159,73554,1,2,0:0:0:0:
240,202,73708,2,0,L|249:292,1,83.9999974365235,4|2,3:0|0:0,0:0:0:0:
172,337,74016,6,0,P|139:330|92:239,1,125.999996154785,4|0,3:0|0:0,0:0:0:0:
87,233,74323,2,0,P|78:284|43:322,1,83.9999974365235,4|2,3:0|0:0,0:0:0:0:
10,179,74631,2,0,B|1:47|1:47|30:16,1,167.999994873047,4|4,3:0|3:0,0:0:0:0:
181,84,75246,6,0,P|219:91|261:66,1,83.9999974365235,4|2,3:0|0:0,0:0:0:0:
335,22,75554,2,0,B|363:72|333:122|333:122|363:143,1,125.999996154785,4|0,3:0|0:0,0:0:0:0:
357,158,75862,2,0,P|397:145|437:160,2,83.9999974365235,4|2|4,3:0|0:0|3:0,0:0:0:0:
330,245,76323,6,0,B|301:235|285:213|285:213|234:268|154:233,1,167.999994873047,2|2,0:0|0:0,0:0:0:0:
105,214,76785,1,4,3:0:0:0:
130,134,76939,1,2,0:0:0:0:
210,163,77093,2,0,L|204:64,1,83.9999974365235,4|8,3:0|0:0,0:0:0:0:
203,54,77323,1,8,0:0:0:0:
202,29,77400,1,4,3:0:0:0:
291,71,77554,6,0,B|349:90|349:90|401:48|469:76,1,167.999994873047,4|2,0:0|0:0,0:0:0:0:
417,147,78016,2,0,B|433:200|405:218|432:310,1,125.999996154785,4|0,3:0|0:0,0:0:0:0:
431,296,78323,2,0,P|481:290|513:265,1,83.9999974365235,4|2,3:0|0:0,0:0:0:0:
355,344,78631,1,4,3:0:0:0:
247,267,78785,6,0,B|199:246|139:241|139:241|86:269,1,167.999994873047,2|2,0:0|0:0,0:0:0:0:
159,331,79246,1,4,3:0:0:0:
258,350,79400,1,2,0:0:0:0:
258,350,79477,1,0,0:0:0:0:
258,350,79554,2,0,P|295:338|326:287,2,83.9999974365235,4|2|4,3:0|0:0|3:0,0:0:0:0:
159,331,80016,1,2,0:0:0:0:
81,241,80170,6,0,L|80:187,4,41.9999987182618,8|8|8|8|8,0:0|0:0|0:0|0:0|0:0,0:0:0:0:
25,132,80631,2,0,P|63:113|111:118,1,83.9999974365235,8|4,0:0|3:0,0:0:0:0:
224,68,80939,1,8,0:0:0:0:
224,68,81246,6,0,L|235:205,1,125.999996154785,8|0,0:0|0:0,0:0:0:0:
240,235,81554,2,0,P|282:248|366:218,1,125.999996154785,4|0,3:0|0:0,0:0:0:0:
392,199,81862,1,8,0:0:0:0:
438,84,82016,1,8,0:0:0:0:
489,150,82170,6,0,P|494:179|487:242,2,83.9999974365235,2|2|2,0:0|0:0|0:0,0:0:0:0:
424,61,82631,6,0,L|281:51,2,140,4|8|4,0:0|0:0|3:0,0:0:0:0:
279,147,83554,1,8,0:0:0:0:
279,147,83708,2,0,P|234:155|198:181,1,70,2|4,0:0|3:0,0:0:0:0:
139,208,84016,1,2,0:0:0:0:
139,208,84170,2,0,P|108:203|69:179,1,70,8|2,0:0|0:0,0:0:0:0:
20,120,84477,2,0,L|39:282,1,140,4|8,3:0|0:0,0:0:0:0:
168,364,85093,6,0,P|178:308|234:320,1,105,4|0,3:0|0:0,0:0:0:0:
257,320,85400,2,0,B|262:261|241:227|241:227|248:168,1,140,8|4,0:0|3:0,0:0:0:0:
263,100,85862,1,2,0:0:0:0:
326,154,86016,1,8,0:0:0:0:
246,183,86170,6,0,B|143:196|143:196|97:169,1,140,2|2,0:0|0:0,0:0:0:0:
33,147,86631,2,0,L|45:67,2,70,8|2|4,0:0|0:0|3:0,0:0:0:0:
42,231,87093,1,2,0:0:0:0:
42,231,87170,1,4,3:0:0:0:
42,231,87246,2,0,L|32:304,1,70,8|10,0:0|0:0,0:0:0:0:
104,345,87554,6,0,B|153:354|153:354|194:335|194:335|250:345,2,140,4|8|4,0:0|0:0|3:0,0:0:0:0:
138,268,88323,2,0,L|129:186,1,70,2|8,0:0|0:0,0:0:0:0:
88,126,88631,6,0,P|150:116|209:173,1,140,2|2,0:0|0:0,0:0:0:0:
239,240,89093,1,8,0:0:0:0:
321,247,89246,1,2,0:0:0:0:
378,308,89400,2,0,L|354:147,1,140,4|8,3:0|0:0,0:0:0:0:
390,91,89862,1,2,0:0:0:0:
390,91,89939,1,8,0:0:0:0:
390,91,90016,6,0,P|418:106|440:152,1,70,4|2,3:0|0:0,0:0:0:0:
477,219,90323,2,0,L|468:291,1,70,8|2,0:0|0:0,0:0:0:0:
379,330,90631,2,0,P|325:361|255:318,1,140,4|8,3:0|0:0,0:0:0:0:
244,243,91093,5,2,0:0:0:0:
244,243,91400,1,2,0:0:0:0:
168,206,91554,1,2,0:0:0:0:
84,216,91708,1,2,0:0:0:0:
33,283,91862,1,2,0:0:0:0:
