osu file format v14

[General]
AudioFilename: audio.mp3
AudioLeadIn: 0
PreviewTime: 62477
Countdown: 0
SampleSet: Soft
StackLeniency: 0.7
Mode: 0
LetterboxInBreaks: 0
WidescreenStoryboard: 1

[Editor]
Bookmarks: 23538,43230,62923,72769,82615
DistanceSpacing: 1.4
BeatDivisor: 4
GridSize: 32
TimelineZoom: 1.8

[Metadata]
Title:Ame to Petra
TitleUnicode:雨とペトラ
Artist:mafumafu
ArtistUnicode:まふまふ
Creator:Mafumafu
Version:Insane
Source:
Tags:regraz Lobelia abhor バルーン Balloon utaite vocaloid cover flower Logic Agent Logic_Agent gokugohan12468 kittyadventure japanese rock vocaloid utaite cover
BeatmapID:2386354
BeatmapSetID:1139958

[Difficulty]
HPDrainRate:5.5
CircleSize:4.3
OverallDifficulty:8
ApproachRate:9
SliderMultiplier:1.6
SliderTickRate:1

[Events]
//Background and Video events
0,0,"BG7.png",0,0
//Break Periods
//Storyboard Layer 0 (Background)
//Storyboard Layer 1 (Fail)
//Storyboard Layer 2 (Pass)
//Storyboard Layer 3 (Foreground)
//Storyboard Layer 4 (Overlay)
//Storyboard Sound Samples

[TimingPoints]
170,307.692307692308,4,2,1,48,1,0
1400,-111.111111111111,4,2,1,48,0,0
3862,-90.9090909090908,4,2,1,60,0,0
23554,-111.111111111111,4,2,1,40,0,0
32785,-166.666666666667,4,2,1,40,0,0
33400,-100,4,2,1,50,0,0
43246,-111.111111111111,4,2,1,50,0,0
53093,-166.666666666667,4,2,1,40,0,0
57093,-111.111111111111,4,2,1,50,0,0
60477,-166.666666666667,4,2,1,50,0,0
62939,-90.9090909090909,4,2,1,72,0,1
63169,-90.9090909090909,4,2,1,72,0,1
63246,-90.9090909090909,4,2,1,72,0,1
65015,-90.9090909090909,4,2,1,72,0,1
65093,-90.9090909090909,4,2,1,72,0,1
69169,-90.9090909090909,4,2,1,72,0,1
69246,-90.9090909090909,4,2,1,72,0,1
72170,-90.9090909090909,4,2,1,72,0,0
72785,-90.9090909090909,4,2,1,72,0,1
73015,-90.9090909090909,4,2,1,72,0,1
73093,-90.9090909090909,4,2,1,72,0,1
74246,-90.9090909090909,4,2,1,72,0,1
74323,-90.9090909090909,4,2,1,72,0,1
74861,-90.9090909090909,4,2,1,72,0,1
74939,-90.9090909090909,4,2,1,72,0,1
77784,-90.9090909090909,4,2,1,72,0,1
77862,-90.9090909090909,4,2,1,72,0,1
78553,-90.9090909090909,4,2,1,72,0,1
78631,-90.9090909090909,4,2,1,72,0,1
79015,-90.9090909090909,4,2,1,72,0,1
79093,-90.9090909090909,4,2,1,72,0,1
80861,-90.9090909090909,4,2,1,72,0,1
80939,-90.9090909090909,4,2,1,72,0,1
81169,-90.9090909090909,4,2,1,72,0,1
81246,-90.9090909090909,4,2,1,72,0,1
82631,-90.9090909090909,4,2,1,72,0,0
85323,-90.9090909090909,4,2,1,72,0,0
85400,-90.9090909090909,4,2,1,72,0,0
91093,-90.9090909090909,4,2,1,40,0,0

[Colours]
Combo1 : 190,124,124
Combo2 : 137,226,245
Combo3 : 0,128,192
Combo4 : 255,128,128

[HitObjects]
72,165,3862,6,0,P|141:141|269:181,2,176.000005371094,4|8|4,0:0|0:0|3:0,0:0:0:0:
60,190,4785,1,8,0:0:0:0:
60,190,4939,2,0,L|50:5,1,176.000005371094,2|2,0:0|0:0,0:0:0:0:
217,40,5400,2,0,L|97:47,1,88.000002685547,8|2,0:0|0:0,0:0:0:0:
295,90,5708,2,0,P|344:90|377:54,1,88.000002685547,4|2,3:0|0:0,0:0:0:0:
400,45,5939,1,0,0:0:0:0:
400,45,6016,2,0,L|408:157,1,88.000002685547,8|2,0:0|0:0,0:0:0:0:
287,188,6323,6,0,P|213:170|129:251,2,176.000005371094,4|8|4,3:0|0:0|3:0,0:0:0:0:
313,213,7246,1,8,0:0:0:0:
313,213,7400,2,0,L|295:18,1,176.000005371094,2|2,0:0|0:0,0:0:0:0:
464,53,7862,2,0,L|370:64,1,88.000002685547,8|2,0:0|0:0,0:0:0:0:
223,79,8170,1,4,3:0:0:0:
114,91,8323,1,2,0:0:0:0:
123,202,8477,1,8,0:0:0:0:
232,190,8630,1,8,0:0:0:0:
232,190,8708,1,8,0:0:0:0:
232,190,8785,6,0,P|295:212|242:275,2,176.000005371094,4|8|4,0:0|0:0|3:0,0:0:0:0:
249,198,9708,1,8,0:0:0:0:
249,198,9862,2,0,P|330:187|355:88,1,176.000005371094,2|2,0:0|0:0,0:0:0:0:
276,34,10323,2,0,P|273:98|292:143,1,88.000002685547,8|2,0:0|0:0,0:0:0:0:
441,121,10631,2,0,P|450:78|444:34,1,88.000002685547,4|2,3:0|0:0,0:0:0:0:
286,108,10939,2,0,L|173:101,1,88.000002685547,8|2,0:0|0:0,0:0:0:0:
154,244,11246,6,0,P|178:157|146:66,2,176.000005371094,4|8|4,3:0|0:0|3:0,0:0:0:0:
121,245,12170,1,8,0:0:0:0:
121,245,12323,2,0,P|196:225|267:309,1,176.000005371094,2|4,0:0|3:0,0:0:0:0:
246,313,12708,1,4,3:0:0:0:
246,313,12785,2,0,L|144:314,1,88.000002685547,4|8,3:0|0:0,0:0:0:0:
346,252,13093,1,4,3:0:0:0:
338,342,13246,1,8,0:0:0:0:
447,252,13400,1,4,3:0:0:0:
439,346,13554,1,8,0:0:0:0:
439,346,13631,1,8,0:0:0:0:
439,346,13708,6,0,P|360:329|263:352,2,176.000005371094,4|8|4,0:0|0:0|3:0,0:0:0:0:
416,354,14631,1,8,0:0:0:0:
416,354,14785,2,0,P|448:237|410:166,1,176.000005371094,2|2,0:0|0:0,0:0:0:0:
269,170,15246,2,0,P|327:171|365:150,1,88.000002685547,8|2,0:0|0:0,0:0:0:0:
422,109,15554,1,4,3:0:0:0:
197,37,15862,2,0,L|200:162,1,88.000002685547,8|2,0:0|0:0,0:0:0:0:
55,159,16170,6,0,P|154:123|232:173,2,176.000005371094,4|8|4,3:0|0:0|3:0,0:0:0:0:
57,185,17093,1,8,0:0:0:0:
57,185,17246,2,0,P|26:100|60:0,1,176.000005371094,2|2,0:0|0:0,0:0:0:0:
211,42,17708,2,0,L|85:49,1,88.000002685547,8|2,0:0|0:0,0:0:0:0:
286,80,18016,1,4,3:0:0:0:
291,184,18170,1,2,0:0:0:0:
411,178,18323,1,8,0:0:0:0:
406,74,18477,1,2,0:0:0:0:
291,184,18631,6,0,P|212:202|145:115,2,176.000005371094,4|8|4,0:0|0:0|3:0,0:0:0:0:
301,157,19554,1,8,0:0:0:0:
301,157,19708,2,0,L|309:374,1,176.000005371094,2|2,0:0|0:0,0:0:0:0:
463,190,20170,2,0,P|413:184|376:200,1,88.000002685547,8|2,0:0|0:0,0:0:0:0:
271,81,20477,2,0,P|321:75|358:91,1,88.000002685547,4|2,3:0|0:0,0:0:0:0:
217,148,20785,1,8,0:0:0:0:
217,148,21093,6,0,P|142:130|19:161,2,176.000005371094,4|8|4,3:0|0:0|3:0,0:0:0:0:
226,166,22016,1,8,0:0:0:0:
226,166,22170,2,0,L|222:369,1,176.000005371094,2|8,0:0|0:0,0:0:0:0:
259,364,22554,1,8,0:0:0:0:
259,364,22631,1,8,0:0:0:0:
333,270,22785,1,2,0:0:0:0:
130,290,22939,2,0,L|17:296,2,88.000002685547,4|2|8,3:0|0:0|0:0,0:0:0:0:
333,270,23400,1,0,0:0:0:0:
149,300,23554,6,0,L|137:134,2,143.999995605469,4|4|4,0:0|3:0|3:0,0:0:0:0:
229,189,24477,2,0,L|321:182,1,71.9999978027344,4|0,3:0|0:0,0:0:0:0:
385,175,24785,2,0,P|423:212|365:287,1,143.999995605469,4|4,3:0|3:0,0:0:0:0:
304,294,25246,1,0,0:0:0:0:
304,294,25400,2,0,P|240:298|195:371,1,143.999995605469,4|4,3:0|3:0,0:0:0:0:
130,311,25862,1,0,0:0:0:0:
130,311,26016,6,0,P|68:300|36:371,2,143.999995605469,4|4|4,3:0|3:0|3:0,0:0:0:0:
206,199,26939,2,0,P|214:142|203:103,1,71.9999978027344,4|0,3:0|0:0,0:0:0:0:
149,81,27246,1,4,3:0:0:0:
149,81,27400,2,0,P|231:51|282:98,1,143.999995605469
312,150,27862,2,0,L|403:147,1,71.9999978027344,4|8,3:0|0:0,0:0:0:0:
411,135,28093,1,8,0:0:0:0:
411,135,28170,2,0,L|413:226,1,71.9999978027344,4|0,3:0|0:0,0:0:0:0:
414,289,28477,5,4,3:0:0:0:
247,305,28785,2,0,P|206:333|154:323,1,71.9999978027344,4|0,3:0|0:0,0:0:0:0:
116,289,29093,2,0,L|132:131,1,143.999995605469,4|4,3:0|3:0,0:0:0:0:
78,83,29554,2,0,P|144:64|200:106,1,143.999995605469
261,50,30015,1,4,3:0:0:0:
275,134,30170,1,0,0:0:0:0:
275,134,30323,2,0,L|372:126,1,71.9999978027344,4|0,3:0|0:0,0:0:0:0:
424,94,30631,2,0,L|438:196,1,71.9999978027344,4|0,3:0|0:0,0:0:0:0:
444,244,30939,6,0,P|412:282|326:229,1,143.999995605469,4|4,3:0|3:0,0:0:0:0:
260,232,31400,2,0,L|102:250,1,143.999995605469,2|4,3:0|3:0,0:0:0:0:
55,196,31862,1,4,3:0:0:0:
55,196,32016,1,0,0:0:0:0:
15,121,32170,2,0,P|8:77|17:35,2,71.9999978027344,4|2|4,3:0|0:0|3:0,0:0:0:0:
102,119,32631,1,8,0:0:0:0:
102,119,32708,1,8,0:0:0:0:
102,119,32785,1,4,3:0:0:0:
102,119,33400,6,0,P|171:107|236:178,1,160,4|8,0:0|0:0,0:0:0:0:
323,167,33862,1,4,3:0:0:0:
323,167,34016,2,0,L|320:-2,1,160,0|8,0:0|0:0,0:0:0:0:
396,39,34477,1,0,0:0:0:0:
238,41,34631,2,0,P|163:31|80:70,1,160,4|8,3:0|0:0,0:0:0:0:
50,131,35093,1,4,3:0:0:0:
50,131,35246,1,0,0:0:0:0:
201,210,35554,2,0,P|260:192|278:157,1,80,8|0,0:0|0:0,0:0:0:0:
354,32,35862,6,0,P|414:51|438:156,2,160,4|8|0,3:0|0:0|0:0,0:0:0:0:
282,63,36631,2,0,P|242:80|204:76,1,80,0|8,0:0|0:0,0:0:0:0:
131,53,36939,2,0,P|60:84|76:160,1,160
153,174,37400,2,0,P|163:224|156:259,1,80,8|0,0:0|0:0,0:0:0:0:
78,286,37708,2,0,L|261:279,1,160,4|8,3:0|0:0,0:0:0:0:
75,300,38323,6,0,P|58:250|139:176,2,160,4|8|0,3:0|0:0|0:0,0:0:0:0:
159,275,39093,1,4,3:0:0:0:
238,308,39246,2,0,P|284:301|349:320,1,80,8|0,0:0|0:0,0:0:0:0:
345,164,39554,2,0,P|337:279|352:341,1,160,4|8,3:0|0:0,0:0:0:0:
418,354,40016,1,4,3:0:0:0:
490,323,40170,2,0,P|501:244|490:164,1,160,0|8,0:0|0:0,0:0:0:0:
341,120,40785,6,0,B|278:97|247:144|167:118,1,160,4|8,3:0|0:0,0:0:0:0:
99,155,41246,2,0,P|69:196|150:260,1,160,2|0,0:0|0:0,0:0:0:0:
224,257,41708,2,0,L|331:249,1,80,8|0,0:0|0:0,0:0:0:0:
395,227,42016,2,0,P|322:238|264:143,1,160,4|8,3:0|0:0,0:0:0:0:
236,60,42477,1,4,3:0:0:0:
236,60,42785,1,4,3:0:0:0:
236,60,42939,2,0,L|340:59,1,80,4|0,3:0|0:0,0:0:0:0:
395,227,43246,6,0,P|383:162|404:56,2,143.999995605469,4|8|0,0:0|0:0|0:0,0:0:0:0:
458,272,44016,1,4,3:0:0:0:
458,272,44170,1,8,0:0:0:0:
240,309,44477,2,0,L|410:302,2,143.999995605469,4|8|0,3:0|0:0|0:0,0:0:0:0:
160,272,45246,1,4,3:0:0:0:
160,272,45400,2,0,P|117:285|85:276,1,71.9999978027344,8|0,0:0|0:0,0:0:0:0:
217,88,45708,6,0,P|244:162|226:239,2,143.999995605469,4|8|0,3:0|0:0|0:0,0:0:0:0:
141,57,46477,1,4,3:0:0:0:
141,57,46631,1,8,0:0:0:0:
436,55,46939,2,0,B|378:27|355:82|277:47,1,143.999995605469,4|8,3:0|0:0,0:0:0:0:
451,49,47400,2,0,P|434:113|452:212,1,143.999995605469,4|4,3:0|3:0,0:0:0:0:
505,239,47862,1,8,0:0:0:0:
246,195,48170,6,0,P|162:177|128:231,1,143.999995605469,4|8,3:0|0:0,0:0:0:0:
105,292,48631,1,4,3:0:0:0:
105,292,48785,2,0,P|176:318|220:379,1,143.999995605469,0|8,0:0|0:0,0:0:0:0:
51,233,49400,2,0,L|34:155,1,71.9999978027344,4|0,3:0|0:0,0:0:0:0:
61,86,49708,2,0,P|110:76|147:93,1,71.9999978027344,8|4,0:0|3:0,0:0:0:0:
204,115,50016,1,0,0:0:0:0:
384,179,50323,2,0,L|312:184,1,71.9999978027344,8|0,0:0|0:0,0:0:0:0:
172,194,50631,6,0,B|135:187|135:187|108:233|121:290,1,143.999995605469,4|8,3:0|0:0,0:0:0:0:
188,338,51093,1,4,3:0:0:0:
262,305,51246,2,0,P|348:292|405:317,1,143.999995605469,0|8,0:0|0:0,0:0:0:0:
473,186,51862,2,0,P|427:194|394:177,1,71.9999978027344,4|0,3:0|0:0,0:0:0:0:
386,150,52093,1,0,3:3:0:0:
386,150,52170,2,0,L|298:149,1,71.9999978027344,4|4,3:0|3:0,0:0:0:0:
250,103,52477,1,4,3:0:0:0:
167,197,52631,1,4,3:0:0:0:
286,226,52785,1,4,3:0:0:0:
57,350,53093,6,0,P|34:290|60:166,1,191.999994140625,4|8,0:0|0:0,0:0:0:0:
130,126,54016,1,0,0:0:0:0:
202,177,54323,2,0,P|263:174|299:180,2,95.9999970703126,0|4|8,0:0|3:0|0:0,0:0:0:0:
130,126,55246,1,4,3:0:0:0:
85,257,55554,6,0,L|86:52,2,191.999994140625,4|8|0,3:0|0:0|0:0,0:0:0:0:
155,311,57093,1,4,3:0:0:0:
299,227,57246,2,0,L|342:225,2,23.9999992675781,4|4|4,3:0|3:0|3:0,0:0:0:0:
290,247,57400,6,0,L|191:250,1,71.9999978027344,8|8,0:0|0:0,0:0:0:0:
234,337,57708,2,0,L|333:334,1,71.9999978027344,8|4,0:0|3:0,0:0:0:0:
389,262,58016,6,0,P|399:226|386:187,1,71.9999978027344,4|0,0:0|0:0,0:0:0:0:
232,106,58323,2,0,P|223:140|233:174,1,71.9999978027344,8|0,0:0|0:0,0:0:0:0:
290,247,58631,1,4,3:0:0:0:
290,247,58785,1,4,3:0:0:0:
383,74,58939,2,0,P|323:74|289:50,1,71.9999978027344,8|0,0:0|0:0,0:0:0:0:
167,30,59246,2,0,L|249:27,1,71.9999978027344,4|4,3:0|3:0,0:0:0:0:
313,69,59554,1,8,0:0:0:0:
243,108,59708,2,0,B|191:109|191:109|153:128|153:128|81:130,1,143.999995605469,4|4,3:0|3:0,0:0:0:0:
18,124,60170,2,0,P|34:168|31:209,1,71.9999978027344,8|0,0:0|0:0,0:0:0:0:
19,285,60477,6,0,B|106:266|100:361|205:331,2,191.999994140625,4|8|8,0:0|0:0|0:0,0:0:0:0:
30,313,61939,1,8,0:0:0:0:
39,338,62170,1,8,0:0:0:0:
116,200,62939,6,0,P|99:140|123:56,1,132.00000402832,4|0,0:0|0:0,0:0:0:0:
134,42,63246,1,4,3:0:0:0:
312,169,63400,2,0,L|212:174,1,88.000002685547,2|4,0:0|3:0,0:0:0:0:
418,243,63708,1,2,0:0:0:0:
309,190,63862,1,4,3:0:0:0:
343,308,64016,1,2,0:0:0:0:
221,307,64170,6,0,P|180:322|138:313,1,88.000002685547,4|2,3:0|0:0,0:0:0:0:
69,195,64477,1,4,3:0:0:0:
69,195,64631,1,2,0:0:0:0:
164,52,64785,2,0,L|157:192,1,132.00000402832,4|0,3:0|0:0,0:0:0:0:
155,213,65093,2,0,P|207:227|247:204,1,88.000002685547,4|2,3:0|0:0,0:0:0:0:
317,156,65400,5,4,3:0:0:0:
51,314,65708,2,0,L|36:228,1,88.000002685547,4|2,3:0|0:0,0:0:0:0:
220,127,66016,2,0,L|236:214,1,88.000002685547,4|2,3:0|0:0,0:0:0:0:
214,326,66323,1,4,3:0:0:0:
420,281,66477,6,0,P|368:318|312:312,1,88.000002685547,2|4,0:0|3:0,0:0:0:0:
214,326,66785,1,2,0:0:0:0:
214,326,66862,1,0,0:0:0:0:
214,326,66939,1,4,3:0:0:0:
326,137,67093,1,2,0:0:0:0:
192,94,67246,2,0,L|211:216,1,88.000002685547,4|0,3:0|0:0,0:0:0:0:
211,215,67477,2,0,L|152:218,1,44.0000013427735,8|8,0:0|0:0,0:0:0:0:
342,217,67708,6,0,B|425:204|428:270|525:234,1,176.000005371094,4|2,0:0|0:0,0:0:0:0:
470,26,68170,2,0,P|481:91|473:126,1,88.000002685547,4|2,3:0|0:0,0:0:0:0:
475,139,68400,1,0,0:0:0:0:
475,139,68477,2,0,L|378:126,1,88.000002685547,4|2,3:0|0:0,0:0:0:0:
286,117,68785,1,8,0:0:0:0:
55,40,68939,6,0,P|32:121|70:178,1,132.00000402832,4|0,0:0|0:0,0:0:0:0:
87,184,69246,1,2,0:0:0:0:
221,50,69400,2,0,L|129:48,1,88.000002685547,4|2,3:0|0:0,0:0:0:0:
306,98,69708,2,0,B|368:102|397:76|397:76|436:101|495:76,1,176.000005371094,4|4,3:0|3:0,0:0:0:0:
440,9,70170,1,2,0:0:0:0:
290,80,70323,6,0,P|301:129|293:173,1,88.000002685547,4|2,3:0|0:0,0:0:0:0:
217,30,70631,1,4,3:0:0:0:
217,30,70785,1,8,0:0:0:0:
61,94,70939,2,0,L|156:83,1,88.000002685547,4|8,3:0|0:0,0:0:0:0:
8,163,71246,1,4,3:0:0:0:
227,210,71400,6,0,L|45:230,1,176.000005371094,4|2,0:0|0:0,0:0:0:0:
312,248,71862,2,0,P|361:247|421:269,1,88.000002685547,4|2,3:0|0:0,0:0:0:0:
465,312,72170,1,4,3:0:0:0:
439,153,72323,1,8,0:0:0:0:
435,169,72400,1,8,0:0:0:0:
431,183,72477,1,4,3:0:0:0:
248,40,72631,1,8,0:0:0:0:
253,79,72708,1,8,0:0:0:0:
258,118,72785,6,0,P|217:159|133:138,1,132.00000402832,4|0,0:0|0:0,0:0:0:0:
129,129,73093,1,4,3:0:0:0:
339,82,73246,2,0,L|450:89,1,88.000002685547,2|4,0:0|3:0,0:0:0:0:
233,246,73554,1,2,0:0:0:0:
189,90,73708,1,4,3:0:0:0:
86,199,73862,1,2,0:0:0:0:
293,181,74016,6,0,P|355:178|411:230,1,132.00000402832,4|0,3:0|0:0,0:0:0:0:
402,246,74323,1,4,3:0:0:0:
243,313,74477,1,2,0:0:0:0:
164,115,74631,2,0,P|181:169|169:252,1,132.00000402832,4|0,3:0|0:0,0:0:0:0:
144,260,74939,2,0,L|44:258,1,88.000002685547,4|2,3:0|0:0,0:0:0:0:
293,181,75246,5,4,3:0:0:0:
293,181,75554,2,0,P|309:235|341:258,1,88.000002685547,4|2,3:0|0:0,0:0:0:0:
435,76,75862,2,0,P|380:62|344:79,1,88.000002685547,4|2,3:0|0:0,0:0:0:0:
462,256,76170,1,4,3:0:0:0:
462,256,76323,2,0,P|500:215|504:175,1,88.000002685547,2|4,0:0|3:0,0:0:0:0:
435,76,76631,1,2,0:0:0:0:
293,181,76785,2,0,L|183:178,1,88.000002685547,4|2,3:0|0:0,0:0:0:0:
43,32,77093,2,0,L|146:37,1,88.000002685547,4|8,3:0|0:0,0:0:0:0:
166,62,77323,1,8,0:0:0:0:
166,62,77400,1,4,3:0:0:0:
35,258,77554,6,0,P|9:191|29:110,1,132.00000402832,4|0,0:0|0:0,0:0:0:0:
41,111,77862,1,2,0:0:0:0:
218,119,78016,2,0,P|174:143|119:124,1,88.000002685547,4|2,3:0|0:0,0:0:0:0:
311,74,78323,2,0,B|360:73|360:73|390:84|390:84|442:82,1,132.00000402832,4|0,3:0|0:0,0:0:0:0:
484,82,78631,1,4,3:0:0:0:
353,201,78785,6,0,L|187:195,1,132.00000402832,2|0,0:0|0:0,0:0:0:0:
206,224,79093,2,0,L|100:219,1,88.000002685547,2|4,0:0|3:0,0:0:0:0:
250,306,79400,1,2,0:0:0:0:
250,306,79477,1,0,0:0:0:0:
250,306,79554,2,0,P|301:325|355:307,1,88.000002685547,4|2,3:0|0:0,0:0:0:0:
457,340,79862,2,0,L|451:242,1,88.000002685547,4|2,3:0|0:0,0:0:0:0:
343,68,80170,5,4,3:0:0:0:
343,68,80246,1,10,0:0:0:0:
343,68,80323,1,10,0:0:0:0:
231,167,80477,1,4,3:0:0:0:
113,32,80631,2,0,P|51:42|9:118,1,132.00000402832,8|0,0:0|0:0,0:0:0:0:
28,123,80939,2,0,P|90:133|132:209,1,132.00000402832,8|0,0:0|0:0,0:0:0:0:
120,219,81246,1,8,0:0:0:0:
120,219,81554,5,4,3:0:0:0:
241,151,81708,1,8,0:0:0:0:
337,283,81862,1,8,0:0:0:0:
482,143,82016,1,8,0:0:0:0:
482,143,82631,6,0,P|485:74|381:58,2,176.000005371094,4|8|4,0:0|0:0|3:0,0:0:0:0:
263,204,83554,1,8,0:0:0:0:
263,204,83708,2,0,L|439:208,1,176.000005371094,2|2,0:0|0:0,0:0:0:0:
395,297,84170,2,0,P|342:305|302:282,1,88.000002685547,8|2,0:0|0:0,0:0:0:0:
140,316,84477,2,0,P|197:307|241:319,1,88.000002685547,4|2,3:0|0:0,0:0:0:0:
245,328,84708,1,0,0:0:0:0:
245,328,84785,2,0,P|237:267|263:234,1,88.000002685547,8|2,0:0|0:0,0:0:0:0:
159,52,85093,6,0,P|149:127|166:199,1,132.00000402832,4|0,3:0|0:0,0:0:0:0:
171,204,85400,2,0,P|109:205|79:216,1,88.000002685547,8|2,0:0|0:0,0:0:0:0:
32,283,85708,1,4,3:0:0:0:
236,267,86016,1,8,0:0:0:0:
236,267,86170,2,0,P|287:298|391:256,1,176.000005371094,2|2,0:0|0:0,0:0:0:0:
393,95,86631,2,0,L|410:201,1,88.000002685547,8|2,0:0|0:0,0:0:0:0:
493,185,86939,2,0,L|479:98,1,88.000002685547,4|2,3:0|0:0,0:0:0:0:
471,56,87170,1,4,3:0:0:0:
471,56,87246,1,8,0:0:0:0:
312,131,87400,1,10,0:0:0:0:
502,279,87554,6,0,P|426:299|355:217,2,176.000005371094,4|8|4,0:0|0:0|3:0,0:0:0:0:
268,230,88477,1,8,0:0:0:0:
268,230,88631,2,0,B|187:218|163:291|85:272,1,176.000005371094,2|2,0:0|0:0,0:0:0:0:
37,150,89093,2,0,P|109:182|112:223,1,88.000002685547,8|2,0:0|0:0,0:0:0:0:
228,312,89400,2,0,P|293:322|331:292,1,88.000002685547,4|2,3:0|0:0,0:0:0:0:
150,369,89708,2,0,P|64:362|50:367,1,88.000002685547,8|2,0:0|0:0,0:0:0:0:
34,373,89939,1,8,0:0:0:0:
34,373,90016,6,0,P|34:312|16:194,2,176.000005371094,4|8|4,3:0|0:0|3:0,0:0:0:0:
123,211,90939,1,8,0:0:0:0:
123,211,91093,2,0,P|172:194|231:284,1,176.000005371094,2|2,0:0|0:0,0:0:0:0:
305,318,91554,2,0,P|358:311|398:325,2,88.000002685547,2|2|2,0:0|0:0|0:0,0:0:0:0:
