osu file format v14

[General]
AudioFilename: audio.mp3
AudioLeadIn: 0
PreviewTime: 126479
Countdown: 1
SampleSet: Soft
StackLeniency: 0.6
Mode: 0
LetterboxInBreaks: 0
WidescreenStoryboard: 0

[Editor]
DistanceSpacing: 1
BeatDivisor: 4
GridSize: 4
TimelineZoom: 3.499999

[Metadata]
Title:Alien Alien
TitleUnicode:エイリアンエイリアン
Artist:mafumafu
ArtistUnicode:まふまふ
Creator:Poivila_qwq
Version:A L I E N
Source:niconico
Tags:Vocaloid miku Alien Japanese
BeatmapID:1433372
BeatmapSetID:677822

[Difficulty]
HPDrainRate:8.4
CircleSize:4.1
OverallDifficulty:6.4
ApproachRate:9.2
SliderMultiplier:2.4
SliderTickRate:1

[Events]
//Background and Video events
0,0,"alien.jpg",0,0
//Break Periods
//Storyboard Layer 0 (Background)
//Storyboard Layer 1 (Fail)
//Storyboard Layer 2 (Pass)
//Storyboard Layer 3 (Foreground)
//Storyboard Sound Samples

[TimingPoints]
-656,394.736842105263,4,2,0,17,1,0
0,-100,4,2,0,100,0,0
414,-100,4,2,0,24,0,0
2534,-100,4,3,0,54,0,0
3514,-100,4,2,0,51,0,0
4691,-100,4,1,0,74,0,0
47338,-200,4,1,0,37,0,0
47730,-153.846153846154,4,2,0,58,0,0
48122,-133.333333333333,4,3,0,81,0,0
49102,-117.647058823529,4,2,0,57,0,0
52142,-100,4,2,0,100,0,0
53514,-80,4,2,0,100,0,0
55723,-66.6666666666667,4,3,0,100,0,1
56651,-80,4,3,0,87,0,1
83552,-100,4,3,0,100,0,0
104200,-133.333333333333,4,1,0,58,0,0
107346,-100,4,3,0,70,0,0
138514,-200,4,3,0,100,0,0
139210,-100,4,1,0,100,0,1
150279,-80,4,3,0,100,0,1
164078,-200,4,1,0,100,0,0
168906,-100,4,1,0,100,0,0

[Colours]
Combo1 : 255,0,128
Combo2 : 255,0,0
Combo3 : 154,48,48
Combo4 : 255,128,0

[HitObjects]
240,172,922,5,0,0:0:0:0:
240,172,1120,1,0,0:0:0:0:
240,172,1317,1,0,0:0:0:0:
240,172,1515,1,0,0:0:0:0:
248,224,1712,5,0,0:0:0:0:
244,140,1909,1,0,0:0:0:0:
239,238,2107,1,0,0:0:0:0:
244,112,2304,1,0,0:0:0:0:
223,248,2501,1,0,0:0:0:0:
242,85,2699,1,0,0:0:0:0:
190,240,2896,1,0,0:0:0:0:
318,73,3093,1,0,0:0:0:0:
233,287,3291,1,0,0:0:0:0:
331,50,3488,1,0,0:0:0:0:
180,279,3686,1,0,0:0:0:0:
226,6,3883,1,0,0:0:0:0:
228,304,4080,5,0,0:0:0:0:
214,9,4278,1,0,0:0:0:0:
236,272,4475,1,0,0:0:0:0:
226,62,4672,1,0,0:0:0:0:
244,240,4870,1,0,0:0:0:0:
238,113,5067,1,0,0:0:0:0:
244,216,5265,6,0,P|216:192|268:216,1,240
432,320,6054,5,4,0:0:0:0:
152,132,6449,5,2,0:0:0:0:
152,132,6547,1,2,0:0:0:0:
152,132,6646,2,0,P|212:176|304:172,2,120
308,200,7238,5,2,0:0:0:0:
308,200,7337,1,2,0:0:0:0:
308,200,7436,2,0,P|368:244|460:240,2,120
140,204,8028,5,2,0:0:0:0:
140,204,8126,1,2,0:0:0:0:
140,204,8225,2,0,P|144:278|207:346,2,120
260,88,8718,5,8,0:0:0:0:
260,88,8916,1,8,0:0:0:0:
260,88,9113,2,0,L|156:88,1,60
256,136,9311,2,0,L|320:136,1,60
308,280,9607,5,2,0:0:0:0:
308,280,9706,1,2,0:0:0:0:
308,280,9804,2,0,P|368:324|436:376,2,120
196,188,10395,5,2,0:0:0:0:
196,188,10494,1,2,0:0:0:0:
196,188,10593,2,0,P|136:144|88:108,2,120
140,204,11186,5,2,0:0:0:0:
140,204,11285,1,2,0:0:0:0:
140,204,11383,2,0,P|144:278|207:346,2,120
260,88,11975,5,4,0:0:0:0:
260,88,12173,1,4,0:0:0:0:
116,108,12370,2,0,L|12:108,1,60
128,108,12567,2,0,L|192:108,1,60
328,220,12864,5,8,0:0:0:0:
328,220,13061,1,8,0:0:0:0:
320,132,13160,2,0,L|314:64,1,60
300,160,13357,2,0,L|226:176,1,60
208,200,13554,5,8,0:0:0:0:
208,200,13751,1,8,0:0:0:0:
276,144,13850,2,0,L|320:92,1,60
236,140,14047,2,0,L|172:100,1,60
88,260,14343,5,8,0:0:0:0:
88,260,14541,1,8,0:0:0:0:
144,328,14640,2,0,L|196:372,1,60
148,288,14837,2,0,L|188:224,1,60
352,188,15133,5,0,0:0:0:0:
196,100,15330,2,4,L|176:156,1,60
175,156,15528,2,2,L|149:211,1,60
150,210,15725,2,8,L|126:268,1,60
228,204,16021,6,0,P|280:160|352:164,2,120
136,128,16613,5,0,0:0:0:0:
252,96,16811,2,0,P|324:88|380:44,2,120
148,156,17403,5,0,0:0:0:0:
120,272,17600,2,0,P|80:336|40:340,2,120
256,192,18093,12,0,19376,0:0:0:0:
84,48,19574,5,0,0:0:0:0:
240,160,19771,2,4,L|312:208,1,60
152,228,20265,6,0,P|96:264|60:340,1,120
240,224,20659,2,0,P|308:184|336:104,1,120
168,200,21054,1,8,0:0:0:0:
168,200,21153,1,0,0:0:0:0:
336,204,21350,2,0,B|384:168|384:168|252:176,1,180
96,176,21843,2,0,P|56:176|104:212,2,120
160,192,22337,1,0,0:0:0:0:
224,208,22436,1,0,0:0:0:0:
288,224,22534,5,0,0:0:0:0:
352,240,22633,1,0,0:0:0:0:
416,256,22732,6,2,B|372:308|372:308|212:308,1,180
160,96,23521,5,0,0:0:0:0:
236,244,23718,1,0,0:0:0:0:
236,244,23817,1,0,0:0:0:0:
236,244,23916,1,0,0:0:0:0:
296,88,24113,1,0,0:0:0:0:
152,180,24311,1,0,0:0:0:0:
320,176,24508,1,0,0:0:0:0:
180,268,24705,5,12,0:0:0:0:
216,280,24903,1,12,0:0:0:0:
420,188,25297,6,0,P|380:116|284:88,1,180
104,256,25890,2,8,P|60:304|24:276,2,120
408,112,26679,6,0,P|408:184|364:212,1,120
304,96,27074,2,0,L|212:188,1,120
164,48,27468,2,0,B|84:60|176:120|56:136,1,120
220,164,27863,2,0,B|256:108|280:176|144:240,1,180
476,36,28455,5,10,0:0:0:0:
252,352,28850,1,4,0:0:0:0:
36,28,29245,1,14,0:0:0:0:
248,260,29640,2,12,B|208:180|208:180|240:104,1,120
256,136,30330,6,0,P|296:72|372:52,2,120
168,108,30922,1,0,0:0:0:0:
168,108,31120,1,0,0:0:0:0:
168,108,31317,1,0,0:0:0:0:
168,108,31515,1,0,0:0:0:0:
300,112,31712,6,0,P|340:60|396:56,1,120
332,140,32008,2,0,P|296:204|212:220,1,120
84,112,32403,6,0,P|124:60|180:56,1,120
116,140,32699,2,0,P|80:204|-4:220,1,120
340,268,33192,6,0,P|405:265|444:305,1,120
339,310,33488,2,0,P|266:323|200:269,1,120
169,162,33982,6,0,P|111:132|97:77,1,120
191,126,34278,2,0,P|260:150|291:230,1,120
416,232,34771,5,0,0:0:0:0:
448,260,34968,1,0,0:0:0:0:
448,260,35067,2,0,P|412:324|328:340,1,120
300,112,35561,6,0,P|340:60|396:56,1,120
320,128,35857,1,0,0:0:0:0:
348,128,36054,1,0,0:0:0:0:
80,124,36449,6,0,L|48:56,1,60
232,248,36745,6,0,L|196:184,1,60
488,360,37140,6,0,L|444:312,1,60
233,199,37436,5,0,0:0:0:0:
89,240,37534,1,0,0:0:0:0:
351,152,37732,1,0,0:0:0:0:
147,278,37929,1,0,0:0:0:0:
147,278,38028,5,0,0:0:0:0:
108,144,38422,6,0,P|80:84|156:72,2,120
328,136,39113,2,0,L|456:72,1,120
344,196,39508,2,0,L|500:112,1,120
368,256,39903,2,0,L|504:180,1,120
340,144,40297,1,4,0:0:0:0:
324,140,40593,1,4,0:0:0:0:
36,136,40988,6,0,P|64:244|168:272,1,180
232,184,41482,1,0,0:0:0:0:
232,184,41679,1,0,0:0:0:0:
360,120,41876,2,0,P|420:68|468:80,2,120
236,208,42468,6,0,B|264:152|264:152|360:124,1,120
236,208,42765,2,0,P|200:136|244:88,1,120
236,208,43159,2,0,L|336:264,1,60
152,280,43455,1,0,0:0:0:0:
152,280,43653,1,0,0:0:0:0:
232,108,43850,5,0,0:0:0:0:
304,116,44343,5,0,0:0:0:0:
136,132,44541,1,0,0:0:0:0:
308,76,44738,1,0,0:0:0:0:
128,148,44936,1,0,0:0:0:0:
272,120,45133,2,0,P|204:128|168:216,1,120
316,252,45528,1,0,0:0:0:0:
292,248,45824,5,0,0:0:0:0:
128,220,46021,2,0,P|68:180|56:124,1,120
224,156,46416,1,0,0:0:0:0:
224,156,46613,1,0,0:0:0:0:
384,108,46811,1,0,0:0:0:0:
384,108,47008,1,0,0:0:0:0:
384,108,47205,1,0,0:0:0:0:
248,156,47403,6,0,L|256:236,1,60
72,288,47797,6,0,L|24:352,1,77.9999964294435
112,144,48192,6,0,P|132:76|240:48,2,180.000006866455
252,172,49179,6,0,L|288:216,1,51.0000009727478
144,192,49475,6,0,P|92:220|56:288,1,102.000001945496
268,184,49870,2,0,P|336:208|384:256,1,102.000001945496
228,56,50265,2,0,L|148:144,1,102.000001945496
159,131,50659,2,0,B|123:183|47:223|47:223|139:231,1,204.000003890991
388,200,51449,6,0,P|312:264|228:220,1,204.000003890991
60,188,52238,6,0,P|164:136|232:196,1,180
380,148,52633,2,0,P|312:208|220:168,1,180
148,188,53028,2,0,P|176:128|228:104,1,120
216,188,53422,2,0,P|192:248|132:264,1,120
392,72,53718,6,0,L|284:112,1,75
321,98,53916,2,0,L|240:136,1,75
253,129,54113,2,0,L|128:176,1,75
183,155,54311,2,0,L|88:192,1,75
256,336,54607,5,0,0:0:0:0:
316,292,54705,1,0,0:0:0:0:
372,240,54804,1,0,0:0:0:0:
400,164,54903,1,0,0:0:0:0:
400,76,55001,1,0,0:0:0:0:
332,16,55100,1,0,0:0:0:0:
260,72,55199,1,0,0:0:0:0:
260,72,55297,1,0,0:0:0:0:
116,200,55495,6,0,L|144:288,6,75
232,196,56284,5,0,0:0:0:0:
264,196,56482,5,0,0:0:0:0:
400,76,56975,1,0,0:0:0:0:
400,76,57172,6,0,L|448:256,2,150
400,76,57765,1,0,0:0:0:0:
116,172,57962,6,0,L|80:316,2,75
284,236,58357,1,0,0:0:0:0:
120,108,58554,6,0,P|60:172|148:256,1,225
292,116,59047,1,0,0:0:0:0:
124,256,59245,2,0,L|124:121,1,75
480,196,59837,5,0,0:0:0:0:
336,92,60034,1,0,0:0:0:0:
304,268,60232,1,0,0:0:0:0:
472,204,60429,1,0,0:0:0:0:
340,80,60626,5,0,0:0:0:0:
340,80,60725,5,0,0:0:0:0:
340,80,60824,5,0,0:0:0:0:
344,260,61021,2,0,P|248:296|188:264,1,150
208,280,61416,1,0,0:0:0:0:
232,196,61613,2,0,L|344:128,1,75
456,72,61909,1,0,0:0:0:0:
456,72,62107,1,0,0:0:0:0:
280,84,62304,2,0,B|192:100|192:100|248:48,1,150
260,52,62699,5,12,0:0:0:0:
128,320,62896,1,12,0:0:0:0:
128,320,63093,6,0,P|60:236|72:156,1,150
328,68,63488,1,0,0:0:0:0:
328,68,63686,2,0,P|432:88|496:160,1,150
180,212,64080,2,0,P|112:156|192:64,2,225
456,88,64870,1,0,0:0:0:0:
456,88,65067,1,0,0:0:0:0:
456,88,65265,1,0,0:0:0:0:
456,88,65462,2,0,P|408:160|284:160,1,150
244,176,65857,1,0,0:0:0:0:
236,228,65955,5,0,0:0:0:0:
232,280,66054,5,0,0:0:0:0:
240,332,66153,6,0,P|404:348|492:324,1,225
336,264,66646,1,0,0:0:0:0:
336,264,66843,2,0,P|260:212|144:248,1,150
272,112,67238,2,0,P|144:92|108:148,2,150
272,112,67830,1,0,0:0:0:0:
432,316,68225,5,0,0:0:0:0:
132,80,68521,1,0,0:0:0:0:
8,8,68718,5,0,0:0:0:0:
408,336,69015,1,0,0:0:0:0:
248,152,69508,5,0,0:0:0:0:
108,308,69705,1,0,0:0:0:0:
280,192,69903,1,0,0:0:0:0:
100,300,70100,2,0,P|72:248|32:304,1,150
168,140,70495,1,0,0:0:0:0:
176,152,70593,5,0,0:0:0:0:
188,164,70692,1,0,0:0:0:0:
196,176,70791,5,0,0:0:0:0:
204,188,70890,1,0,0:0:0:0:
212,200,70988,2,0,P|312:164|320:108,1,150
112,152,71383,1,0,0:0:0:0:
160,116,71580,2,0,B|66:126|152:243|-12:271,1,225
160,108,72074,1,0,0:0:0:0:
192,128,72172,1,0,0:0:0:0:
224,148,72271,1,0,0:0:0:0:
316,272,72567,6,0,P|272:228|264:160,1,75
88,324,72863,1,0,0:0:0:0:
256,200,73061,1,0,0:0:0:0:
72,96,73258,2,0,B|48:72|48:72|48:196,1,150
248,248,73653,1,0,0:0:0:0:
248,248,73850,1,0,0:0:0:0:
84,108,74047,2,0,P|192:64|292:84,1,150
136,240,74442,2,0,P|228:192|300:184,1,150
436,292,74837,1,0,0:0:0:0:
436,292,75034,2,0,P|316:340|316:340,1,75
360,232,75232,5,12,0:0:0:0:
200,152,75429,1,12,0:0:0:0:
128,204,75725,6,0,P|144:312|272:328,2,225
308,96,76515,1,0,0:0:0:0:
308,96,76712,2,0,P|452:96|496:148,1,150
300,244,77107,2,0,L|192:328,2,75
88,32,77501,6,4,B|64:36|64:36|76:52|76:52|24:76,1,75
444,280,77896,6,2,B|420:284|420:284|432:300|432:300|380:324,1,75
164,200,78291,6,14,B|140:204|140:204|152:220|152:220|100:244,1,75
96,200,78784,6,0,P|108:112|176:84,1,150
268,264,79179,2,0,L|340:304,1,75
196,140,79475,1,0,0:0:0:0:
196,140,79574,2,0,L|296:192,1,75
460,100,79870,1,0,0:0:0:0:
460,100,80067,1,0,0:0:0:0:
280,208,80265,1,0,0:0:0:0:
280,208,80462,1,0,0:0:0:0:
8,48,80758,5,0,0:0:0:0:
8,48,80955,2,0,L|156:204,1,150
316,204,81350,5,0,0:0:0:0:
316,204,81547,2,0,L|164:304,1,150
96,100,81942,1,0,0:0:0:0:
292,348,82238,6,0,B|332:248|152:216|381:78|384:232|384:232|513:153|518:364|441:364|303:308,2,600
468,68,84113,6,0,B|344:80|316:204|224:80,1,240
184,104,84804,6,0,L|109:78,1,60
127,84,85001,2,0,P|227:144|319:100,1,180
140,220,85495,6,0,L|184:168,1,60
178,174,85692,2,0,L|283:359,1,180
216,120,86284,5,0,0:0:0:0:
216,120,86482,1,0,0:0:0:0:
216,120,86679,1,0,0:0:0:0:
216,120,86876,2,0,L|136:96,1,60
148,168,87172,5,0,0:0:0:0:
148,168,87370,1,0,0:0:0:0:
148,168,87567,1,0,0:0:0:0:
128,216,87765,6,4,B|164:44|192:368|268:72|212:376|224:288,1,240
72,200,88554,6,4,P|104:144|204:112,1,120
468,212,89245,2,4,L|276:248,1,180
160,148,89936,1,0,0:0:0:0:
160,148,90133,2,0,L|408:120,1,240
240,200,90824,2,0,P|200:304|200:336,2,120
84,152,91712,6,0,P|48:88|116:128,1,180
268,216,92501,2,0,P|328:208|268:228,1,180
256,192,93093,12,0,94968,0:0:0:0:
164,120,95265,5,0,0:0:0:0:
252,136,95462,1,0,0:0:0:0:
336,104,95659,1,0,0:0:0:0:
416,148,95857,1,0,0:0:0:0:
500,112,96054,1,0,0:0:0:0:
412,128,96251,1,0,0:0:0:0:
324,108,96449,1,0,0:0:0:0:
244,152,96646,1,0,0:0:0:0:
160,188,96843,1,0,0:0:0:0:
76,224,97041,1,0,0:0:0:0:
148,276,97238,6,0,L|252:276,4,60
104,188,97830,1,0,0:0:0:0:
200,160,98028,1,0,0:0:0:0:
112,112,98225,1,0,0:0:0:0:
208,84,98422,1,0,0:0:0:0:
216,176,98620,1,0,0:0:0:0:
120,200,98817,1,0,0:0:0:0:
216,224,99015,1,0,0:0:0:0:
124,256,99212,1,0,0:0:0:0:
212,212,99508,6,0,P|280:176|368:196,4,120
212,212,100495,1,0,0:0:0:0:
212,212,100692,1,0,0:0:0:0:
412,224,101087,5,0,0:0:0:0:
288,184,101284,1,0,0:0:0:0:
172,124,101482,1,0,0:0:0:0:
52,64,101679,1,0,0:0:0:0:
88,92,101778,1,0,0:0:0:0:
124,120,101876,1,0,0:0:0:0:
244,180,102074,1,0,0:0:0:0:
360,244,102271,1,0,0:0:0:0:
232,284,102468,1,0,0:0:0:0:
192,296,102567,1,0,0:0:0:0:
152,308,102666,1,0,0:0:0:0:
80,268,102863,6,0,B|36:208|168:208|80:152,2,120
224,116,103455,2,0,P|288:76|320:72,4,60
224,116,104047,1,0,0:0:0:0:
148,164,104245,5,0,0:0:0:0:
148,164,104442,1,0,0:0:0:0:
256,180,104640,1,0,0:0:0:0:
256,180,104837,1,0,0:0:0:0:
200,256,105034,1,0,0:0:0:0:
160,276,105133,1,0,0:0:0:0:
120,296,105232,1,0,0:0:0:0:
44,248,105528,2,0,L|104:172,1,90.0000034332277
228,216,105922,6,0,P|268:188|316:176,1,90.0000034332277
228,216,106317,2,0,P|160:160|120:152,1,90.0000034332277
228,216,106712,2,0,L|232:348,1,90.0000034332277
460,160,107501,5,0,0:0:0:0:
328,216,107699,1,0,0:0:0:0:
456,148,107896,1,0,0:0:0:0:
344,208,108093,1,0,0:0:0:0:
404,96,108291,2,0,P|336:104|300:192,1,120
268,188,108686,1,0,0:0:0:0:
152,324,109080,5,0,0:0:0:0:
148,232,109278,2,0,P|88:192|76:136,2,120
304,164,109870,1,0,0:0:0:0:
160,180,110067,2,0,P|226:143|264:173,1,120
376,76,110462,1,0,0:0:0:0:
296,120,110659,6,0,P|240:248|256:288,1,180
332,240,111153,2,0,L|240:204,1,60
136,244,111449,2,0,B|72:209|72:209|200:177,1,180
264,68,111942,5,0,0:0:0:0:
136,124,112140,6,0,L|264:60,1,120
292,160,112534,2,0,L|448:76,1,120
196,120,112929,2,0,L|332:44,1,120
352,196,113324,1,4,0:0:0:0:
172,268,113521,1,4,0:0:0:0:
68,112,113718,5,0,0:0:0:0:
36,136,113916,6,0,P|64:244|168:272,1,180
232,184,114409,1,0,0:0:0:0:
232,184,114607,1,0,0:0:0:0:
360,120,114804,2,0,P|420:68|468:80,2,120
236,208,115396,6,0,B|264:152|264:152|360:124,1,120
236,208,115692,2,0,P|200:136|244:88,1,120
236,208,116087,2,0,L|408:316,2,180
388,140,116876,5,0,0:0:0:0:
36,344,117271,5,0,0:0:0:0:
328,56,117666,5,0,0:0:0:0:
80,232,118061,5,0,0:0:0:0:
196,216,118554,2,0,P|272:256|364:248,1,180
272,80,119245,2,0,L|180:168,1,120
140,48,119640,2,0,L|44:156,1,120
228,276,120034,2,0,P|312:280|372:244,1,120
256,204,120429,5,0,0:0:0:0:
236,192,120824,1,0,0:0:0:0:
216,176,121218,1,0,0:0:0:0:
448,112,121613,5,0,0:0:0:0:
180,248,122107,1,0,0:0:0:0:
384,124,122501,1,0,0:0:0:0:
236,224,122797,1,0,0:0:0:0:
32,352,123192,5,0,0:0:0:0:
60,236,123390,1,0,0:0:0:0:
64,356,123587,1,0,0:0:0:0:
80,236,123784,1,0,0:0:0:0:
100,356,123982,1,0,0:0:0:0:
192,188,124179,5,0,0:0:0:0:
64,332,124376,1,0,0:0:0:0:
204,200,124574,1,0,0:0:0:0:
36,292,124771,1,0,0:0:0:0:
232,204,124968,5,0,0:0:0:0:
243,146,125067,1,0,0:0:0:0:
298,132,125166,1,0,0:0:0:0:
338,175,125265,1,0,0:0:0:0:
378,220,125363,5,0,0:0:0:0:
368,259,125462,1,0,0:0:0:0:
319,293,125561,1,0,0:0:0:0:
270,327,125659,1,0,0:0:0:0:
100,196,125857,6,0,P|180:156|248:180,2,120
168,324,126449,5,0,0:0:0:0:
40,28,128028,5,0,0:0:0:0:
56,336,129508,5,0,0:0:0:0:
416,64,131087,6,0,P|316:140|408:236,2,240
392,32,132370,6,0,P|392:108|352:140,1,120
116,248,132863,6,0,P|52:272|27:329,1,120
172,316,133258,6,0,P|111:296|66:239,1,120
196,180,133653,6,0,P|252:148|292:188,1,120
188,280,134047,6,0,P|179:332|184:336,1,60
180,332,134245,6,0,P|120:260|0:328,1,240
84,196,134837,1,0,0:0:0:0:
84,196,135034,1,0,0:0:0:0:
236,84,135626,5,0,0:0:0:0:
284,84,135824,1,0,0:0:0:0:
332,84,136021,1,0,0:0:0:0:
380,84,136218,1,0,0:0:0:0:
360,152,136416,2,0,B|284:168|164:204|124:120,2,240
220,64,138686,6,14,B|216:80|216:80|220:84|220:84|212:92|212:92|220:100|220:100|212:104|212:104|220:108|220:108|212:120|212:120|224:124|224:124|212:156|212:156,1,120
192,96,139475,6,0,P|104:136|96:188,2,120
312,108,140067,1,0,0:0:0:0:
312,108,140166,1,0,0:0:0:0:
312,108,140265,5,0,0:0:0:0:
312,108,140363,1,0,0:0:0:0:
312,108,140462,1,0,0:0:0:0:
204,160,140659,2,0,B|176:168|176:168|312:188,1,120
376,184,141054,2,0,B|372:272|248:280,1,120
188,248,141449,1,0,0:0:0:0:
104,160,141646,1,0,0:0:0:0:
184,72,141843,1,0,0:0:0:0:
112,168,142041,1,0,0:0:0:0:
112,168,142238,6,0,P|212:232|264:232,1,120
300,152,142633,2,0,P|316:88|264:68,1,120
168,116,143028,1,0,0:0:0:0:
92,208,143225,1,0,0:0:0:0:
180,124,143422,1,0,0:0:0:0:
104,216,143620,2,0,P|32:180|32:160,2,60
180,96,144113,1,0,0:0:0:0:
236,228,144311,1,0,0:0:0:0:
320,112,144508,1,0,0:0:0:0:
388,240,144705,5,0,0:0:0:0:
460,60,144903,1,0,0:0:0:0:
268,60,145100,6,0,P|248:132|280:132,1,120
112,208,145495,2,0,P|144:128|200:96,1,120
304,208,145890,1,0,0:0:0:0:
156,288,146087,1,0,0:0:0:0:
220,132,146284,1,0,0:0:0:0:
280,288,146482,1,0,0:0:0:0:
136,200,146679,1,0,0:0:0:0:
148,104,146876,5,0,0:0:0:0:
228,160,147074,1,0,0:0:0:0:
308,212,147271,1,0,0:0:0:0:
296,116,147468,5,0,0:0:0:0:
344,148,147666,1,0,0:0:0:0:
392,184,147863,1,0,0:0:0:0:
364,236,148061,1,0,0:0:0:0:
332,252,148258,1,0,0:0:0:0:
100,256,148455,1,0,0:0:0:0:
100,256,148554,6,0,P|64:192|88:128,1,120
220,96,148949,2,0,P|288:60|340:68,1,120
300,220,149343,2,0,L|232:260,1,60
100,304,149640,2,0,L|32:328,1,60
192,276,149936,5,0,0:0:0:0:
56,16,150232,5,0,0:0:0:0:
360,284,150528,1,0,0:0:0:0:
112,320,150922,5,0,0:0:0:0:
200,96,151120,1,0,0:0:0:0:
316,124,151416,5,0,0:0:0:0:
268,156,151515,1,0,0:0:0:0:
216,188,151613,1,0,0:0:0:0:
72,268,151811,6,0,P|48:184|80:132,1,150
160,212,152107,2,0,P|244:228|280:220,1,75
448,164,152403,1,0,0:0:0:0:
232,100,152600,1,0,0:0:0:0:
88,272,152797,5,0,0:0:0:0:
88,272,152896,1,0,0:0:0:0:
88,272,152995,1,0,0:0:0:0:
188,220,153093,2,0,P|272:236|308:228,1,75
464,184,153390,1,0,0:0:0:0:
260,128,153587,1,0,0:0:0:0:
464,76,153784,1,0,0:0:0:0:
264,136,153982,1,0,0:0:0:0:
92,260,154179,2,0,P|172:312|200:304,2,75
348,76,154672,5,0,0:0:0:0:
184,204,154870,1,0,0:0:0:0:
392,204,155067,1,0,0:0:0:0:
224,80,155265,1,0,0:0:0:0:
112,260,155462,1,0,0:0:0:0:
316,212,155659,1,0,0:0:0:0:
112,108,155857,2,0,P|80:180|132:236,1,150
320,284,156251,5,0,0:0:0:0:
348,76,156449,1,0,0:0:0:0:
140,72,156646,1,0,0:0:0:0:
136,284,156843,1,0,0:0:0:0:
344,280,157041,2,0,B|416:196|416:196|332:96,1,225
260,108,157436,5,0,0:0:0:0:
232,152,157534,1,0,0:0:0:0:
236,204,157633,1,0,0:0:0:0:
292,204,157929,6,0,P|308:120|280:96,1,75
108,56,158225,2,0,P|92:132|100:136,1,75
296,168,158521,1,0,0:0:0:0:
88,252,158620,1,0,0:0:0:0:
304,312,158817,1,0,0:0:0:0:
112,192,159015,1,0,0:0:0:0:
324,124,159212,1,0,0:0:0:0:
64,312,159508,6,0,B|60:292|60:292|72:292|72:292|64:284|64:284|64:208|64:208,1,75
448,264,159903,6,0,B|444:244|444:244|456:244|456:244|448:236|448:236|448:160|448:160,1,75
28,108,160297,6,0,B|24:88|24:88|36:88|36:88|28:80|28:80|28:4|28:4,1,75
372,164,160692,1,0,0:0:0:0:
144,276,160890,1,0,0:0:0:0:
256,48,161087,5,0,0:0:0:0:
336,288,161284,2,0,P|416:276|456:224,2,150
100,184,161876,1,0,0:0:0:0:
344,112,162074,1,0,0:0:0:0:
92,76,162271,2,0,L|20:24,2,75
312,204,162666,5,0,0:0:0:0:
76,300,162863,1,0,0:0:0:0:
164,60,163061,1,0,0:0:0:0:
280,68,163455,5,0,0:0:0:0:
192,308,163653,1,0,0:0:0:0:
428,212,163850,1,0,0:0:0:0:
280,252,164146,6,0,B|320:152|140:120|369:-18|372:136|372:136|501:57|506:268|429:268|320:228,3,630
72,188,170758,5,0,0:0:0:0:
436,280,171449,5,0,0:0:0:0:
96,44,172238,5,0,0:0:0:0:
300,304,173028,6,0,L|296:204,4,60
48,276,173817,6,0,P|92:184|208:152,1,180
408,236,174508,6,0,P|408:124|296:156,1,240
264,236,175396,6,0,P|220:304|200:148,1,360
256,192,176087,12,0,178850,0:0:0:0:
