osu file format v14

[General]
AudioFilename: audio.mp3
AudioLeadIn: 0
PreviewTime: 76691
Countdown: 0
SampleSet: Soft
StackLeniency: 0.4
Mode: 0
LetterboxInBreaks: 0
WidescreenStoryboard: 1

[Editor]
Bookmarks: 24391,69191,77191,79391
DistanceSpacing: 0.6
BeatDivisor: 4
GridSize: 32
TimelineZoom: 1.4

[Metadata]
Title:[Nexus]
TitleUnicode:[Nexus]
Artist:mafumafu
ArtistUnicode:まふまふ
Creator:William K
Version:Normal
Source:
Tags:utaite ashita iro asuiro world end 明日色ワールドエンド instrumental japanese electronic rock j-rock jrock
BeatmapID:2952946
BeatmapSetID:707703

[Difficulty]
HPDrainRate:4
CircleSize:3.4
OverallDifficulty:4
ApproachRate:5.5
SliderMultiplier:1.2
SliderTickRate:1

[Events]
//Background and Video events
0,0,"futuristic-city-wallpaper-7.jpg",0,0
//Break Periods
2,38990,50391
//Storyboard Layer 0 (Background)
//Storyboard Layer 1 (Fail)
//Storyboard Layer 2 (Pass)
//Storyboard Layer 3 (Foreground)
//Storyboard Layer 4 (Overlay)
//Storyboard Sound Samples

[TimingPoints]
391,400,4,2,1,60,1,0
24391,-100,4,2,1,60,0,0
24591,-100,4,2,1,5,0,0
24691,-100,4,2,1,60,0,0
24791,-100,4,2,1,5,0,0
24891,-100,4,2,1,65,0,0
24991,-100,4,2,1,80,0,0
25991,-90.9090909090909,4,2,1,70,0,0
37191,-90.9090909090909,4,2,1,80,0,0
38791,-90.9090909090909,4,2,1,40,0,0
45191,-90.9090909090909,4,2,1,30,0,0
51591,-100,4,2,1,50,0,0
61191,-90.9090909090909,4,2,1,80,0,0
64391,-100,4,2,1,70,0,0
76391,-100,4,2,1,20,0,0
76791,-100,4,2,1,70,0,0
77191,-90.9090909090909,4,2,1,85,0,1
101191,-90.9090909090909,4,2,1,90,0,1
102791,-90.9090909090909,4,2,1,80,0,1
102991,-90.9090909090909,4,2,1,5,0,1
103091,-90.9090909090909,4,2,1,81,0,1
103291,-90.9090909090909,4,2,1,5,0,1
103391,-90.9090909090909,4,2,1,82,0,1
103591,-90.9090909090909,4,2,1,5,0,1
103691,-90.9090909090909,4,2,1,83,0,1
103891,-90.9090909090909,4,2,1,5,0,1
103991,-90.9090909090909,4,2,1,84,0,1
104191,-90.9090909090909,4,2,1,5,0,1
104291,-90.9090909090909,4,2,1,95,0,1
104491,-90.9090909090909,4,2,1,5,0,1
104591,-90.9090909090909,4,2,1,86,0,1
104791,-90.9090909090909,4,2,1,5,0,1
104891,-90.9090909090909,4,2,1,87,0,1
105091,-90.9090909090909,4,2,1,5,0,1
105191,-90.9090909090909,4,2,1,89,0,1
105391,-90.9090909090909,4,2,1,5,0,1
105491,-90.9090909090909,4,2,1,90,0,1
105691,-90.9090909090909,4,2,1,5,0,1
105791,-90.9090909090909,4,2,1,91,0,1
105991,-90.9090909090909,4,2,1,5,0,1
106091,-90.9090909090909,4,2,1,92,0,1
106191,-90.9090909090909,4,2,1,5,0,1
106591,-90.9090909090909,4,2,1,95,0,1
106791,-90.9090909090909,4,2,1,95,0,0
109191,-90.9090909090909,4,2,1,65,0,0
110791,-90.9090909090909,4,2,1,55,0,0
112391,-90.9090909090909,4,2,1,35,0,0
113391,-90.9090909090909,4,2,1,5,0,0

[Colours]
Combo1 : 201,201,201
Combo2 : 185,255,185
Combo3 : 255,217,179
Combo4 : 251,179,189

[HitObjects]
434,107,13191,6,0,L|424:14,2,90,10|10|10,0:3|0:3|0:2,0:0:0:0:
498,211,14191,2,0,L|487:275,1,60,8|10,0:3|0:2,0:0:0:0:
383,330,14791,2,0,L|373:237,1,90,10|8,0:3|0:3,0:0:0:0:
284,231,15391,2,0,L|297:354,1,120,10|8,0:2|0:3,0:0:0:0:
300,380,15991,1,10,0:2:0:0:
184,351,16391,6,0,L|86:341,2,90,10|10|10,0:3|0:3|0:2,0:0:0:0:
169,234,17391,1,8,0:3:0:0:
169,234,17591,1,10,0:2:0:0:
284,231,17991,2,0,L|382:221,1,90,10|8,0:3|0:3,0:0:0:0:
377,133,18591,2,0,L|239:147,1,120,10|8,0:2|0:3,0:0:0:0:
229,149,19191,1,10,0:2:0:0:
119,108,19591,6,0,P|101:65|127:6,2,90,10|10|10,0:3|0:3|0:2,0:0:0:0:
138,225,20591,2,0,L|123:306,1,60,8|10,0:3|0:2,0:0:0:0:
230,351,21191,2,0,L|339:338,1,90,10|8,0:3|0:3,0:0:0:0:
269,264,21791,2,0,L|388:249,1,120,10|8,0:2|0:3,0:0:0:0:
419,245,22391,2,0,L|430:179,1,60,10|4,0:2|0:3,0:0:0:0:
425,155,22791,6,0,B|460:183|460:183|521:177,2,90,10|10|10,0:3|0:3|0:2,0:0:0:0:
358,58,23791,1,8,0:3:0:0:
358,58,23991,1,10,0:2:0:0:
302,162,24391,6,0,L|200:149,1,90,2|2,0:2|0:2,0:0:0:0:
154,220,24991,2,0,B|110:212|110:212|74:165,2,90,6|6|6,0:0|0:0|0:0,0:0:0:0:
181,350,25991,6,0,L|298:339,1,99.0000030212403,4|6,0:0|0:3,0:0:0:0:
364,334,26591,1,10,0:1:0:0:
468,235,26991,2,0,L|482:130,2,99.0000030212403,6|2|6,0:3|0:0|0:3,0:0:0:0:
465,273,27791,1,2,0:0:0:0:
465,273,27991,1,2,0:0:0:0:
368,181,28391,2,0,L|382:76,2,99.0000030212403,2|2|2,0:0|0:0|0:0,0:0:0:0:
364,212,29191,6,0,L|249:199,1,99.0000030212403,4|6,0:3|0:3,0:0:0:0:
178,188,29791,1,10,0:1:0:0:
47,129,30191,2,0,L|35:28,2,99.0000030212403,6|2|6,0:3|0:0|0:3,0:0:0:0:
54,166,30991,1,2,0:0:0:0:
54,166,31191,1,2,0:0:0:0:
178,188,31591,2,0,L|166:87,2,99.0000030212403,2|2|2,0:0|0:0|0:0,0:0:0:0:
164,219,32391,6,0,P|198:222|252:273,1,99.0000030212403,4|6,0:0|0:3,0:0:0:0:
249,352,32991,1,10,0:1:0:0:
249,352,33191,2,0,P|215:349|161:298,2,99.0000030212403,2|2|2,0:0|0:0|0:0,0:0:0:0:
364,261,34191,2,0,L|480:249,2,99.0000030212403,2|2|2,0:0|0:0|0:0,0:0:0:0:
336,265,34991,1,6,0:3:0:0:
336,265,35191,1,8,0:1:0:0:
414,157,35591,6,0,B|445:121|445:121|431:58,1,99.0000030212403,4|6,0:3|0:3,0:0:0:0:
378,2,36191,1,10,0:1:0:0:
270,95,36591,2,0,L|143:70,1,99.0000030212403,6|2,0:3|0:0,0:0:0:0:
92,46,37191,6,0,B|87:86|87:86|77:105|77:105|71:165,1,99.0000030212403,6|6,0:0|0:0,0:0:0:0:
156,180,37791,2,0,B|151:220|151:220|141:239|141:239|135:299,1,99.0000030212403,6|6,0:0|0:0,0:0:0:0:
69,333,38391,2,0,L|-3:316,2,66.0000020141602,6|0|6,1:2|1:0|0:0,0:0:0:0:
46,126,51591,6,0,P|29:100|47:16,2,120,8|8|8,0:3|0:3|0:3,0:0:0:0:
144,197,52791,1,8,0:3:0:0:
206,107,53191,2,0,P|256:108|309:167,1,120,8|8,0:3|0:3,0:0:0:0:
407,215,53991,2,0,P|418:173|461:147,2,90,8|2|2,0:3|0:2|0:2,0:0:0:0:
424,243,54791,6,0,P|451:278|428:368,1,120,8|8,0:3|0:3,0:0:0:0:
327,368,55591,1,8,0:3:0:0:
327,368,55791,2,0,P|291:334|231:332,1,90,2|2,0:2|0:2,0:0:0:0:
174,365,56391,6,0,L|42:374,1,120,8|8,0:3|0:3,0:0:0:0:
11,262,57191,1,8,0:3:0:0:
102,183,57591,1,8,0:3:0:0:
48,77,57991,6,0,P|68:48|154:35,2,120,8|8|8,0:3|0:3|0:3,0:0:0:0:
102,183,59191,1,8,0:3:0:0:
11,262,59591,2,0,P|17:305|89:348,1,120,8|8,0:3|0:3,0:0:0:0:
196,364,60391,2,0,P|250:355|270:351,1,60,8|2,0:3|0:2,0:0:0:0:
285,349,60791,1,8,0:3:0:0:
390,265,61191,6,0,B|439:270|439:270|478:225,1,99.0000030212403,4|4,0:0|0:0,0:0:0:0:
439,149,61791,2,0,B|390:144|390:144|351:189,1,99.0000030212403,4|4,0:0|0:0,0:0:0:0:
304,252,62391,1,12,1:0:0:0:
177,183,62791,6,0,B|128:188|128:188|89:143,2,99.0000030212403,8|8|8,0:3|0:3|0:3,0:0:0:0:
210,178,63591,1,8,1:0:0:0:
303,86,63991,1,8,1:0:0:0:
433,110,64391,6,0,P|426:162|413:365,1,240,6|8,0:0|1:0,0:0:0:0:
410,378,65391,2,0,P|371:351|318:356,1,90,2|2,0:2|0:2,0:0:0:0:
248,314,65991,2,0,L|142:334,2,90,6|6|6,0:0|0:0|0:0,0:0:0:0:
267,288,66791,1,10,0:0:0:0:
186,195,67191,1,2,0:2:0:0:
241,84,67591,6,0,P|159:113|10:95,1,240,6|8,0:0|1:0,0:0:0:0:
7,124,68591,2,0,P|40:167|30:227,1,90,2|2,0:2|0:2,0:0:0:0:
95,276,69191,2,0,L|75:382,2,90,6|6|6,0:0|0:0|0:0,0:0:0:0:
95,276,70791,6,0,P|104:210|123:25,1,240,6|8,0:0|1:0,0:0:0:0:
124,7,71791,2,0,P|157:36|223:27,1,90,2|2,0:2|0:2,0:0:0:0:
291,57,72391,2,0,L|406:36,2,90,6|6|6,0:0|0:0|0:0,0:0:0:0:
278,86,73191,1,10,0:0:0:0:
296,206,73591,1,2,0:2:0:0:
240,309,73991,6,0,P|357:287|476:271,1,240,6|8,0:0|1:0,0:0:0:0:
507,277,74991,2,0,P|486:240|495:178,1,90,2|2,0:2|0:2,0:0:0:0:
410,156,75591,2,0,L|431:54,1,90,4|6,0:0|0:0,0:0:0:0:
504,17,76191,1,6,0:0:0:0:
186,117,77191,6,0,L|176:15,2,99.0000030212403,14|2|10,0:1|0:0|0:1,0:0:0:0:
208,144,77991,2,0,L|198:223,1,66.0000020141602,10|10,0:3|0:1,0:0:0:0:
172,225,78391,1,10,0:3:0:0:
187,350,78791,2,0,L|305:329,1,99.0000030212403,10|2,0:3|0:0,0:0:0:0:
308,248,79391,2,0,L|459:271,1,132.00000402832,10|10,0:1|0:1,0:0:0:0:
506,157,80191,1,10,0:1:0:0:
506,157,80391,6,0,P|507:118|465:68,1,99.0000030212403,10|2,0:3|0:0,0:0:0:0:
393,37,80991,1,10,0:1:0:0:
393,37,81191,2,0,P|337:50|314:46,1,66.0000020141602,10|8,0:3|0:1,0:0:0:0:
310,77,81591,2,0,P|254:64|231:68,1,66.0000020141602,10|10,0:3|0:1,0:0:0:0:
220,84,81991,5,10,0:3:0:0:
91,64,82391,1,10,0:3:0:0:
71,193,82791,1,8,0:3:0:0:
200,213,83191,2,0,P|250:203|281:174,1,66.0000020141602,8|8,0:1|0:1,0:0:0:0:
290,175,83591,6,0,L|276:288,2,99.0000030212403,14|2|10,0:1|0:0|0:1,0:0:0:0:
312,152,84391,2,0,L|302:81,1,66.0000020141602,10|10,0:3|0:1,0:0:0:0:
283,60,84791,1,10,0:3:0:0:
409,23,85191,2,0,L|424:129,1,99.0000030212403,10|2,0:3|0:0,0:0:0:0:
499,165,85791,2,0,L|484:299,1,132.00000402832,10|10,0:1|0:1,0:0:0:0:
376,368,86591,1,10,0:1:0:0:
376,368,86791,6,0,P|334:336|269:336,1,99.0000030212403,10|2,0:3|0:0,0:0:0:0:
210,377,87391,1,10,0:1:0:0:
210,377,87591,2,0,P|198:339|198:307,1,66.0000020141602,10|8,0:3|0:1,0:0:0:0:
168,297,87991,2,0,P|180:259|180:227,1,66.0000020141602,10|10,0:3|0:1,0:0:0:0:
160,206,88391,5,10,0:3:0:0:
295,193,88791,1,10,0:3:0:0:
430,180,89191,1,10,0:3:0:0:
505,71,89591,2,0,P|465:62|434:54,1,66.0000020141602,10|8,1:0|1:0,0:0:0:0:
419,31,89991,6,0,L|264:57,1,132.00000402832,14|8,0:1|0:1,0:0:0:0:
186,134,90791,2,0,L|113:127,1,66.0000020141602,10|2,0:3|0:0,0:0:0:0:
87,124,91191,1,10,0:1:0:0:
19,239,91591,2,0,L|128:249,1,99.0000030212403,10|2,0:3|0:0,0:0:0:0:
107,336,92191,2,0,L|249:349,1,132.00000402832,2|2,0:0|0:0,0:0:0:0:
310,242,92991,1,2,0:0:0:0:
310,242,93191,6,0,P|352:222|425:235,1,99.0000030212403,10|2,0:3|0:0,0:0:0:0:
485,264,93791,1,2,0:0:0:0:
485,264,93991,2,0,P|497:214|509:186,1,66.0000020141602,10|2,0:3|0:0,0:0:0:0:
480,174,94391,2,0,P|490:142|497:110,1,66.0000020141602,10|2,0:1|0:0,0:0:0:0:
486,80,94791,5,10,0:3:0:0:
372,22,95191,1,10,0:1:0:0:
380,156,95591,1,8,0:3:0:0:
266,95,95991,2,0,P|209:85|195:76,1,66.0000020141602,8|8,0:1|0:1,0:0:0:0:
182,56,96391,6,0,L|168:192,1,132.00000402832,14|8,0:1|0:1,0:0:0:0:
60,261,97191,2,0,L|72:335,1,66.0000020141602,10|2,0:3|0:0,0:0:0:0:
78,359,97591,1,10,0:1:0:0:
196,303,97991,2,0,L|310:313,1,99.0000030212403,10|2,0:3|0:0,0:0:0:0:
267,225,98591,2,0,L|415:238,1,132.00000402832,2|2,0:0|0:0,0:0:0:0:
452,116,99391,1,2,0:0:0:0:
452,116,99591,6,0,P|416:74|354:68,1,99.0000030212403,10|2,0:3|0:0,0:0:0:0:
296,103,100191,1,2,0:0:0:0:
296,103,100391,2,0,P|229:92|220:86,1,66.0000020141602,10|2,0:3|0:0,0:0:0:0:
212,119,100791,2,0,P|180:108|147:109,1,66.0000020141602,10|2,0:1|0:0,0:0:0:0:
121,128,101191,5,14,0:1:0:0:
57,194,101491,5,14,0:1:0:0:
59,283,101791,5,14,0:1:0:0:
117,350,102091,6,0,P|204:334|237:330,1,99.0000030212403,12|12,0:1|0:1,0:0:0:0:
334,277,102791,6,0,B|374:283|374:283|386:292|386:292|448:301,2,99.0000030212403,4|4|4,0:0|0:0|0:0,0:0:0:0:
271,215,103691,2,0,B|231:221|231:221|219:230|219:230|157:239,2,99.0000030212403,4|4|4,0:0|0:0|0:0,0:0:0:0:
363,171,104591,2,0,B|403:177|403:177|415:186|415:186|477:195,2,99.0000030212403,4|4|4,0:0|0:0|0:0,0:0:0:0:
273,108,105491,2,0,B|233:114|233:114|221:123|221:123|159:132,2,99.0000030212403,4|4|4,0:0|0:0|0:0,0:0:0:0:
273,108,106591,6,0,P|279:51|281:28,1,66.0000020141602,4|12,0:3|0:0,0:0:0:0:
256,192,106891,12,0,113391,0:0:0:0:
