osu file format v14

[General]
AudioFilename: audio.mp3
AudioLeadIn: 0
PreviewTime: 76691
Countdown: 0
SampleSet: Soft
StackLeniency: 0.4
Mode: 0
LetterboxInBreaks: 0
WidescreenStoryboard: 1

[Editor]
Bookmarks: 24391,69191,77191
DistanceSpacing: 0.3
BeatDivisor: 12
GridSize: 32
TimelineZoom: 1.4

[Metadata]
Title:[Nexus]
TitleUnicode:[Nexus]
Artist:mafumafu
ArtistUnicode:まふまふ
Creator:William K
Version:Insane
Source:
Tags:utaite ashita iro asuiro world end 明日色ワールドエンド instrumental japanese electronic rock j-rock jrock
BeatmapID:2933400
BeatmapSetID:707703

[Difficulty]
HPDrainRate:5
CircleSize:3.7
OverallDifficulty:7.5
ApproachRate:8
SliderMultiplier:1.7
SliderTickRate:1

[Events]
//Background and Video events
0,0,"futuristic-city-wallpaper-7.jpg",0,0
//Break Periods
2,38991,50641
//Storyboard Layer 0 (Background)
//Storyboard Layer 1 (Fail)
//Storyboard Layer 2 (Pass)
//Storyboard Layer 3 (Foreground)
//Storyboard Layer 4 (Overlay)
//Storyboard Sound Samples

[TimingPoints]
391,400,4,2,1,60,1,0
12991,-100,4,2,1,60,0,0
24391,-100,4,2,1,60,0,0
24591,-100,4,2,1,5,0,0
24691,-100,4,2,1,60,0,0
24791,-100,4,2,1,5,0,0
24891,-100,4,2,1,65,0,0
24991,-71.4285714285714,4,2,1,80,0,0
25991,-83.3333333333333,4,2,1,70,0,0
37191,-100,4,2,1,80,0,0
38791,-100,4,2,1,40,0,0
45191,-100,4,2,1,40,0,0
51591,-111.111111111111,4,2,1,50,0,0
57991,-105.263157894737,4,2,1,50,0,0
61191,-83.3333333333333,4,2,1,80,0,0
64391,-100,4,2,1,70,0,0
76391,-100,4,2,1,20,0,0
76791,-100,4,2,1,70,0,0
77191,-71.4285714285714,4,2,1,85,0,1
89991,-90.9090909090909,4,2,1,85,0,1
101191,-66.6666666666667,4,2,1,90,0,1
102791,-83.3333333333333,4,2,1,80,0,1
102991,-83.3333333333333,4,2,1,5,0,0
103091,-76.9230769230769,4,2,1,81,0,1
103291,-76.9230769230769,4,2,1,5,0,0
103391,-71.4285714285714,4,2,1,82,0,1
103591,-71.4285714285714,4,2,1,5,0,0
103691,-66.6666666666667,4,2,1,83,0,1
103891,-66.6666666666667,4,2,1,5,0,0
103991,-62.5,4,2,1,84,0,1
104191,-62.5,4,2,1,5,0,0
104291,-58.8235294117647,4,2,1,95,0,1
104491,-58.8235294117647,4,2,1,5,0,0
104591,-55.5555555555556,4,2,1,86,0,1
104791,-55.5555555555556,4,2,1,5,0,0
104891,-52.6315789473684,4,2,1,87,0,1
105091,-52.6315789473684,4,2,1,5,0,0
105191,-50,4,2,1,89,0,1
105391,-50,4,2,1,5,0,0
105491,-47.6190476190476,4,2,1,90,0,1
105691,-47.6190476190476,4,2,1,5,0,0
105791,-45.4545454545455,4,2,1,91,0,1
105991,-45.4545454545455,4,2,1,5,0,0
106091,-83.3333333333333,4,2,1,92,0,1
106191,-83.3333333333333,4,2,1,5,0,0
106591,-83.3333333333333,4,2,1,95,0,0
106691,-83.3333333333333,4,2,1,5,0,0
106791,-83.3333333333333,4,2,1,95,0,0
109191,-83.3333333333333,4,2,1,65,0,0
110791,-83.3333333333333,4,2,1,55,0,0
112391,-83.3333333333333,4,2,1,35,0,0
113391,-83.3333333333333,4,2,1,5,0,0

[Colours]
Combo1 : 201,201,201
Combo2 : 185,255,185
Combo3 : 255,217,179
Combo4 : 251,179,189

[HitObjects]
139,56,12991,5,8,0:3:0:0:
139,56,13091,1,4,0:3:0:0:
139,56,13191,2,0,L|149:141,1,85,10|0,0:3|0:0,0:0:0:0:
80,191,13491,2,0,L|149:141,1,85,10|4,0:3|0:3,0:0:0:0:
226,175,13791,2,0,L|149:141,1,85,10|0,0:2|0:0,0:0:0:0:
2,156,14191,1,8,0:3:0:0:
2,156,14291,1,4,0:3:0:0:
2,156,14391,2,0,L|79:190,1,85,10|0,0:2|0:0,0:0:0:0:
317,151,14791,5,10,0:3:0:0:
317,151,14891,2,0,L|306:242,2,85,4|8|4,0:3|0:3|0:3,0:0:0:0:
327,71,15391,1,10,0:2:0:0:
327,71,15791,2,0,L|335:11,1,42.5,8|4,0:3|0:3,0:0:0:0:
317,151,15991,2,0,L|306:242,1,85,10|0,0:2|0:0,0:0:0:0:
168,357,16391,6,0,L|90:324,1,85,10|0,0:3|0:0,0:0:0:0:
81,239,16691,2,0,L|90:324,1,85,10|4,0:3|0:3,0:0:0:0:
21,373,16991,2,0,L|90:324,1,85,10|0,0:2|0:0,0:0:0:0:
149,189,17391,1,8,0:3:0:0:
149,189,17491,1,4,0:3:0:0:
149,189,17591,2,0,L|81:238,1,85,10|0,0:2|0:0,0:0:0:0:
256,353,17991,5,10,0:3:0:0:
256,353,18091,2,0,L|247:268,2,85,4|8|4,0:3|0:3|0:3,0:0:0:0:
336,367,18591,1,10,0:2:0:0:
336,367,18991,2,0,L|384:359,1,42.5,8|4,0:3|0:3,0:0:0:0:
256,353,19191,2,0,L|247:268,1,85,10|0,0:2|0:0,0:0:0:0:
237,181,19491,1,4,0:3:0:0:
237,181,19591,6,0,P|279:175|314:151,1,85,10|0,0:3|0:0,0:0:0:0:
325,70,19891,2,0,P|309:109|314:151,1,85,10|4,0:3|0:3,0:0:0:0:
378,201,20191,2,0,P|352:168|314:151,1,85,10|0,0:2|0:0,0:0:0:0:
260,19,20591,1,8,0:3:0:0:
260,19,20691,1,4,0:3:0:0:
260,19,20791,2,0,P|286:51|324:69,1,85,10|0,0:2|0:0,0:0:0:0:
477,170,21191,5,10,0:3:0:0:
477,170,21291,2,0,L|460:278,2,85,4|8|8,0:3|0:3|0:3,0:0:0:0:
490,92,21791,1,10,0:2:0:0:
490,92,22191,2,0,L|498:45,1,42.5,8|4,0:3|0:3,0:0:0:0:
477,170,22391,2,0,L|469:211,1,42.5,10|4,0:2|0:3,0:0:0:0:
456,297,22591,1,4,0:3:0:0:
456,297,22691,1,4,0:3:0:0:
456,297,22791,6,0,B|419:271|419:271|353:281,1,85,10|0,0:3|0:0,0:0:0:0:
324,333,23091,2,0,B|365:313|365:313|389:251,1,85,10|4,0:3|0:3,0:0:0:0:
359,200,23391,2,0,B|354:245|354:245|396:297,1,85,10|0,0:2|0:0,0:0:0:0:
475,372,23791,1,8,0:3:0:0:
475,372,23891,1,4,0:3:0:0:
475,372,23991,2,0,B|480:327|480:327|438:275,1,85,10|0,0:2|0:0,0:0:0:0:
268,260,24391,5,2,0:2:0:0:
188,246,24691,5,2,0:2:0:0:
124,298,24891,5,4,0:3:0:0:
124,298,24991,6,0,B|154:260|154:260|131:166,1,118.999996368408,6|0,0:0|0:0,0:0:0:0:
51,126,25291,2,0,B|68:170|68:170|161:198,1,118.999996368408,6|0,0:0|0:0,0:0:0:0:
247,133,25591,2,0,L|191:115,1,59.4999981842042,6|8,0:0|0:3,0:0:0:0:
134,96,25791,2,0,L|191:115,1,59.4999981842042,8|8,0:1|0:1,0:0:0:0:
222,233,25991,6,0,L|320:205,1,101.999996887207,4|0,0:0|0:0,0:0:0:0:
346,107,26291,2,0,L|320:205,1,101.999996887207,6|0,0:3|0:0,0:0:0:0:
393,277,26591,2,0,L|320:205,1,101.999996887207,10|2,0:1|0:0,0:0:0:0:
200,21,26991,2,0,L|101:48,1,101.999996887207,6|8,0:3|0:1,0:0:0:0:
2,75,27291,2,0,L|101:48,1,101.999996887207,2|0,0:0|0:0,0:0:0:0:
127,131,27591,6,0,L|120:181,3,50.9999984436036,6|4|2|4,0:3|0:3|0:0|0:3,0:0:0:0:
119,181,27991,2,0,L|98:326,1,101.999996887207,2|10,0:0|0:1,0:0:0:0:
98,363,28291,1,2,0:0:0:0:
98,363,28391,2,0,L|211:342,1,101.999996887207,2|4,0:0|0:3,0:0:0:0:
232,248,28691,1,2,0:0:0:0:
232,248,28791,2,0,L|193:356,1,101.999996887207,8|2,0:1|0:0,0:0:0:0:
464,357,29191,6,0,L|433:260,1,101.999996887207,4|0,0:3|0:0,0:0:0:0:
333,238,29491,2,0,L|433:260,1,101.999996887207,6|0,0:3|0:0,0:0:0:0:
501,184,29791,2,0,L|433:260,1,101.999996887207,10|2,0:1|0:0,0:0:0:0:
276,375,30191,2,0,L|176:353,1,101.999996887207,6|8,0:3|0:1,0:0:0:0:
76,332,30491,2,0,L|175:353,1,101.999996887207,2|0,0:0|0:0,0:0:0:0:
200,266,30791,6,0,L|217:199,3,50.9999984436036,6|4|2|4,0:3|0:3|0:0|0:3,0:0:0:0:
212,216,31191,2,0,L|244:89,1,101.999996887207,2|10,0:0|0:1,0:0:0:0:
255,40,31491,1,2,0:0:0:0:
255,40,31591,2,0,L|155:21,1,101.999996887207,2|4,0:0|0:3,0:0:0:0:
88,97,31891,1,2,0:0:0:0:
88,97,31991,2,0,L|155:21,1,101.999996887207,8|2,0:1|0:0,0:0:0:0:
392,64,32391,6,0,P|412:110|402:159,1,101.999996887207,4|0,0:0|0:0,0:0:0:0:
325,214,32691,2,0,P|353:173|402:159,1,101.999996887207,6|0,0:3|0:0,0:0:0:0:
490,200,32991,1,10,0:1:0:0:
311,318,33191,2,0,P|261:313|225:278,1,101.999996887207,2|4,0:0|0:3,0:0:0:0:
216,184,33491,1,2,0:0:0:0:
216,184,33591,2,0,P|236:229|224:278,1,101.999996887207,8|2,0:1|0:0,0:0:0:0:
41,364,33991,5,6,0:3:0:0:
41,364,34091,1,4,0:3:0:0:
41,364,34191,2,0,L|50:253,1,101.999996887207,2|0,0:0|0:0,0:0:0:0:
57,160,34491,2,0,L|48:261,1,101.999996887207,2|0,0:0|0:0,0:0:0:0:
128,274,34791,2,0,L|192:280,3,50.9999984436036,2|0|6|2,0:0|1:0|0:3|0:0,0:0:0:0:
178,278,35191,2,0,L|307:290,1,101.999996887207,8|2,0:1|0:0,0:0:0:0:
407,127,35591,6,0,B|380:84|380:84|329:87,1,101.999996887207,4|0,0:3|0:0,0:0:0:0:
255,134,35891,2,0,B|305:132|305:132|329:87,1,101.999996887207,6|0,0:3|0:0,0:0:0:0:
323,0,36191,2,0,B|300:43|300:43|329:87,1,101.999996887207,10|2,0:1|0:0,0:0:0:0:
476,254,36591,2,0,L|491:154,1,101.999996887207,6|8,0:3|0:1,0:0:0:0:
505,53,36891,2,0,L|491:154,1,101.999996887207,2|0,0:0|0:0,0:0:0:0:
476,254,37191,5,6,0:0:0:0:
370,341,37491,5,6,0:0:0:0:
192,332,37791,5,6,0:0:0:0:
86,195,38091,5,6,0:0:0:0:
99,27,38391,5,6,1:2:0:0:
128,17,38491,1,0,1:0:0:0:
159,24,38591,1,0,1:0:0:0:
180,47,38691,1,0,1:0:0:0:
185,78,38791,1,6,0:0:0:0:
99,15,51391,5,2,0:0:0:0:
99,15,51491,1,2,0:0:0:0:
99,15,51591,2,0,B|124:47|124:47|102:169,1,152.999995330811,8|8,0:3|0:3,0:0:0:0:
14,173,52191,1,2,0:2:0:0:
89,232,52391,2,0,L|107:137,1,76.4999976654053,8|2,0:3|0:2,0:0:0:0:
183,217,52791,1,8,0:3:0:0:
183,217,52891,2,0,L|165:312,1,76.4999976654053,2|0,0:2|0:0,0:0:0:0:
168,292,53191,6,0,P|201:278|264:284,1,76.4999976654053,8|2,0:3|0:2,0:0:0:0:
290,335,53591,2,0,P|261:312|235:255,1,76.4999976654053,8|2,0:3|0:2,0:0:0:0:
310,226,53991,2,0,P|315:271|269:355,2,114.749996498108,8|2|2,0:3|0:2|0:2,0:0:0:0:
276,119,54791,6,0,P|320:134|370:151,1,76.4999976654053,8|2,0:3|0:2,0:0:0:0:
420,168,55191,2,0,P|376:153|326:136,1,76.4999976654053,8|2,0:3|0:2,0:0:0:0:
320,45,55591,1,8,0:3:0:0:
167,156,55791,2,0,P|211:141|289:114,1,114.749996498108,2|2,0:2|0:2,0:0:0:0:
398,307,56391,6,0,P|381:264|256:243,1,152.999995330811,8|8,0:3|0:3,0:0:0:0:
195,242,56991,1,2,0:2:0:0:
273,304,57191,2,0,L|289:211,1,76.4999976654053,8|2,0:3|0:2,0:0:0:0:
285,228,57491,1,8,0:3:0:0:
285,228,57591,1,8,0:3:0:0:
133,301,57791,1,8,0:3:0:0:
133,301,57891,1,8,0:3:0:0:
133,301,57991,6,0,B|98:269|98:269|123:153,1,161.499995687485,8|8,0:3|0:3,0:0:0:0:
47,104,58591,1,2,0:2:0:0:
139,78,58791,2,0,L|120:166,1,80.7499978437424,8|2,0:3|0:2,0:0:0:0:
222,123,59191,1,8,0:3:0:0:
222,123,59291,2,0,L|241:35,1,80.7499978437424,2|0,0:0|0:0,0:0:0:0:
239,44,59591,6,0,P|289:68|332:71,1,80.7499978437424,8|2,0:3|0:2,0:0:0:0:
374,20,59991,2,0,P|328:51|304:87,1,80.7499978437424,8|2,0:3|0:2,0:0:0:0:
339,158,60391,5,8,0:3:0:0:
423,191,60591,1,2,0:2:0:0:
327,307,60791,1,8,0:3:0:0:
282,232,60991,1,8,0:3:0:0:
282,232,61091,1,4,0:3:0:0:
282,232,61191,6,0,L|182:210,1,101.999996887207,4|0,0:0|0:0,0:0:0:0:
204,111,61491,2,0,L|183:211,1,101.999996887207,4|0,0:0|0:0,0:0:0:0:
83,189,61791,2,0,L|183:211,1,101.999996887207,4|0,0:0|0:0,0:0:0:0:
161,310,62091,2,0,L|183:211,1,101.999996887207,4|0,0:0|0:0,0:0:0:0:
83,189,62391,2,0,L|66:266,2,67.9999979248048,12|8|8,1:0|1:0|1:0,1:0:0:0:
183,210,62791,6,0,L|282:188,1,101.999996887207,8|0,0:3|0:0,0:0:0:0:
314,91,63091,2,0,L|282:188,1,101.999996887207,8|0,0:3|0:0,0:0:0:0:
351,264,63391,1,8,0:3:0:0:
351,264,63591,2,8,L|437:249,2,67.9999979248048,8|8|8,1:0|1:0|1:0,1:0:0:0:
417,252,63991,2,8,L|503:237,2,67.9999979248048,8|8|8,1:0|1:0|1:0,1:0:0:0:
316,344,64391,6,0,B|272:312|272:312|73:351,1,255,6|8,0:0|0:3,0:0:0:0:
6,257,65191,1,8,1:0:0:0:
6,257,65291,1,0,0:0:0:0:
6,257,65391,1,2,0:2:0:0:
75,350,65591,2,0,L|83:295,1,42.5,0|2,0:0|0:2,0:0:0:0:
93,226,65791,1,8,1:0:0:0:
90,204,65891,1,8,1:0:0:0:
86,181,65991,6,0,P|128:183|168:198,1,85,6|0,0:0|0:0,0:0:0:0:
70,128,66291,2,0,P|129:148|168:198,1,127.5,6|6,0:0|0:0,0:0:0:0:
152,340,66791,2,0,P|121:265|168:198,1,170,10|2,0:0|0:2,0:0:0:0:
212,273,67391,1,8,1:0:0:0:
382,356,67591,6,0,B|415:330|415:330|370:94,1,255,6|8,0:0|0:3,0:0:0:0:
368,35,68391,1,8,1:0:0:0:
368,35,68491,1,0,0:0:0:0:
368,35,68591,1,2,0:2:0:0:
375,120,68791,2,0,L|312:107,1,42.5,0|2,0:0|0:2,0:0:0:0:
257,88,68991,1,8,1:0:0:0:
232,94,69091,1,8,1:0:0:0:
206,99,69191,6,0,B|218:129|218:129|185:197,1,85,6|0,0:0|0:0,0:0:0:0:
85,217,69491,2,0,B|111:182|111:182|211:175,1,127.5,6|6,0:0|0:0,0:0:0:0:
340,232,69991,1,2,0:2:0:0:
340,232,70091,1,2,0:2:0:0:
340,232,70191,1,2,0:2:0:0:
340,232,70291,1,2,0:2:0:0:
340,232,70391,2,0,P|349:271|336:322,2,56.6666666666667,2|0|0,0:2|0:0|0:0,0:0:0:0:
172,275,70791,6,0,B|150:324|150:324|353:286,1,255,6|8,0:0|0:3,0:0:0:0:
462,353,71591,1,8,1:0:0:0:
462,353,71691,1,0,0:0:0:0:
462,353,71791,1,2,0:2:0:0:
347,286,71991,2,0,L|356:221,1,42.5,0|2,0:0|0:2,0:0:0:0:
368,163,72191,1,8,1:0:0:0:
365,141,72291,1,8,1:0:0:0:
362,119,72391,6,0,P|317:144|247:146,1,85,6|0,0:0|0:0,0:0:0:0:
326,38,72691,2,0,P|329:78|264:160,1,127.5,6|6,0:0|0:0,0:0:0:0:
141,98,73191,2,0,P|190:87|293:187,1,170,10|2,0:0|0:2,0:0:0:0:
191,192,73791,1,8,1:0:0:0:
248,347,73991,6,0,B|282:313|282:313|495:342,1,255,6|8,0:0|0:3,0:0:0:0:
423,248,74791,1,8,1:0:0:0:
423,248,74891,1,0,0:0:0:0:
423,248,74991,1,2,0:2:0:0:
487,340,75191,2,0,L|498:287,1,42.5,0|2,0:0|0:2,0:0:0:0:
510,217,75391,1,8,1:0:0:0:
505,195,75491,1,8,1:0:0:0:
500,173,75591,5,4,0:0:0:0:
384,80,75891,5,6,0:0:0:0:
227,110,76191,5,6,0:0:0:0:
227,110,76791,5,8,0:1:0:0:
224,131,76891,1,8,0:1:0:0:
222,152,76991,1,8,0:1:0:0:
219,173,77091,1,8,0:1:0:0:
221,198,77191,5,14,0:1:0:0:
221,198,77291,2,0,L|370:188,1,118.999996368408,2|2,0:0|0:0,0:0:0:0:
477,241,77691,1,2,0:0:0:0:
477,241,77791,2,0,L|486:174,1,59.4999981842042,10|0,0:1|0:0,0:0:0:0:
339,190,77991,2,0,L|348:123,1,59.4999981842042,10|0,0:3|0:0,0:0:0:0:
484,182,78191,2,0,L|493:115,1,59.4999981842042,10|0,0:1|0:0,0:0:0:0:
346,131,78391,2,0,L|355:64,1,59.4999981842042,10|0,0:3|0:0,0:0:0:0:
491,123,78591,2,0,L|500:56,1,59.4999981842042,8|0,0:1|0:0,0:0:0:0:
426,22,78791,5,10,0:3:0:0:
426,22,78891,2,0,L|300:38,1,118.999996368408,2|2,0:0|0:0,0:0:0:0:
113,123,79291,1,2,0:0:0:0:
113,123,79391,2,0,L|239:107,1,118.999996368408,10|8,0:1|0:3,0:0:0:0:
307,36,79691,1,0,0:0:0:0:
307,36,79791,2,0,B|281:39|281:39|251:106|251:106|220:110,1,118.999996368408,10|8,0:1|0:3,0:0:0:0:
25,136,80191,1,10,0:1:0:0:
25,136,80291,1,2,0:0:0:0:
25,136,80391,6,0,P|41:174|36:231,1,59.4999981842042,10|0,0:3|0:0,0:0:0:0:
15,267,80591,1,10,0:1:0:0:
15,267,80691,1,2,0:0:0:0:
177,350,80891,1,2,0:0:0:0:
177,350,80991,6,0,P|144:351|103:324,1,59.4999981842042,10|0,0:1|0:0,0:0:0:0:
176,235,81191,2,0,P|205:233|232:244,1,59.4999981842042,10|0,0:3|0:0,0:0:0:0:
233,359,81391,2,0,P|200:360|159:333,1,59.4999981842042,8|0,0:1|0:0,0:0:0:0:
232,244,81591,2,0,P|265:243|306:270,1,59.4999981842042,10|0,0:3|0:0,0:0:0:0:
289,368,81791,2,0,P|256:369|215:342,1,59.4999981842042,10|0,0:1|0:0,0:0:0:0:
361,310,81991,6,0,P|400:309|451:378,1,118.999996368408,10|8,0:3|0:1,0:0:0:0:
450,364,82291,2,0,P|429:330|463:252,1,118.999996368408,2|0,0:0|0:0,0:0:0:0:
452,259,82591,2,0,P|433:293|348:302,1,118.999996368408,10|8,0:1|0:3,0:0:0:0:
280,142,82991,1,10,0:1:0:0:
280,142,83091,1,0,0:0:0:0:
280,142,83191,2,0,P|295:98|285:68,1,59.4999981842042,8|8,0:1|0:1,0:0:0:0:
306,30,83391,2,0,P|291:74|301:104,1,59.4999981842042,8|8,0:1|0:1,0:0:0:0:
380,211,83591,5,14,0:1:0:0:
380,211,83691,2,0,L|219:225,1,118.999996368408,2|2,0:0|0:0,0:0:0:0:
120,288,84091,1,2,0:0:0:0:
120,288,84191,2,0,L|104:206,1,59.4999981842042,10|0,0:1|0:0,0:0:0:0:
261,221,84391,2,0,L|249:162,1,59.4999981842042,10|0,0:3|0:0,0:0:0:0:
108,229,84591,2,0,L|92:147,1,59.4999981842042,10|0,0:1|0:0,0:0:0:0:
249,162,84791,2,0,L|233:80,1,59.4999981842042,10|0,0:3|0:0,0:0:0:0:
96,170,84991,2,0,L|80:88,1,59.4999981842042,8|0,0:1|0:0,0:0:0:0:
162,59,85191,5,10,0:3:0:0:
162,59,85291,2,0,L|288:75,1,118.999996368408,2|2,0:0|0:0,0:0:0:0:
475,160,85691,1,2,0:0:0:0:
475,160,85791,2,0,L|349:144,1,118.999996368408,10|8,0:1|0:3,0:0:0:0:
281,73,86091,1,0,0:0:0:0:
281,73,86191,2,0,B|307:76|307:76|337:143|337:143|368:147,1,118.999996368408,10|8,0:1|0:3,0:0:0:0:
512,249,86591,1,10,0:1:0:0:
512,249,86691,1,2,0:0:0:0:
512,249,86791,6,0,P|495:290|494:336,1,59.4999981842042,10|0,0:3|0:0,0:0:0:0:
512,384,86991,1,10,0:1:0:0:
512,384,87091,1,2,0:0:0:0:
383,260,87291,1,2,0:0:0:0:
383,260,87391,2,0,P|344:238|307:245,1,59.4999981842042,10|0,0:1|0:0,0:0:0:0:
244,328,87591,2,0,P|283:350|320:343,1,59.4999981842042,10|0,0:3|0:0,0:0:0:0:
330,237,87791,2,0,P|291:215|254:222,1,59.4999981842042,8|0,0:1|0:0,0:0:0:0:
191,305,87991,2,0,P|230:327|267:320,1,59.4999981842042,10|0,0:3|0:0,0:0:0:0:
277,214,88191,2,0,P|238:192|201:199,1,59.4999981842042,10|0,0:1|0:0,0:0:0:0:
85,234,88391,6,0,P|118:235|143:225,1,59.4999981842042,10|0,0:3|0:0,0:0:0:0:
27,242,88591,2,0,P|60:243|85:233,1,59.4999981842042,10|0,0:1|0:0,0:0:0:0:
153,135,88791,6,0,P|124:125|95:127,1,59.4999981842042,10|0,0:3|0:0,0:0:0:0:
37,119,88991,2,0,P|65:128|94:126,1,59.4999981842042,10|0,0:1|0:0,0:0:0:0:
75,44,89191,1,10,0:3:0:0:
75,44,89291,1,10,0:3:0:0:
224,191,89491,1,2,0:0:0:0:
224,191,89591,1,10,1:0:0:0:
253,187,89691,1,8,1:0:0:0:
283,183,89791,1,8,1:0:0:0:
312,180,89891,1,8,1:0:0:0:
346,180,89991,5,14,0:1:0:0:
346,180,90091,2,0,L|357:59,1,93.5000028533936,2|2,0:0|0:0,0:0:0:0:
501,19,90491,1,2,0:0:0:0:
501,19,90591,2,0,L|441:6,1,46.7500014266968,2|0,0:0|0:0,0:0:0:0:
354,86,90791,2,0,L|294:73,1,46.7500014266968,10|0,0:3|0:0,0:0:0:0:
455,9,90991,2,0,L|395:-4,1,46.7500014266968,2|0,0:0|0:0,0:0:0:0:
308,76,91191,2,0,L|186:49,1,93.5000028533936,10|2,0:1|0:0,0:0:0:0:
140,36,91491,1,0,0:0:0:0:
140,36,91591,1,10,0:3:0:0:
140,36,91691,6,0,L|122:146,1,93.5000028533936,2|2,0:0|0:0,0:0:0:0:
98,312,92091,1,2,0:0:0:0:
98,312,92191,2,0,L|116:202,1,93.5000028533936,2|8,0:0|0:3,0:0:0:0:
124,128,92491,1,0,0:0:0:0:
124,128,92591,2,0,B|118:158|118:158|119:191|119:191|110:240,1,93.5000028533936,2|8,0:0|0:1,0:0:0:0:
193,375,92991,6,0,P|213:356|250:352,1,46.7500014266968,2|2,0:0|0:0,0:0:0:0:
256,235,93191,2,0,P|236:254|199:258,1,46.7500014266968,10|0,0:3|0:0,0:0:0:0:
230,350,93391,2,0,P|256:357|278:387,1,46.7500014266968,2|2,0:0|0:0,0:0:0:0:
269,191,93691,1,2,0:0:0:0:
269,191,93791,2,0,P|255:229|264:262,1,46.7500014266968,2|0,0:0|0:0,0:0:0:0:
348,289,93991,2,0,P|362:251|353:218,1,46.7500014266968,10|0,0:3|0:0,0:0:0:0:
282,147,94191,2,0,P|268:185|277:218,1,46.7500014266968,2|0,0:0|0:0,0:0:0:0:
361,245,94391,2,0,P|375:207|366:174,1,46.7500014266968,10|0,0:1|0:0,0:0:0:0:
295,103,94591,2,0,P|281:141|290:174,1,46.7500014266968,2|0,0:0|0:0,0:0:0:0:
410,46,94791,6,0,P|411:80|472:122,1,93.5000028533936,10|0,0:3|0:0,0:0:0:0:
465,110,95091,2,0,P|494:90|500:17,1,93.5000028533936,2|0,0:0|0:0,0:0:0:0:
492,30,95391,2,0,P|461:14|394:45,1,93.5000028533936,2|8,0:0|0:3,0:0:0:0:
213,114,95791,1,10,0:1:0:0:
213,114,95891,1,8,1:0:0:0:
213,114,95991,2,0,P|175:118|152:108,1,46.7500014266968,8|8,0:1|0:1,0:0:0:0:
121,117,96191,2,0,P|159:113|182:123,1,46.7500014266968,8|8,0:1|0:1,0:0:0:0:
175,202,96391,5,14,0:1:0:0:
175,202,96491,2,0,L|161:303,1,93.5000028533936,2|2,0:0|0:0,0:0:0:0:
27,368,96891,1,2,0:0:0:0:
27,368,96991,2,0,L|82:376,1,46.7500014266968,2|0,0:0|0:0,0:0:0:0:
162,294,97191,2,0,L|217:302,1,46.7500014266968,10|0,0:3|0:0,0:0:0:0:
73,374,97391,2,0,L|128:382,1,46.7500014266968,2|0,0:0|0:0,0:0:0:0:
208,300,97591,2,0,L|318:316,1,93.5000028533936,10|2,0:1|0:0,0:0:0:0:
387,331,97891,1,0,0:0:0:0:
387,331,97991,1,10,0:3:0:0:
387,331,98091,6,0,L|405:221,1,93.5000028533936,2|2,0:0|0:0,0:0:0:0:
429,55,98491,1,2,0:0:0:0:
429,55,98591,2,0,L|411:165,1,93.5000028533936,2|8,0:0|0:3,0:0:0:0:
403,239,98891,1,0,0:0:0:0:
403,239,98991,2,0,B|409:209|409:209|408:176|408:176|417:127,1,93.5000028533936,2|8,0:0|0:1,0:0:0:0:
342,26,99391,6,0,P|314:17|278:31,1,46.7500014266968,2|2,0:0|0:0,0:0:0:0:
261,138,99591,2,0,P|284:139|305:131,1,46.7500014266968,10|0,0:3|0:0,0:0:0:0:
297,19,99791,2,0,P|275:38|269:76,1,46.7500014266968,2|2,0:0|0:0,0:0:0:0:
284,274,100091,1,2,0:0:0:0:
284,274,100191,6,0,P|305:254|311:216,1,46.7500014266968,2|0,0:0|0:0,0:0:0:0:
261,138,100391,2,0,P|239:157|233:195,1,46.7500014266968,10|0,0:3|0:0,0:0:0:0:
256,309,100591,2,0,P|277:289|283:251,1,46.7500014266968,2|0,0:0|0:0,0:0:0:0:
233,173,100791,2,0,P|211:192|205:230,1,46.7500014266968,10|0,0:1|0:0,0:0:0:0:
228,344,100991,2,0,P|249:324|255:286,1,46.7500014266968,2|0,0:0|0:0,0:0:0:0:
139,174,101191,6,0,B|80:151|80:151|-2:204,1,127.500004863739,14|0,0:1|0:0,0:0:0:0:
185,277,101491,2,0,B|188:213|188:213|112:151,1,127.500004863739,14|0,0:1|0:0,0:0:0:0:
101,353,101791,2,0,B|162:336|162:336|197:245,1,127.500004863739,14|0,0:1|0:0,0:0:0:0:
3,295,102091,2,0,B|37:348|37:348|135:353,1,127.500004863739,12|0,0:1|0:0,0:0:0:0:
25,185,102391,6,0,L|8:271,1,63.7500024318696,12|0,0:1|0:0,0:0:0:0:
138,173,102591,2,0,L|155:87,1,63.7500024318696,8|0,0:1|0:0,0:0:0:0:
294,95,102791,6,0,P|299:145|276:190,1,101.999996887207,4|0,0:0|0:0,0:0:0:0:
361,128,103091,6,0,B|338:166|338:166|276:190,1,110.499994941712,4|0,0:0|0:0,0:0:0:0:
384,203,103391,6,0,P|327:216|276:190,1,118.999996368408,4|0,0:0|0:0,0:0:0:0:
348,284,103691,6,0,B|308:267|308:267|276:190,1,127.500004863739,4|0,0:0|0:0,0:0:0:0:
270,312,103991,6,0,P|248:250|276:190,1,136,4|0,0:0|0:0,0:0:0:0:
182,286,104291,6,0,B|193:240|193:240|276:190,1,144.500002756119,4|0,0:0|0:0,0:0:0:0:
138,216,104591,6,0,P|202:177|276:190,1,152.999995330811,4|0,0:0|0:0,0:0:0:0:
147,110,104891,6,0,B|201:112|201:112|276:190,1,161.499995687485,4|0,0:0|0:0,0:0:0:0:
211,46,105191,6,0,P|269:106|276:190,1,170,4|0,0:0|0:0,0:0:0:0:
335,35,105491,6,0,B|345:98|345:98|276:190,1,178.499994552612,4|0,0:0|0:0,0:0:0:0:
423,104,105791,6,0,P|366:176|276:190,1,187.000005706787,4|0,0:0|0:0,0:0:0:0:
276,190,106091,1,4,0:0:0:0:
399,320,106591,6,0,P|395:294|387:270,1,50.9999984436036,4|0,0:3|0:0,0:0:0:0:
276,190,106791,1,12,0:0:0:0:
256,192,106891,12,0,113391,0:0:0:0:
