osu file format v14

[General]
AudioFilename: audio.mp3
AudioLeadIn: 0
PreviewTime: 76691
Countdown: 0
SampleSet: Soft
StackLeniency: 0.4
Mode: 0
LetterboxInBreaks: 0
WidescreenStoryboard: 1

[Editor]
Bookmarks: 24391,69191,77191
DistanceSpacing: 0.6
BeatDivisor: 4
GridSize: 32
TimelineZoom: 1.4

[Metadata]
Title:[Nexus]
TitleUnicode:[Nexus]
Artist:mafumafu
ArtistUnicode:まふまふ
Creator:William K
Version:Hard
Source:
Tags:utaite ashita iro asuiro world end 明日色ワールドエンド instrumental japanese electronic rock j-rock jrock
BeatmapID:2952945
BeatmapSetID:707703

[Difficulty]
HPDrainRate:4.5
CircleSize:3.5
OverallDifficulty:6
ApproachRate:7
SliderMultiplier:1.5
SliderTickRate:1

[Events]
//Background and Video events
0,0,"futuristic-city-wallpaper-7.jpg",0,0
//Break Periods
2,38991,50491
//Storyboard Layer 0 (Background)
//Storyboard Layer 1 (Fail)
//Storyboard Layer 2 (Pass)
//Storyboard Layer 3 (Foreground)
//Storyboard Layer 4 (Overlay)
//Storyboard Sound Samples

[TimingPoints]
391,400,4,2,1,60,1,0
13191,-111.111111111111,4,2,1,60,0,0
24391,-100,4,2,1,60,0,0
24591,-100,4,2,1,5,0,0
24691,-100,4,2,1,60,0,0
24791,-100,4,2,1,5,0,0
24891,-100,4,2,1,65,0,0
24991,-83.3333333333333,4,2,1,80,0,0
25991,-100,4,2,1,70,0,0
37191,-100,4,2,1,80,0,0
38791,-100,4,2,1,40,0,0
45191,-100,4,2,1,40,0,0
51591,-111.111111111111,4,2,1,50,0,0
57991,-105.263157894737,4,2,1,50,0,0
61191,-76.9230769230769,4,2,1,80,0,0
64391,-111.111111111111,4,2,1,70,0,0
76391,-100,4,2,1,20,0,0
76791,-100,4,2,1,70,0,0
77191,-83.3333333333333,4,2,1,85,0,1
89991,-90.9090909090909,4,2,1,85,0,1
101191,-90.9090909090909,4,2,1,90,0,1
102791,-83.3333333333333,4,2,1,80,0,1
102991,-83.3333333333333,4,2,1,5,0,1
103091,-83.3333333333333,4,2,1,81,0,1
103291,-83.3333333333333,4,2,1,5,0,1
103391,-83.3333333333333,4,2,1,82,0,1
103591,-83.3333333333333,4,2,1,5,0,1
103691,-83.3333333333333,4,2,1,83,0,1
103891,-83.3333333333333,4,2,1,5,0,1
103991,-83.3333333333333,4,2,1,84,0,1
104191,-83.3333333333333,4,2,1,5,0,1
104291,-83.3333333333333,4,2,1,95,0,1
104491,-83.3333333333333,4,2,1,5,0,1
104591,-83.3333333333333,4,2,1,86,0,1
104791,-83.3333333333333,4,2,1,5,0,1
104891,-83.3333333333333,4,2,1,87,0,1
105091,-83.3333333333333,4,2,1,5,0,1
105191,-83.3333333333333,4,2,1,89,0,1
105391,-83.3333333333333,4,2,1,5,0,1
105491,-83.3333333333333,4,2,1,90,0,1
105691,-83.3333333333333,4,2,1,5,0,1
105791,-83.3333333333333,4,2,1,91,0,1
105991,-83.3333333333333,4,2,1,5,0,1
106091,-83.3333333333333,4,2,1,92,0,1
106191,-83.3333333333333,4,2,1,5,0,1
106591,-83.3333333333333,4,2,1,95,0,1
106791,-83.3333333333333,4,2,1,95,0,0
109191,-83.3333333333333,4,2,1,65,0,0
110791,-83.3333333333333,4,2,1,55,0,0
112391,-83.3333333333333,4,2,1,35,0,0
113391,-83.3333333333333,4,2,1,5,0,0

[Colours]
Combo1 : 201,201,201
Combo2 : 185,255,185
Combo3 : 255,217,179
Combo4 : 251,179,189

[HitObjects]
410,344,13191,6,0,L|533:329,2,101.249996910095,10|10|10,0:3|0:3|0:2,0:0:0:0:
282,259,14191,1,8,0:3:0:0:
282,259,14291,1,4,0:3:0:0:
282,259,14391,2,0,L|184:243,1,67.4999979400635,10|0,0:2|0:0,0:0:0:0:
136,287,14791,2,0,L|125:232,1,33.7499989700318,10|4,0:3|0:3,0:0:0:0:
56,314,15091,2,0,L|39:232,1,67.4999979400635,8|4,0:3|0:3,0:0:0:0:
39,228,15391,1,10,0:2:0:0:
215,248,15791,1,8,0:3:0:0:
215,248,15891,1,4,0:3:0:0:
215,248,15991,2,0,L|281:258,1,67.4999979400635,10|0,0:2|0:0,0:0:0:0:
385,187,16391,6,0,L|406:80,2,101.249996910095,10|10|10,0:3|0:3|0:2,0:0:0:0:
284,99,17391,1,8,0:3:0:0:
284,99,17491,1,4,0:3:0:0:
284,99,17591,2,0,L|211:108,1,67.4999979400635,10|0,0:2|0:0,0:0:0:0:
131,86,17991,2,0,L|139:151,1,33.7499989700318,10|4,0:3|0:3,0:0:0:0:
47,78,18291,2,0,L|58:168,1,67.4999979400635,8|4,0:3|0:3,0:0:0:0:
58,165,18591,1,10,0:2:0:0:
217,107,18991,1,8,0:3:0:0:
217,107,19091,1,4,0:3:0:0:
217,107,19191,2,0,L|284:99,1,67.4999979400635,10|0,0:2|0:0,0:0:0:0:
401,69,19591,6,0,P|376:98|376:173,1,101.249996910095,10|10,0:3|0:3,0:0:0:0:
477,232,20191,2,0,P|425:234|384:328,1,134.999995880127,10|8,0:2|0:3,0:0:0:0:
394,325,20691,1,4,0:3:0:0:
394,325,20791,2,0,L|312:336,1,67.4999979400635,10|0,0:2|0:0,0:0:0:0:
243,362,21191,2,0,L|248:309,1,33.7499989700318,10|4,0:3|0:3,0:0:0:0:
160,367,21491,2,0,L|168:276,1,67.4999979400635,8|8,0:3|0:3,0:0:0:0:
169,280,21791,1,10,0:2:0:0:
41,174,22191,1,8,0:3:0:0:
41,174,22291,1,4,0:3:0:0:
41,174,22391,2,0,L|47:211,1,33.7499989700318,10|4,0:2|0:3,0:0:0:0:
40,227,22591,2,0,L|46:264,1,33.7499989700318,4|4,0:3|0:3,0:0:0:0:
36,279,22791,6,0,B|85:267|85:267|143:310,1,101.249996910095,10|10,0:3|0:3,0:0:0:0:
248,371,23391,2,0,B|216:340|216:340|236:222,1,134.999995880127,10|8,0:2|0:3,0:0:0:0:
237,233,23891,1,4,0:3:0:0:
237,233,23991,2,0,P|290:253|317:251,1,67.4999979400635,10|0,0:2|0:0,0:0:0:0:
374,203,24391,5,2,0:2:0:0:
489,277,24691,5,2,0:2:0:0:
463,189,24891,5,4,0:3:0:0:
463,189,24991,2,0,B|458:151|458:151|462:136|462:136|456:86,1,89.9999972534181,6|0,0:0|0:0,0:0:0:0:
429,114,25291,2,0,B|434:76|434:76|430:61|430:61|436:11,1,89.9999972534181,6|0,0:0|0:0,0:0:0:0:
463,9,25591,2,0,P|501:2|532:-2,2,44.999998626709,6|8|8,0:0|0:3|0:1,0:0:0:0:
333,87,25991,6,0,L|204:76,1,112.5,4|6,0:0|0:3,0:0:0:0:
110,193,26591,1,10,0:1:0:0:
208,173,26791,1,2,0:0:0:0:
208,173,26891,1,2,0:0:0:0:
208,173,26991,2,0,L|218:254,1,75,6|8,0:3|0:1,0:0:0:0:
220,269,27291,1,2,0:0:0:0:
57,336,27591,6,0,L|63:278,2,37.5,6|4|2,0:3|0:3|0:0,0:0:0:0:
146,382,27991,2,0,L|245:367,1,75,2|10,0:0|0:1,0:0:0:0:
233,354,28291,1,2,0:0:0:0:
233,354,28391,2,0,L|365:374,2,112.5,2|2|2,0:0|0:0|0:0,0:0:0:0:
131,241,29191,6,0,L|116:115,1,112.5,4|6,0:3|0:3,0:0:0:0:
221,6,29791,1,10,0:1:0:0:
224,107,29991,1,2,0:0:0:0:
224,107,30091,1,2,0:0:0:0:
224,107,30191,2,0,L|317:119,1,75,6|8,0:3|0:1,0:0:0:0:
320,121,30491,1,2,0:0:0:0:
496,43,30791,6,0,L|508:2,2,37.5,6|4|2,0:3|0:3|0:0,0:0:0:0:
424,110,31191,2,0,L|438:205,1,75,2|10,0:0|0:1,0:0:0:0:
454,205,31491,1,2,0:0:0:0:
454,205,31591,2,0,L|434:340,2,112.5,2|2|2,0:0|0:0|0:0,0:0:0:0:
317,265,32391,6,0,P|283:293|204:289,1,112.5,4|6,0:0|0:3,0:0:0:0:
114,178,32991,1,10,0:1:0:0:
217,192,33191,2,0,P|246:145|240:90,2,112.5,2|2|2,0:0|0:0|0:0,0:0:0:0:
114,178,33991,5,6,0:3:0:0:
114,178,34091,1,4,0:3:0:0:
114,178,34191,2,0,L|97:278,1,75,2|0,0:0|0:0,0:0:0:0:
99,273,34491,1,2,0:0:0:0:
241,338,34791,2,0,L|248:388,2,37.5,2|0|6,0:0|1:0|0:3,0:0:0:0:
202,251,35191,2,0,L|214:177,1,75,8|2,0:1|0:0,0:0:0:0:
220,157,35491,1,8,0:1:0:0:
220,157,35591,6,0,B|267:186|267:186|351:164,1,112.5,4|6,0:3|0:3,0:0:0:0:
466,104,36191,1,10,0:1:0:0:
428,198,36391,1,2,0:0:0:0:
428,198,36491,1,2,0:0:0:0:
428,198,36591,2,0,L|436:281,1,75,6|8,0:3|0:1,0:0:0:0:
437,295,36891,1,2,0:0:0:0:
300,378,37191,5,6,0:0:0:0:
200,329,37491,5,6,0:0:0:0:
158,225,37791,5,6,0:0:0:0:
201,124,38091,5,6,0:0:0:0:
296,68,38391,6,0,L|342:76,3,37.5,6|0|0|0,1:2|1:0|1:0|1:0,0:0:0:0:
346,94,38791,5,6,0:0:0:0:
35,352,51391,5,2,0:0:0:0:
35,352,51491,1,2,0:0:0:0:
35,352,51591,2,0,P|63:314|155:305,1,134.999995880127,8|8,0:3|0:3,0:0:0:0:
222,343,52191,1,2,0:2:0:0:
286,281,52391,2,0,P|325:304|367:302,1,67.4999979400635,8|2,0:3|0:2,0:0:0:0:
428,270,52791,1,8,0:3:0:0:
428,270,52891,1,2,0:2:0:0:
500,112,53191,6,0,P|446:114|399:176,1,134.999995880127,8|8,0:3|0:3,0:0:0:0:
326,127,53791,1,2,0:2:0:0:
264,187,53991,2,0,P|243:152|252:84,2,101.249996910095,8|2|2,0:3|0:2|0:2,0:0:0:0:
289,308,54791,6,0,P|335:268|427:284,2,134.999995880127,8|8|8,0:3|0:3|0:3,0:0:0:0:
227,368,55791,2,0,P|170:367|136:343,1,67.4999979400635,2|8,0:2|0:3,0:0:0:0:
147,348,56091,1,2,0:2:0:0:
46,220,56391,6,0,P|75:174|55:89,1,134.999995880127,8|8,0:3|0:3,0:0:0:0:
11,27,56991,1,2,0:2:0:0:
100,15,57191,2,0,P|144:19|191:25,1,67.4999979400635,8|2,0:3|0:2,0:0:0:0:
191,27,57491,1,8,0:3:0:0:
191,27,57591,1,8,0:3:0:0:
175,127,57791,1,8,0:3:0:0:
175,127,57891,1,8,0:3:0:0:
175,127,57991,6,0,P|202:77|299:62,1,142.49999619484,8|8,0:3|0:3,0:0:0:0:
361,103,58591,1,2,0:2:0:0:
436,46,58791,2,0,P|455:87|446:138,1,71.2499980974198,8|2,0:3|0:2,0:0:0:0:
398,186,59191,1,8,0:3:0:0:
398,186,59291,1,2,0:0:0:0:
491,343,59591,6,0,P|470:311|363:301,1,142.49999619484,8|8,0:3|0:3,0:0:0:0:
310,363,60191,1,2,0:2:0:0:
232,312,60391,2,0,L|241:234,1,71.2499980974198,8|2,0:3|0:2,0:0:0:0:
142,312,60791,2,0,L|151:234,1,71.2499980974198,8|8,0:3|0:3,0:0:0:0:
37,137,61191,6,0,B|30:94|30:94|35:77|35:77|26:27,1,97.4999955368044,4|0,0:0|0:0,0:0:0:0:
8,20,61491,2,0,B|51:13|51:13|68:18|68:18|118:9,1,97.4999955368044,4|0,0:0|0:0,0:0:0:0:
132,0,61791,2,0,B|142:67|142:67|135:93|135:93|149:171,1,146.249993305207,4|4,0:0|0:0,0:0:0:0:
43,288,62391,2,0,B|26:260|26:260|41:217,2,64.9999970245363,12|8|8,1:0|1:0|1:0,1:0:0:0:
110,334,62791,6,0,B|154:328|154:328|166:333|166:333|234:325,1,97.4999955368044,8|0,0:3|0:0,0:0:0:0:
229,343,63091,2,0,B|223:299|223:299|228:287|228:287|220:219,1,97.4999955368044,8|0,0:3|0:0,0:0:0:0:
220,219,63391,1,8,0:3:0:0:
355,309,63591,6,8,B|385:320|385:320|434:302,2,64.9999970245363,8|8|8,1:0|1:0|1:0,1:0:0:0:
386,238,63991,2,8,B|410:217|410:217|419:166,2,64.9999970245363,8|8|8,1:0|1:0|1:0,1:0:0:0:
337,177,64391,6,0,P|258:180|126:189,1,202.499993820191,6|8,0:0|0:3,0:0:0:0:
73,123,65191,2,0,P|68:97|63:76,2,33.7499989700318,8|0|2,1:0|0:0|0:2,0:0:0:0:
153,85,65591,2,0,L|161:53,2,33.7499989700318,0|2|8,0:0|0:2|1:0,0:0:0:0:
171,102,65891,1,8,1:0:0:0:
171,102,65991,6,0,L|291:96,2,101.249996910095,6|6|6,0:0|0:0|0:0,0:0:0:0:
134,188,66791,2,0,P|151:242|158:270,1,67.4999979400635,10|0,0:0|0:0,0:0:0:0:
82,312,67191,2,0,P|65:258|58:230,1,67.4999979400635,2|8,0:2|1:0,0:0:0:0:
186,267,67591,6,0,P|241:260|417:252,1,202.499993820191,6|8,0:0|0:3,0:0:0:0:
461,197,68391,2,0,P|483:203|497:212,2,33.7499989700318,8|0|2,1:0|0:0|0:2,0:0:0:0:
382,159,68791,2,0,P|367:166|350:170,2,33.7499989700318,0|2|8,0:0|0:2|1:0,0:0:0:0:
399,146,69091,1,8,1:0:0:0:
399,146,69191,6,0,L|389:40,1,101.249996910095,6|6,0:0|0:0,0:0:0:0:
278,0,69791,1,6,0:0:0:0:
216,59,69991,2,0,P|221:93|225:119,3,33.7499989700318,2|2|2|2,0:2|0:2|0:2|0:2,0:0:0:0:
208,113,70391,2,0,P|213:148|217:176,2,44.999998626709,2|0|0,0:2|0:0|0:0,0:0:0:0:
115,71,70791,6,0,P|126:141|146:287,1,202.499993820191,6|8,0:0|0:3,0:0:0:0:
222,312,71591,2,0,P|214:347|210:376,2,33.7499989700318,8|0|2,1:0|0:0|0:2,0:0:0:0:
284,252,71991,2,0,P|276:217|272:188,2,33.7499989700318,0|2|8,0:0|0:2|1:0,0:0:0:0:
302,272,72291,1,8,1:0:0:0:
302,272,72391,6,0,P|372:279|431:284,2,101.249996910095,6|6|6,0:0|0:0|0:0,0:0:0:0:
397,191,73191,2,0,P|429:183|462:175,1,67.4999979400635,10|0,0:0|0:0,0:0:0:0:
463,89,73591,2,0,P|430:96|397:104,1,67.4999979400635,2|8,0:2|1:0,0:0:0:0:
304,179,73991,6,0,P|249:172|73:164,1,202.499993820191,6|8,0:0|0:3,0:0:0:0:
40,230,74791,2,0,P|14:238|3:240,2,33.7499989700318,8|0|2,1:0|0:0|0:2,0:0:0:0:
128,250,75191,2,0,P|144:253|160:259,2,33.7499989700318,0|2|8,0:0|0:2|1:0,0:0:0:0:
117,267,75491,1,8,1:0:0:0:
117,267,75591,6,0,L|123:373,1,101.249996910095,4|6,0:0|0:0,0:0:0:0:
246,380,76191,1,6,0:0:0:0:
246,380,76791,6,0,L|289:368,1,37.5,8|8,0:1|0:1,0:0:0:0:
293,352,76991,2,0,L|336:340,1,37.5,8|8,0:1|0:1,0:0:0:0:
360,350,77191,5,14,0:1:0:0:
360,350,77291,2,0,L|373:234,1,89.9999972534181,2|2,0:0|0:0,0:0:0:0:
449,171,77691,1,2,0:0:0:0:
449,171,77791,1,10,0:1:0:0:
386,73,77991,2,0,L|278:90,1,89.9999972534181,10|10,0:3|0:1,0:0:0:0:
286,112,78291,1,0,0:0:0:0:
286,112,78391,2,0,L|178:129,1,89.9999972534181,10|8,0:3|0:1,0:0:0:0:
66,49,78791,5,10,0:3:0:0:
66,49,78891,1,2,0:0:0:0:
90,160,79091,2,0,L|73:276,1,89.9999972534181,2|2,0:0|0:0,0:0:0:0:
73,275,79391,1,10,0:1:0:0:
178,333,79591,1,8,0:3:0:0:
178,333,79691,1,0,0:0:0:0:
178,333,79791,2,0,L|195:217,1,89.9999972534181,10|8,0:1|0:3,0:0:0:0:
323,344,80191,1,10,0:1:0:0:
323,344,80291,1,2,0:0:0:0:
323,344,80391,6,0,P|379:346|428:303,1,89.9999972534181,10|10,0:3|0:1,0:0:0:0:
426,308,80691,1,2,0:0:0:0:
484,209,80891,1,2,0:0:0:0:
484,209,80991,1,10,0:1:0:0:
370,213,81191,2,0,P|342:162|362:107,1,89.9999972534181,10|8,0:3|0:1,0:0:0:0:
415,36,81591,2,0,P|443:87|423:142,1,89.9999972534181,10|10,0:3|0:1,0:0:0:0:
306,44,81991,6,0,P|277:20|199:27,1,89.9999972534181,10|8,0:3|0:1,0:0:0:0:
231,28,82291,2,0,P|195:41|162:112,1,89.9999972534181,2|0,0:0|0:0,0:0:0:0:
179,84,82591,2,0,P|172:121|217:185,1,89.9999972534181,10|8,0:1|0:3,0:0:0:0:
299,238,82991,1,10,0:1:0:0:
299,238,83091,1,0,0:0:0:0:
299,238,83191,2,0,L|294:295,3,44.999998626709,8|8|8|8,0:1|0:1|0:1|0:1,0:0:0:0:
315,310,83591,5,14,0:1:0:0:
315,310,83691,2,0,L|217:292,1,89.9999972534181,2|2,0:0|0:0,0:0:0:0:
126,349,84091,1,2,0:0:0:0:
126,349,84191,1,10,0:1:0:0:
32,283,84391,2,0,L|41:182,1,89.9999972534181,10|10,0:3|0:1,0:0:0:0:
67,184,84691,1,0,0:0:0:0:
67,184,84791,2,0,L|76:83,1,89.9999972534181,10|8,0:3|0:1,0:0:0:0:
224,13,85191,5,10,0:3:0:0:
224,13,85291,1,2,0:0:0:0:
188,124,85491,2,0,L|307:110,1,89.9999972534181,2|2,0:0|0:0,0:0:0:0:
304,111,85791,1,10,0:1:0:0:
399,199,85991,1,8,0:3:0:0:
399,199,86091,1,0,0:0:0:0:
399,199,86191,2,0,L|280:213,1,89.9999972534181,10|8,0:1|0:3,0:0:0:0:
193,349,86591,1,10,0:1:0:0:
193,349,86691,1,2,0:0:0:0:
193,349,86791,6,0,P|135:340|91:284,1,89.9999972534181,10|10,0:3|0:1,0:0:0:0:
109,296,87091,1,2,0:0:0:0:
32,218,87291,1,2,0:0:0:0:
32,218,87391,1,10,0:1:0:0:
132,158,87591,2,0,P|157:115|141:49,1,89.9999972534181,10|8,0:3|0:1,0:0:0:0:
253,8,87991,2,0,P|252:52|276:89,1,89.9999972534181,10|10,0:3|0:1,0:0:0:0:
430,166,88391,6,0,P|407:170|385:175,3,44.999998626709,10|0|10|0,0:3|0:0|0:1|0:0,0:0:0:0:
368,194,88791,2,0,P|320:184|306:181,3,44.999998626709,10|0|10|0,0:3|0:0|0:1|0:0,0:0:0:0:
300,197,89191,5,10,0:3:0:0:
300,197,89291,1,10,0:3:0:0:
369,298,89491,1,2,0:0:0:0:
369,298,89591,2,0,L|361:363,3,44.999998626709,10|8|8|8,1:0|1:0|1:0|1:0,0:0:0:0:
368,372,89991,5,14,0:1:0:0:
368,372,90091,2,0,L|252:352,1,82.5000025177003,2|2,0:0|0:0,0:0:0:0:
191,308,90491,2,0,L|185:253,1,41.2500012588501,2|2,0:0|0:0,0:0:0:0:
81,290,90791,2,0,L|93:184,1,82.5000025177003,10|2,0:3|0:0,0:0:0:0:
19,126,91191,2,0,L|31:20,1,82.5000025177003,10|2,0:1|0:0,0:0:0:0:
132,7,91591,5,10,0:3:0:0:
132,7,91691,1,2,0:0:0:0:
215,73,91891,2,0,L|314:62,1,82.5000025177003,2|2,0:0|0:0,0:0:0:0:
322,59,92191,1,2,0:0:0:0:
429,85,92391,2,0,L|439:41,2,41.2500012588501,8|0|2,0:3|0:0|0:0,0:0:0:0:
349,157,92791,2,0,L|267:166,1,82.5000025177003,8|2,0:1|0:0,0:0:0:0:
246,176,93091,1,2,0:0:0:0:
246,176,93191,6,0,P|268:214|260:271,1,82.5000025177003,10|2,0:3|0:0,0:0:0:0:
259,275,93491,1,2,0:0:0:0:
178,346,93691,2,0,P|151:333|117:327,1,41.2500012588501,2|2,0:0|0:0,0:0:0:0:
53,264,93991,2,0,P|91:247|117:193,1,82.5000025177003,10|2,0:3|0:0,0:0:0:0:
43,135,94391,2,0,P|47:93|13:44,1,82.5000025177003,10|2,0:1|0:0,0:0:0:0:
168,12,94791,6,0,P|201:52|257:57,1,82.5000025177003,10|0,0:3|0:0,0:0:0:0:
235,83,95091,2,0,P|286:74|332:-2,1,123.75000377655,2|2,0:0|0:0,0:0:0:0:
420,79,95591,1,8,0:3:0:0:
345,153,95791,1,10,0:1:0:0:
345,153,95891,1,8,0:1:0:0:
345,153,95991,2,0,P|341:183|351:218,3,41.2500012588501,8|8|8|8,0:1|0:1|0:1|0:1,0:0:0:0:
360,216,96391,5,14,0:1:0:0:
360,216,96491,2,0,L|472:202,1,82.5000025177003,2|2,0:0|0:0,0:0:0:0:
509,290,96891,2,0,L|499:343,1,41.2500012588501,2|2,0:0|0:0,0:0:0:0:
398,309,97191,2,0,L|316:319,1,82.5000025177003,10|2,0:3|0:0,0:0:0:0:
232,381,97591,2,0,L|150:370,1,82.5000025177003,10|2,0:1|0:0,0:0:0:0:
61,314,97991,5,10,0:3:0:0:
61,314,98091,1,2,0:0:0:0:
159,267,98291,2,0,L|150:171,1,82.5000025177003,2|2,0:0|0:0,0:0:0:0:
149,161,98591,1,2,0:0:0:0:
187,60,98791,2,0,L|173:19,2,41.2500012588501,8|0|2,0:3|0:0|0:0,0:0:0:0:
252,146,99191,2,0,L|259:228,1,82.5000025177003,8|2,0:1|0:0,0:0:0:0:
268,256,99491,1,2,0:0:0:0:
268,256,99591,6,0,P|312:262|354:235,1,82.5000025177003,10|2,0:3|0:0,0:0:0:0:
361,226,99891,1,2,0:0:0:0:
461,190,100091,2,0,P|461:158|474:128,1,41.2500012588501,2|2,0:0|0:0,0:0:0:0:
433,45,100391,2,0,P|384:72|324:61,1,82.5000025177003,10|2,0:3|0:0,0:0:0:0:
284,149,100791,2,0,P|236:120|215:62,1,82.5000025177003,10|2,0:1|0:0,0:0:0:0:
106,7,101191,5,14,0:1:0:0:
33,96,101491,5,14,0:1:0:0:
48,207,101791,5,14,0:1:0:0:
141,270,102091,5,12,0:1:0:0:
252,260,102391,6,0,L|346:243,1,82.5000025177003,12|8,0:1|0:1,0:0:0:0:
463,197,102791,6,0,B|459:245|459:245|442:267|442:267|438:335,2,134.999995880127,4|4|4,0:0|0:0|0:0,0:0:0:0:
399,76,103691,5,4,0:0:0:0:
279,136,103991,5,4,0:0:0:0:
399,76,104291,5,4,0:0:0:0:
279,136,104591,6,0,B|283:184|283:184|300:206|300:206|304:274,2,134.999995880127,4|4|4,0:0|0:0|0:0,0:0:0:0:
163,65,105491,6,0,B|159:113|159:113|142:135|142:135|138:203,1,134.999995880127,4|4,0:0|0:0,0:0:0:0:
156,327,106091,5,4,0:0:0:0:
156,327,106591,6,0,P|219:318|245:314,1,89.9999972534181,4|12,0:3|0:0,0:0:0:0:
256,192,106891,12,0,113391,0:0:0:0:
