osu file format v14

[General]
AudioFilename: audio.mp3
AudioLeadIn: 0
PreviewTime: 76691
Countdown: 0
SampleSet: Soft
StackLeniency: 0.4
Mode: 0
LetterboxInBreaks: 0
WidescreenStoryboard: 1

[Editor]
Bookmarks: 24391,69191,75391,77191
DistanceSpacing: 1
BeatDivisor: 4
GridSize: 32
TimelineZoom: 1.4

[Metadata]
Title:[Nexus]
TitleUnicode:[Nexus]
Artist:mafumafu
ArtistUnicode:まふまふ
Creator:William K
Version:Extra: Circles
Source:
Tags:utaite ashita iro asuiro world end 明日色ワールドエンド instrumental japanese electronic rock j-rock jrock
BeatmapID:2972901
BeatmapSetID:707703

[Difficulty]
HPDrainRate:5
CircleSize:5
OverallDifficulty:8
ApproachRate:8
SliderMultiplier:1.7
SliderTickRate:1

[Events]
//Background and Video events
0,0,"futuristic-city-wallpaper-7.jpg",0,0
//Break Periods
2,38991,44441
//Storyboard Layer 0 (Background)
//Storyboard Layer 1 (Fail)
//Storyboard Layer 2 (Pass)
//Storyboard Layer 3 (Foreground)
//Storyboard Layer 4 (Overlay)
//Storyboard Sound Samples

[TimingPoints]
391,400,4,2,1,60,1,0
12991,-100,4,2,1,60,0,0
24391,-100,4,2,1,60,0,0
24591,-100,4,2,1,5,0,0
24691,-100,4,2,1,60,0,0
24791,-100,4,2,1,5,0,0
24891,-100,4,2,1,65,0,0
24991,-90.9090909090909,4,2,1,80,0,0
25991,-90.9090909090909,4,2,1,70,0,0
37191,-100,4,2,1,80,0,0
38791,-100,4,2,1,40,0,0
45191,-100,4,2,1,40,0,0
48391,-100,4,2,1,30,0,0
51591,-111.111111111111,4,2,1,50,0,0
57991,-105.263157894737,4,2,1,50,0,0
61191,-100,4,2,1,80,0,0
64391,-100,4,2,1,70,0,0
76391,-100,4,2,1,40,0,0
76791,-100,4,2,1,70,0,0
77191,-83.3333333333333,4,2,1,85,0,1
101191,-100,4,2,1,90,0,1
102791,-83.3333333333333,4,2,1,80,0,1
102991,-83.3333333333333,4,2,1,5,0,0
103091,-83.3333333333333,4,2,1,81,0,1
103291,-83.3333333333333,4,2,1,5,0,0
103391,-83.3333333333333,4,2,1,82,0,1
103591,-83.3333333333333,4,2,1,5,0,0
103691,-83.3333333333333,4,2,1,83,0,1
103891,-83.3333333333333,4,2,1,5,0,0
103991,-83.3333333333333,4,2,1,84,0,1
104191,-83.3333333333333,4,2,1,5,0,0
104291,-83.3333333333333,4,2,1,95,0,1
104491,-83.3333333333333,4,2,1,5,0,0
104591,-83.3333333333333,4,2,1,86,0,1
104791,-83.3333333333333,4,2,1,5,0,0
104891,-83.3333333333333,4,2,1,87,0,1
105091,-83.3333333333333,4,2,1,5,0,0
105191,-83.3333333333333,4,2,1,89,0,1
105391,-83.3333333333333,4,2,1,5,0,0
105491,-83.3333333333333,4,2,1,90,0,1
105691,-83.3333333333333,4,2,1,5,0,0
105791,-83.3333333333333,4,2,1,91,0,1
105991,-83.3333333333333,4,2,1,5,0,0
106091,-83.3333333333333,4,2,1,92,0,1
106191,-83.3333333333333,4,2,1,5,0,0
106591,-83.3333333333333,4,2,1,95,0,0
106691,-83.3333333333333,4,2,1,5,0,0
106791,-83.3333333333333,4,2,1,95,0,0
109191,-83.3333333333333,4,2,1,65,0,0
110791,-83.3333333333333,4,2,1,55,0,0
112391,-83.3333333333333,4,2,1,35,0,0
113391,-83.3333333333333,4,2,1,5,0,0

[Colours]
Combo1 : 201,201,201
Combo2 : 185,255,185
Combo3 : 255,217,179
Combo4 : 251,179,189

[HitObjects]
36,39,12991,5,8,0:3:0:0:
36,39,13091,1,4,0:3:0:0:
36,39,13191,1,10,0:3:0:0:
215,5,13491,1,10,0:3:0:0:
154,177,13791,1,10,0:2:0:0:
141,83,14191,5,8,0:3:0:0:
141,83,14291,1,4,0:3:0:0:
141,83,14391,1,10,0:2:0:0:
460,195,14791,5,10,0:3:0:0:
460,195,14891,1,4,0:3:0:0:
444,277,15091,1,8,0:3:0:0:
433,362,15291,1,4,0:3:0:0:
433,362,15391,1,10,0:2:0:0:
460,195,15791,1,8,0:3:0:0:
460,195,15891,1,4,0:3:0:0:
460,195,15991,1,10,0:2:0:0:
36,345,16391,5,10,0:3:0:0:
215,379,16691,1,10,0:3:0:0:
154,207,16991,1,10,0:2:0:0:
141,301,17391,5,8,0:3:0:0:
141,301,17491,1,4,0:3:0:0:
141,301,17591,1,10,0:2:0:0:
403,196,17991,5,10,0:3:0:0:
403,196,18091,1,4,0:3:0:0:
392,112,18291,1,8,0:3:0:0:
385,32,18491,1,4,0:3:0:0:
385,32,18591,1,10,0:2:0:0:
403,196,18991,1,8,0:3:0:0:
403,196,19091,1,4,0:3:0:0:
403,196,19191,1,10,0:2:0:0:
205,369,19391,5,2,0:0:0:0:
205,369,19491,1,4,0:3:0:0:
205,369,19591,1,10,0:3:0:0:
225,164,19891,1,10,0:3:0:0:
38,250,20191,1,10,0:2:0:0:
156,261,20591,1,8,0:3:0:0:
156,261,20691,1,4,0:3:0:0:
156,261,20791,1,10,0:2:0:0:
271,37,21191,5,10,0:3:0:0:
271,37,21291,1,4,0:3:0:0:
352,46,21491,1,8,0:3:0:0:
437,59,21691,1,8,0:3:0:0:
437,59,21791,1,10,0:2:0:0:
271,37,22191,1,8,0:3:0:0:
271,37,22291,1,4,0:3:0:0:
242,56,22391,1,10,0:2:0:0:
220,62,22491,1,4,0:3:0:0:
185,40,22591,1,4,0:3:0:0:
163,46,22691,1,4,0:3:0:0:
135,80,22791,5,10,0:3:0:0:
278,220,23091,1,10,0:3:0:0:
85,273,23391,1,10,0:2:0:0:
173,188,23791,5,8,0:3:0:0:
173,188,23891,1,4,0:3:0:0:
173,188,23991,1,10,0:2:0:0:
280,201,24191,1,0,0:0:0:0:
387,214,24391,5,2,0:2:0:0:
432,292,24691,5,2,0:2:0:0:
382,363,24891,5,4,0:3:0:0:
382,363,24991,1,6,0:0:0:0:
256,192,25291,1,6,0:0:0:0:
130,21,25591,1,6,0:0:0:0:
169,24,25691,1,8,0:3:0:0:
208,27,25791,1,8,0:1:0:0:
247,30,25891,1,8,0:1:0:0:
286,33,25991,5,4,0:0:0:0:
457,130,26191,1,0,0:0:0:0:
457,130,26291,1,6,0:3:0:0:
287,229,26491,1,0,0:0:0:0:
287,229,26591,1,10,0:1:0:0:
341,134,26791,5,2,0:0:0:0:
341,134,26891,1,2,0:0:0:0:
341,134,26991,1,6,0:3:0:0:
342,323,27191,1,8,0:1:0:0:
342,323,27291,1,2,0:0:0:0:
28,363,27591,5,6,0:3:0:0:
33,332,27691,1,4,0:3:0:0:
58,307,27791,1,2,0:0:0:0:
50,261,27891,1,4,0:3:0:0:
35,242,27991,1,2,0:0:0:0:
137,361,28191,5,10,0:1:0:0:
137,361,28291,1,2,0:0:0:0:
137,361,28391,1,2,0:0:0:0:
256,346,28591,1,4,0:3:0:0:
256,346,28691,1,2,0:0:0:0:
256,346,28791,1,0,0:0:0:0:
375,331,28991,1,2,0:0:0:0:
375,331,29091,1,8,0:1:0:0:
375,331,29191,5,4,0:3:0:0:
182,281,29391,1,0,0:0:0:0:
182,281,29491,1,6,0:3:0:0:
321,138,29691,1,0,0:0:0:0:
321,138,29791,1,10,0:1:0:0:
300,254,29991,5,2,0:0:0:0:
300,254,30091,1,2,0:0:0:0:
300,254,30191,1,6,0:3:0:0:
407,220,30391,1,8,0:1:0:0:
407,220,30491,1,2,0:0:0:0:
160,45,30791,5,6,0:3:0:0:
129,40,30891,1,4,0:3:0:0:
104,15,30991,1,2,0:0:0:0:
58,23,31091,1,4,0:3:0:0:
39,38,31191,1,2,0:0:0:0:
247,13,31391,5,10,0:1:0:0:
247,13,31491,1,2,0:0:0:0:
247,13,31591,1,2,0:0:0:0:
262,132,31791,1,4,0:3:0:0:
262,132,31891,1,2,0:0:0:0:
262,132,31991,1,0,0:0:0:0:
277,251,32191,1,2,0:0:0:0:
277,251,32291,1,8,0:1:0:0:
277,251,32391,5,4,0:0:0:0:
178,81,32591,1,0,0:0:0:0:
178,81,32691,1,6,0:3:0:0:
81,252,32891,1,0,0:0:0:0:
81,252,32991,1,10,0:1:0:0:
177,191,33191,5,2,0:0:0:0:
78,138,33391,1,4,0:3:0:0:
78,138,33491,1,2,0:0:0:0:
81,252,33691,1,0,0:0:0:0:
81,252,33791,1,2,0:0:0:0:
254,360,33991,5,6,0:3:0:0:
254,360,34091,1,4,0:3:0:0:
254,360,34191,1,2,0:0:0:0:
359,345,34391,1,0,0:0:0:0:
359,345,34491,1,2,0:0:0:0:
480,151,34791,5,2,0:0:0:0:
485,120,34891,1,0,1:0:0:0:
510,95,34991,1,6,0:3:0:0:
502,49,35091,1,2,0:0:0:0:
487,30,35191,1,8,0:1:0:0:
512,238,35391,5,2,0:0:0:0:
512,238,35491,1,8,0:1:0:0:
512,238,35591,1,4,0:3:0:0:
327,96,35791,1,0,0:0:0:0:
327,96,35891,1,6,0:3:0:0:
297,328,36091,1,0,0:0:0:0:
297,328,36191,1,10,0:1:0:0:
380,216,36391,5,2,0:0:0:0:
380,216,36491,1,2,0:0:0:0:
380,216,36591,1,6,0:3:0:0:
241,197,36791,1,8,0:1:0:0:
241,197,36891,1,2,0:0:0:0:
24,363,37191,5,6,0:0:0:0:
40,40,37491,1,6,0:0:0:0:
53,29,37791,5,6,0:0:0:0:
37,352,38091,1,6,0:0:0:0:
44,148,38391,5,6,1:2:0:0:
96,172,38491,1,0,1:0:0:0:
101,195,38591,1,0,1:0:0:0:
90,207,38691,1,0,1:0:0:0:
72,202,38791,5,6,0:0:0:0:
256,192,45191,12,0,51191,0:0:0:0:
32,38,51391,5,2,0:0:0:0:
32,38,51491,1,2,0:0:0:0:
32,38,51591,1,8,0:3:0:0:
89,291,51991,5,8,0:3:0:0:
114,213,52191,1,2,0:2:0:0:
222,319,52391,1,8,0:3:0:0:
197,241,52591,1,2,0:2:0:0:
67,368,52791,1,8,0:3:0:0:
67,368,52891,1,2,0:2:0:0:
450,236,53191,5,8,0:3:0:0:
372,210,53391,1,2,0:2:0:0:
488,106,53591,1,8,0:3:0:0:
410,132,53791,1,2,0:2:0:0:
497,302,53991,5,8,0:3:0:0:
372,210,54291,1,2,0:2:0:0:
223,250,54591,1,2,0:2:0:0:
308,268,54791,5,8,0:3:0:0:
287,189,54991,1,2,0:2:0:0:
202,329,55191,1,8,0:3:0:0:
223,250,55391,1,2,0:2:0:0:
329,347,55591,1,8,0:3:0:0:
308,268,55791,1,2,0:2:0:0:
137,384,55991,1,8,0:3:0:0:
137,384,56091,1,2,0:2:0:0:
41,125,56391,5,8,0:3:0:0:
119,147,56591,1,2,0:2:0:0:
0,44,56791,1,8,0:3:0:0:
78,22,56991,1,2,0:2:0:0:
5,205,57191,1,8,0:3:0:0:
145,79,57391,1,2,0:2:0:0:
164,85,57491,1,8,0:3:0:0:
175,101,57591,1,8,0:3:0:0:
277,232,57791,1,8,0:3:0:0:
321,230,57891,1,8,0:3:0:0:
346,192,57991,5,8,0:3:0:0:
44,301,58391,5,8,0:3:0:0:
62,222,58591,1,2,0:2:0:0:
193,358,58791,1,8,0:3:0:0:
175,279,58991,1,2,0:2:0:0:
31,384,59191,1,8,0:3:0:0:
31,384,59291,1,2,0:0:0:0:
243,215,59591,5,8,0:3:0:0:
320,242,59791,1,2,0:2:0:0:
385,193,59991,1,8,0:3:0:0:
299,74,60191,1,2,0:2:0:0:
309,158,60391,1,8,0:3:0:0:
320,242,60591,1,2,0:2:0:0:
330,326,60791,1,8,0:3:0:0:
443,137,60991,1,8,0:3:0:0:
424,117,61091,1,4,0:3:0:0:
395,112,61191,5,4,0:0:0:0:
43,137,61491,1,4,0:0:0:0:
30,129,61791,5,4,0:0:0:0:
406,122,62091,1,4,0:0:0:0:
234,66,62391,5,12,1:0:0:0:
225,143,62524,1,8,1:0:0:0:
216,220,62657,1,8,1:0:0:0:
223,295,62791,5,8,0:3:0:0:
173,14,63091,1,8,0:3:0:0:
159,8,63391,5,8,0:3:0:0:
154,259,63591,5,8,1:0:0:0:
216,220,63724,1,8,1:0:0:0:
283,247,63857,1,8,1:0:0:0:
314,311,63991,1,8,1:0:0:0:
376,350,64124,1,8,1:0:0:0:
443,323,64257,1,8,1:0:0:0:
380,272,64391,5,6,0:0:0:0:
12,11,65191,1,8,1:0:0:0:
12,11,65291,1,0,0:0:0:0:
12,11,65391,1,2,0:2:0:0:
70,81,65591,1,0,0:0:0:0:
94,85,65691,1,2,0:2:0:0:
119,79,65791,1,8,1:0:0:0:
148,57,65891,1,8,1:0:0:0:
164,19,65991,5,6,0:0:0:0:
145,194,66291,1,6,0:0:0:0:
126,369,66591,1,6,0:0:0:0:
31,276,66791,5,10,0:0:0:0:
484,227,67191,1,2,0:2:0:0:
478,245,67391,1,0,0:0:0:0:
440,367,67591,5,6,0:0:0:0:
499,15,68391,1,8,1:0:0:0:
499,15,68491,1,0,0:0:0:0:
499,15,68591,1,2,0:2:0:0:
409,3,68791,1,0,0:0:0:0:
367,21,68891,1,2,0:2:0:0:
347,51,68991,1,8,1:0:0:0:
342,77,69091,1,8,1:0:0:0:
345,94,69191,5,6,0:0:0:0:
356,209,69491,1,6,0:0:0:0:
367,324,69791,1,6,0:0:0:0:
302,275,69991,5,2,0:2:0:0:
292,273,70091,1,2,0:2:0:0:
281,274,70191,1,2,0:2:0:0:
271,272,70291,1,2,0:2:0:0:
241,253,70391,5,2,0:2:0:0:
188,292,70524,5,0,0:0:0:0:
134,248,70657,5,0,0:0:0:0:
68,259,70791,5,6,0:0:0:0:
503,382,71591,1,8,1:0:0:0:
503,382,71691,1,0,0:0:0:0:
503,382,71791,1,2,0:2:0:0:
442,303,71991,1,0,0:0:0:0:
418,299,72091,1,2,0:2:0:0:
393,305,72191,1,8,1:0:0:0:
364,327,72291,1,8,1:0:0:0:
348,365,72391,5,6,0:0:0:0:
320,190,72691,1,6,0:0:0:0:
292,15,72991,1,6,0:0:0:0:
482,98,73191,5,10,0:0:0:0:
43,128,73591,1,2,0:2:0:0:
47,115,73791,1,0,0:0:0:0:
7,5,73991,5,6,0:0:0:0:
11,374,74791,1,8,1:0:0:0:
11,374,74891,1,0,0:0:0:0:
11,374,74991,1,2,0:2:0:0:
103,381,75191,1,0,0:0:0:0:
145,363,75291,1,2,0:2:0:0:
165,333,75391,1,8,1:0:0:0:
170,307,75491,1,8,1:0:0:0:
167,290,75591,5,4,0:0:0:0:
152,159,75791,1,0,0:0:0:0:
152,159,75891,1,6,0:0:0:0:
137,28,76191,1,6,0:0:0:0:
40,146,76791,5,8,0:1:0:0:
67,140,76891,1,8,0:1:0:0:
96,135,76991,1,8,0:1:0:0:
125,131,77091,1,8,0:1:0:0:
140,112,77191,5,14,0:1:0:0:
140,112,77291,1,2,0:0:0:0:
123,23,77491,1,2,0:0:0:0:
165,252,77691,1,2,0:0:0:0:
165,252,77791,1,10,0:1:0:0:
211,234,77891,1,0,0:0:0:0:
234,249,77991,5,10,0:3:0:0:
275,276,78091,1,0,0:0:0:0:
326,277,78191,1,10,0:1:0:0:
368,250,78291,1,0,0:0:0:0:
387,230,78391,1,10,0:3:0:0:
362,186,78491,1,0,0:0:0:0:
368,136,78591,1,8,0:1:0:0:
403,99,78691,1,0,0:0:0:0:
428,92,78791,5,10,0:3:0:0:
444,92,78891,1,2,0:0:0:0:
452,261,79091,1,2,0:0:0:0:
446,175,79291,1,2,0:0:0:0:
446,175,79391,1,10,0:1:0:0:
459,352,79591,1,8,0:3:0:0:
459,352,79691,1,0,0:0:0:0:
459,352,79791,1,10,0:1:0:0:
376,308,79991,1,8,0:3:0:0:
376,308,80091,1,0,0:0:0:0:
357,289,80191,1,10,0:1:0:0:
308,275,80291,1,2,0:0:0:0:
283,280,80391,5,10,0:3:0:0:
256,323,80491,1,0,0:0:0:0:
209,340,80591,1,10,0:1:0:0:
180,336,80691,1,2,0:0:0:0:
201,252,80891,5,2,0:0:0:0:
207,227,80991,1,10,0:1:0:0:
211,198,81091,1,0,0:0:0:0:
208,171,81191,5,10,0:3:0:0:
256,183,81291,1,0,0:0:0:0:
300,161,81391,1,8,0:1:0:0:
320,115,81491,1,0,0:0:0:0:
314,91,81591,1,10,0:3:0:0:
288,87,81691,1,0,0:0:0:0:
266,74,81791,1,10,0:1:0:0:
250,55,81891,1,0,0:0:0:0:
247,30,81991,5,10,0:3:0:0:
221,26,82091,1,2,0:0:0:0:
196,23,82191,1,8,0:1:0:0:
161,21,82291,5,2,0:0:0:0:
135,17,82391,1,10,0:3:0:0:
110,14,82491,1,0,0:0:0:0:
73,11,82591,5,10,0:1:0:0:
69,36,82691,1,2,0:0:0:0:
66,61,82791,1,8,0:3:0:0:
64,97,82891,5,2,0:0:0:0:
60,123,82991,1,10,0:1:0:0:
57,148,83091,1,0,0:0:0:0:
37,179,83191,5,8,0:1:0:0:
86,184,83291,1,8,0:1:0:0:
124,217,83391,1,8,0:1:0:0:
136,266,83491,1,8,0:1:0:0:
131,292,83591,5,14,0:1:0:0:
131,292,83691,1,2,0:0:0:0:
41,285,83891,1,2,0:0:0:0:
290,300,84091,1,2,0:0:0:0:
290,300,84191,1,10,0:1:0:0:
337,282,84291,1,0,0:0:0:0:
363,283,84391,5,10,0:3:0:0:
335,240,84491,1,0,0:0:0:0:
336,190,84591,1,10,0:1:0:0:
366,150,84691,1,0,0:0:0:0:
388,138,84791,1,10,0:3:0:0:
340,153,84891,1,0,0:0:0:0:
293,135,84991,1,8,0:1:0:0:
267,92,85091,1,0,0:0:0:0:
275,67,85191,5,10,0:3:0:0:
288,51,85291,1,2,0:0:0:0:
94,55,85491,1,2,0:0:0:0:
191,53,85691,1,2,0:0:0:0:
191,53,85791,1,10,0:1:0:0:
144,144,85991,1,8,0:3:0:0:
144,144,86091,1,0,0:0:0:0:
144,144,86191,1,10,0:1:0:0:
75,217,86391,1,8,0:3:0:0:
75,217,86491,1,0,0:0:0:0:
84,239,86591,1,10,0:1:0:0:
131,256,86691,1,2,0:0:0:0:
157,252,86791,5,10,0:3:0:0:
136,297,86891,1,0,0:0:0:0:
146,344,86991,1,10,0:1:0:0:
161,369,87091,1,2,0:0:0:0:
237,309,87291,1,2,0:0:0:0:
262,306,87391,1,10,0:1:0:0:
287,310,87491,1,0,0:0:0:0:
322,321,87591,5,10,0:3:0:0:
300,275,87691,1,0,0:0:0:0:
308,226,87791,1,8,0:1:0:0:
344,190,87891,1,0,0:0:0:0:
367,180,87991,1,10,0:3:0:0:
385,151,88091,1,0,0:0:0:0:
391,118,88191,1,10,0:1:0:0:
384,85,88291,1,0,0:0:0:0:
377,61,88391,5,10,0:3:0:0:
326,65,88491,1,0,0:0:0:0:
329,40,88591,1,10,0:1:0:0:
278,44,88691,1,0,0:0:0:0:
283,20,88791,1,10,0:3:0:0:
232,24,88891,1,0,0:0:0:0:
200,27,88991,1,10,0:1:0:0:
177,28,89091,1,0,0:0:0:0:
157,30,89191,5,10,0:3:0:0:
157,30,89291,1,10,0:3:0:0:
100,103,89491,1,2,0:0:0:0:
107,118,89591,1,10,1:0:0:0:
116,141,89691,1,8,1:0:0:0:
129,175,89791,1,8,1:0:0:0:
145,217,89891,1,8,1:0:0:0:
172,291,89991,5,14,0:1:0:0:
172,291,90091,1,2,0:0:0:0:
61,238,90291,1,2,0:0:0:0:
336,366,90491,1,2,0:0:0:0:
336,366,90591,1,2,0:0:0:0:
319,321,90691,1,0,0:0:0:0:
322,295,90791,5,10,0:3:0:0:
366,318,90891,1,0,0:0:0:0:
416,310,90991,1,2,0:0:0:0:
451,274,91091,1,0,0:0:0:0:
460,262,91191,1,10,0:1:0:0:
426,224,91291,1,0,0:0:0:0:
420,174,91391,1,2,0:0:0:0:
445,130,91491,1,0,0:0:0:0:
459,121,91591,5,10,0:3:0:0:
473,119,91691,1,2,0:0:0:0:
274,80,91891,1,2,0:0:0:0:
374,100,92091,1,2,0:0:0:0:
374,100,92191,1,2,0:0:0:0:
176,62,92391,1,8,0:3:0:0:
176,62,92491,1,0,0:0:0:0:
176,62,92591,1,2,0:0:0:0:
84,104,92791,1,8,0:1:0:0:
84,104,92891,1,0,0:0:0:0:
99,125,92991,1,2,0:0:0:0:
114,172,93091,1,2,0:0:0:0:
102,180,93191,5,10,0:3:0:0:
149,164,93291,1,0,0:0:0:0:
196,180,93391,1,2,0:0:0:0:
223,223,93491,1,2,0:0:0:0:
260,295,93691,5,2,0:0:0:0:
299,263,93791,1,2,0:0:0:0:
349,260,93891,1,0,0:0:0:0:
348,275,93991,5,10,0:3:0:0:
387,243,94091,1,0,0:0:0:0:
400,195,94191,1,2,0:0:0:0:
381,149,94291,1,0,0:0:0:0:
373,138,94391,1,10,0:1:0:0:
422,142,94491,1,0,0:0:0:0:
464,114,94591,1,2,0:0:0:0:
481,67,94691,1,0,0:0:0:0:
479,52,94791,5,10,0:3:0:0:
440,46,94891,1,2,0:0:0:0:
415,43,94991,1,0,0:0:0:0:
365,38,95091,5,2,0:0:0:0:
326,32,95191,1,10,0:1:0:0:
301,29,95291,1,0,0:0:0:0:
250,22,95391,5,2,0:0:0:0:
244,61,95491,1,2,0:0:0:0:
241,86,95591,1,8,0:3:0:0:
236,136,95691,5,0,0:0:0:0:
230,175,95791,1,10,0:1:0:0:
222,228,95891,1,8,0:1:0:0:
211,292,95991,5,8,0:1:0:0:
177,254,96091,1,8,0:1:0:0:
109,236,96191,1,8,0:1:0:0:
37,269,96291,1,8,0:1:0:0:
9,342,96391,5,14,0:1:0:0:
9,342,96491,1,2,0:0:0:0:
254,384,96691,1,2,0:0:0:0:
133,366,96891,1,2,0:0:0:0:
133,366,96991,1,2,0:0:0:0:
177,343,97091,1,0,0:0:0:0:
193,345,97191,5,10,0:3:0:0:
183,295,97291,1,0,0:0:0:0:
202,249,97391,1,2,0:0:0:0:
244,221,97491,1,0,0:0:0:0:
259,222,97591,1,10,0:1:0:0:
255,272,97691,1,0,0:0:0:0:
281,315,97791,1,2,0:0:0:0:
326,336,97891,1,0,0:0:0:0:
343,333,97991,5,10,0:3:0:0:
343,333,98091,1,2,0:0:0:0:
348,154,98291,1,2,0:0:0:0:
344,248,98491,1,2,0:0:0:0:
344,248,98591,1,2,0:0:0:0:
359,66,98791,1,8,0:3:0:0:
359,66,98891,1,0,0:0:0:0:
359,66,98991,1,2,0:0:0:0:
258,88,99191,1,8,0:1:0:0:
258,88,99291,1,0,0:0:0:0:
244,93,99391,1,2,0:0:0:0:
200,70,99491,1,2,0:0:0:0:
191,56,99591,5,10,0:3:0:0:
200,105,99691,1,0,0:0:0:0:
177,149,99791,1,2,0:0:0:0:
131,169,99891,1,2,0:0:0:0:
42,169,100091,5,2,0:0:0:0:
76,206,100191,1,2,0:0:0:0:
82,256,100291,1,0,0:0:0:0:
76,269,100391,5,10,0:3:0:0:
111,256,100491,1,0,0:0:0:0:
171,267,100591,1,2,0:0:0:0:
212,320,100691,1,0,0:0:0:0:
216,332,100791,1,10,0:1:0:0:
264,356,100891,1,0,0:0:0:0:
315,349,100991,1,2,0:0:0:0:
346,325,101091,1,0,0:0:0:0:
387,249,101191,5,14,0:1:0:0:
392,202,101291,1,0,0:0:0:0:
395,172,101391,1,0,0:0:0:0:
404,109,101491,5,14,0:1:0:0:
404,109,101591,1,0,0:0:0:0:
404,109,101691,1,0,0:0:0:0:
335,106,101791,5,14,0:1:0:0:
288,101,101891,1,0,0:0:0:0:
258,98,101991,1,0,0:0:0:0:
197,91,102091,5,12,0:1:0:0:
197,91,102191,1,0,0:0:0:0:
197,91,102291,1,0,0:0:0:0:
190,154,102391,5,12,0:1:0:0:
186,196,102491,1,0,0:0:0:0:
186,210,102591,1,8,0:1:0:0:
182,252,102691,1,0,0:0:0:0:
175,317,102791,5,4,0:0:0:0:
290,69,103091,1,4,0:0:0:0:
448,293,103391,1,4,0:0:0:0:
161,159,103691,5,4,0:0:0:0:
433,135,103991,1,4,0:0:0:0:
318,384,104291,1,4,0:0:0:0:
146,240,104591,5,4,0:0:0:0:
370,82,104891,1,4,0:0:0:0:
395,355,105191,1,4,0:0:0:0:
213,96,105491,5,4,0:0:0:0:
461,211,105791,1,4,0:0:0:0:
237,370,106091,1,4,0:0:0:0:
237,370,106591,1,4,0:3:0:0:
304,227,106791,5,12,0:0:0:0:
256,192,106891,12,0,113391,0:0:0:0:
