osu file format v14

[General]
AudioFilename: audio.mp3
AudioLeadIn: 0
PreviewTime: 39150
Countdown: 1
SampleSet: Soft
StackLeniency: 0.9
Mode: 0
LetterboxInBreaks: 0
WidescreenStoryboard: 1

[Editor]
Bookmarks: 1366,3074,6112,9150,12188,21302,22821,27378,39530,63834,69910
DistanceSpacing: 1
BeatDivisor: 4
GridSize: 16
TimelineZoom: 1.3

[Metadata]
Title:Mythical Encirclement
TitleUnicode:Mythical Encirclement
Artist:madhead
ArtistUnicode:madhead
Creator:dogbear789
Version:Insane
Source:Tower of Saviors
Tags:神魔之塔 飛龍 旅人的記憶 封神演義 封神仙境 The Traveler's Memories Investiture of Heavenly Kingdom the Gods Power Release bgm boss fight battle theme chinese tranditional instrumental video game
BeatmapID:2130069
BeatmapSetID:998767

[Difficulty]
HPDrainRate:6
CircleSize:4
OverallDifficulty:8.4
ApproachRate:9
SliderMultiplier:1.5
SliderTickRate:1

[Events]
//Background and Video events
0,0,"1310039-chinese-dragon-wallpaper.jpg",0,0
//Break Periods
//Storyboard Layer 0 (Background)
//Storyboard Layer 1 (Fail)
//Storyboard Layer 2 (Pass)
//Storyboard Layer 3 (Foreground)
//Storyboard Layer 4 (Overlay)
//Storyboard Sound Samples

[TimingPoints]
26,379.746835443038,4,2,1,50,1,0
26,-200,4,2,1,50,0,0
10658,-133.333333333333,4,2,1,50,0,0
22810,-100,4,2,1,50,0,0
24329,-200,4,2,1,50,0,0
27367,-133.333333333333,4,2,1,50,0,0
39139,-133.333333333333,4,2,1,50,0,1
39519,-80,4,2,2,60,0,1
44076,-100,4,2,2,60,0,1
46734,-133.333333333333,4,2,2,60,0,1
47019,-133.333333333333,4,2,2,5,0,1
47114,-133.333333333333,4,2,2,60,0,1
47874,-79.9999999999999,4,2,2,60,0,1
48633,-100,4,2,2,60,0,1
49772,-133.333333333333,4,2,2,60,0,1
50152,-100,4,2,2,60,0,1
51671,-66.6666666666667,4,2,2,60,0,1
52051,-79.9999999999999,4,2,2,60,0,1
53190,-100,4,2,2,60,0,1
59171,-100,4,2,2,5,0,1
59266,-133.333333333333,4,2,2,60,0,1
59836,-200,4,2,2,60,0,1
60785,-133.333333333333,4,2,2,60,0,1
62304,-100,4,2,2,60,0,1
63823,-133.333333333333,4,2,2,50,0,0

[Colours]
Combo1 : 129,254,169
Combo2 : 255,187,47
Combo3 : 5,226,99
Combo4 : 254,202,150

[HitObjects]
376,127,26,6,0,L|369:158,9,18.75,14|0|0|0|0|0|0|0|0|0,0:0|0:0|0:0|0:0|0:0|0:0|0:0|0:0|0:0|0:0,0:0:0:0:
364,181,975,1,0,0:0:0:0:
335,290,1165,1,8,0:0:0:0:
335,290,1355,1,0,0:0:0:0:
225,315,1544,6,0,L|232:284,9,18.75,10|0|0|0|0|0|0|0|0|0,0:0|0:0|0:0|0:0|0:0|0:0|0:0|0:0|0:0|0:0,0:0:0:0:
237,261,2494,1,0,0:0:0:0:
266,152,2684,1,8,0:0:0:0:
266,152,2874,1,0,0:0:0:0:
188,70,3063,5,14,0:0:0:0:
144,233,3253,1,0,0:0:0:0:
236,247,3443,1,8,0:0:0:0:
301,180,3633,1,0,0:0:0:0:
326,270,3823,5,10,0:0:0:0:
383,195,4013,1,0,0:0:0:0:
365,103,4203,1,8,0:0:0:0:
279,65,4393,1,0,0:0:0:0:
186,70,4582,1,10,0:0:0:0:
168,76,4677,5,0,0:0:0:0:
151,85,4772,1,0,0:0:0:0:
137,97,4867,1,0,0:0:0:0:
125,111,4962,1,10,0:0:0:0:
117,128,5057,1,0,0:0:0:0:
111,146,5152,1,0,0:0:0:0:
109,164,5247,1,0,0:0:0:0:
111,183,5342,1,10,0:0:0:0:
116,201,5437,1,0,0:0:0:0:
124,218,5532,1,0,0:0:0:0:
136,233,5627,1,0,0:0:0:0:
149,245,5722,1,10,0:0:0:0:
212,160,6101,6,0,L|246:158,9,18.75,14|0|0|0|0|0|0|0|0|0,0:0|0:0|0:0|0:0|0:0|0:0|0:0|0:0|0:0|0:0,0:0:0:0:
268,160,7051,1,0,0:0:0:0:
418,155,7241,1,8,0:0:0:0:
418,155,7431,1,0,0:0:0:0:
349,287,7620,6,0,L|315:289,9,18.75,10|0|0|0|0|0|0|0|0|0,0:0|0:0|0:0|0:0|0:0|0:0|0:0|0:0|0:0|0:0,0:0:0:0:
293,287,8570,1,0,0:0:0:0:
143,292,8760,1,8,0:0:0:0:
143,292,8950,1,0,0:0:0:0:
212,160,9139,5,14,0:0:0:0:
330,351,9329,2,0,L|343:371,2,18.75,8|0|0,0:0|0:0|0:0,0:0:0:0:
330,351,9709,5,2,0:0:0:0:
390,213,9899,1,8,0:0:0:0:
391,306,10089,1,2,0:0:0:0:
331,168,10279,1,8,0:0:0:0:
329,261,10469,1,0,0:0:0:0:
389,123,10658,5,10,0:0:0:0:
365,106,10753,1,0,0:0:0:0:
339,98,10848,1,0,0:0:0:0:
311,100,10943,1,0,0:0:0:0:
286,114,11038,1,8,0:0:0:0:
267,134,11133,1,0,0:0:0:0:
245,152,11228,1,0,0:0:0:0:
220,165,11323,1,0,0:0:0:0:
193,169,11418,1,8,0:0:0:0:
165,164,11513,1,0,0:0:0:0:
142,148,11608,1,0,0:0:0:0:
125,126,11703,1,0,0:0:0:0:
118,99,11798,5,10,0:0:0:0:
199,77,11988,1,2,0:0:0:0:
279,51,12177,2,0,B|304:96|287:147|287:147|272:192|295:237,1,168.750006437302,6|2,0:0|0:0,0:0:0:0:
286,215,13317,5,10,0:0:0:0:
361,178,13507,1,2,0:0:0:0:
359,261,13696,2,0,B|331:293,5,28.1250010728836,2|0|0|0|0|0,0:0|0:0|0:0|0:0|0:0|0:0,0:0:0:0:
311,313,14266,1,2,0:0:0:0:
394,328,14646,6,0,B|412:306,1,28.1250010728836
311,313,14836,1,10,0:0:0:0:
228,296,15026,1,2,0:0:0:0:
191,220,15215,2,0,P|193:175|120:221,1,168.750006437302,6|2,0:0|0:0,0:0:0:0:
112,203,16165,5,10,0:0:0:0:
258,118,16355,1,0,0:0:0:0:
90,122,16544,1,0,0:0:0:0:
236,207,16734,1,10,0:0:0:0:
261,219,16829,1,0,0:0:0:0:
286,232,16924,2,0,L|326:249,3,28.1250010728836,8|0|0|0,0:0|0:0|0:0|0:0,0:0:0:0:
387,283,17304,1,10,0:0:0:0:
362,295,17399,1,0,0:0:0:0:
337,308,17494,2,0,L|297:325,1,28.1250010728836,8|0,0:0|0:0,0:0:0:0:
231,349,17684,5,10,0:0:0:0:
80,272,17874,1,0,0:0:0:0:
231,199,18063,1,0,0:0:0:0:
80,128,18253,2,0,P|128:64|208:32,1,168.750006437302,14|2,0:0|0:0,0:0:0:0:
208,31,19393,5,0,0:0:0:0:
307,82,19582,1,0,0:0:0:0:
406,135,19772,2,0,L|397:172,5,28.1250010728836,10|0|0|0|0|0,0:0|0:0|0:0|0:0|0:0|0:0,0:0:0:0:
387,217,20342,2,0,L|378:254,5,28.1250010728836,2|0|0|0|0|0,0:0|0:0|0:0|0:0|0:0|0:0,0:0:0:0:
367,299,20912,1,2,0:0:0:0:
367,299,21291,5,0,0:0:0:0:
340,309,21386,1,0,0:0:0:0:
313,313,21481,1,0,0:0:0:0:
285,312,21576,1,0,0:0:0:0:
257,306,21671,1,0,0:0:0:0:
230,299,21766,1,0,0:0:0:0:
202,296,21861,1,0,0:0:0:0:
174,297,21956,1,0,0:0:0:0:
146,302,22051,2,0,L|105:300,7,28.1250010728836
61,296,22810,5,14,0:0:0:0:
38,266,22905,1,0,0:0:0:0:
32,229,23000,1,0,0:0:0:0:
42,194,23095,1,0,0:0:0:0:
68,167,23190,2,0,L|123:158,3,37.5,10|0|0|0,0:0|0:0|0:0|0:0,0:0:0:0:
180,151,23570,5,14,0:0:0:0:
202,181,23665,1,0,0:0:0:0:
209,217,23760,1,0,0:0:0:0:
198,253,23855,1,0,0:0:0:0:
173,280,23950,2,0,L|118:289,3,37.5,10|0|0|0,0:0|0:0|0:0|0:0,0:0:0:0:
61,296,24329,6,0,B|30:241|61:190|61:190|94:135|61:75,1,225,14|0,0:0|0:0,0:0:0:0:
64,81,25848,5,0,0:0:0:0:
64,81,26608,1,0,0:0:0:0:
64,81,27367,6,0,L|125:85,3,56.2500021457673,14|0|0|0,0:0|0:0|0:0|0:0,0:0:0:0:
198,165,28127,2,0,L|259:161,1,56.2500021457673,2|0,0:0|0:0,0:0:0:0:
310,155,28507,1,2,0:0:0:0:
310,155,28696,1,0,0:0:0:0:
420,131,28886,6,0,L|407:190,3,56.2500021457673,2|0|0|0,0:0|0:0|0:0|0:0,0:0:0:0:
380,295,29646,2,0,L|445:295,1,56.2500021457673,2|0,0:0|0:0,0:0:0:0:
361,379,30026,2,0,L|304:379,1,56.2500021457673,2|0,0:0|0:0,0:0:0:0:
277,269,30405,6,0,L|237:217,3,56.2500021457673,10|0|0|0,0:0|0:0|0:0|0:0,0:0:0:0:
131,204,31165,2,0,L|171:152,1,56.2500021457673,2|0,0:0|0:0,0:0:0:0:
202,117,31544,1,2,0:0:0:0:
202,117,31734,1,0,0:0:0:0:
308,80,31924,6,0,L|308:147,3,56.2500021457673,2|0|0|0,0:0|0:0|0:0|0:0,0:0:0:0:
336,245,32684,2,0,P|308:255|272:244,1,56.2500021457673,2|0,0:0|0:0,0:0:0:0:
254,141,33063,2,0,P|282:131|318:142,1,56.2500021457673,2|0,0:0|0:0,0:0:0:0:
386,220,33443,6,0,L|327:249,3,56.2500021457673,10|0|0|0,0:0|0:0|0:0|0:0,0:0:0:0:
256,326,34203,2,0,L|197:297,1,56.2500021457673,2|0,0:0|0:0,0:0:0:0:
154,277,34582,1,2,0:0:0:0:
154,277,34772,1,0,0:0:0:0:
83,189,34962,5,2,0:0:0:0:
155,146,35152,1,0,0:0:0:0:
227,189,35342,1,0,0:0:0:0:
299,146,35532,1,0,0:0:0:0:
345,217,35722,5,2,0:0:0:0:
273,260,35912,1,0,0:0:0:0:
345,217,36101,5,2,0:0:0:0:
273,260,36291,1,0,0:0:0:0:
344,305,36481,5,14,0:0:0:0:
415,260,36671,1,0,0:0:0:0:
415,175,36861,1,0,0:0:0:0:
344,128,37051,1,0,0:0:0:0:
274,175,37241,2,0,L|274:240,1,56.2500021457673,2|0,0:0|0:0,0:0:0:0:
185,300,37620,2,0,L|185:243,1,56.2500021457673,2|0,0:0|0:0,0:0:0:0:
185,130,38000,5,0,0:0:0:0:
185,130,38190,1,0,0:0:0:0:
253,80,38380,1,0,0:0:0:0:
320,130,38570,1,0,0:0:0:0:
398,49,38760,5,2,0:0:0:0:
356,212,38950,1,0,0:0:0:0:
253,80,39139,5,2,0:0:0:0:
448,193,39329,1,0,0:0:0:0:
252,306,39519,5,6,0:0:0:0:
213,331,39614,1,0,0:0:0:0:
167,329,39709,1,0,0:0:0:0:
130,302,39804,1,0,0:0:0:0:
120,257,39899,1,8,0:0:0:0:
138,214,39994,1,0,0:0:0:0:
171,181,40089,1,0,0:0:0:0:
184,137,40184,1,0,0:0:0:0:
167,95,40279,2,0,L|123:75,3,46.875,2|0|0|0,0:0|0:0|0:0|0:0,0:0:0:0:
81,58,40658,5,8,0:0:0:0:
68,150,40848,1,0,0:0:0:0:
138,214,41038,2,0,L|191:202,7,46.875,2|0|0|0|8|0|0|0,0:0|0:0|0:0|0:0|0:0|0:0|0:0|0:0,0:0:0:0:
233,123,41798,2,0,L|286:135,7,46.875,2|0|0|0|8|0|0|0,0:0|0:0|0:0|0:0|0:0|0:0|0:0|0:0,0:0:0:0:
352,191,42557,5,6,0:0:0:0:
397,198,42652,1,0,0:0:0:0:
425,234,42747,1,0,0:0:0:0:
423,280,42842,1,0,0:0:0:0:
391,313,42937,1,8,0:0:0:0:
346,317,43032,1,0,0:0:0:0:
309,291,43127,1,0,0:0:0:0:
275,258,43222,1,0,0:0:0:0:
230,252,43317,2,0,L|178:273,3,46.875,2|0|0|0,0:0|0:0|0:0|0:0,0:0:0:0:
101,308,43696,5,8,0:0:0:0:
62,172,43886,1,0,0:0:0:0:
167,78,44076,5,2,0:0:0:0:
199,59,44171,1,0,0:0:0:0:
236,57,44266,1,0,0:0:0:0:
270,72,44361,1,0,0:0:0:0:
294,101,44456,1,8,0:0:0:0:
306,134,44551,1,0,0:0:0:0:
317,169,44646,1,0,0:0:0:0:
344,194,44741,1,0,0:0:0:0:
380,201,44836,1,2,0:0:0:0:
415,189,44931,1,0,0:0:0:0:
439,161,45026,1,0,0:0:0:0:
446,125,45120,1,0,0:0:0:0:
437,87,45215,6,0,P|407:64|362:71,1,75,8|0,0:0|0:0,0:0:0:0:
371,66,45595,6,0,L|356:123,5,37.5,6|0|0|0|8|0,0:0|0:0|0:0|0:0|0:0|0:0,0:0:0:0:
299,139,46165,2,0,L|314:196,5,37.5,0|0|2|0|0|0,0:0|0:0|0:0|0:0|0:0|0:0,0:0:0:0:
371,208,46734,2,0,L|348:294,1,84.3750032186509,8|0,0:0|0:0,0:0:0:0:
327,338,47114,5,2,0:0:0:0:
299,344,47209,1,0,0:0:0:0:
272,341,47304,1,0,0:0:0:0:
247,327,47399,1,0,0:0:0:0:
230,305,47494,2,0,L|227:253,3,28.1250010728836,8|0|0|0,0:0|0:0|0:0|0:0,0:0:0:0:
224,230,47874,5,2,0:0:0:0:
194,194,47969,1,0,0:0:0:0:
151,177,48063,1,0,0:0:0:0:
105,185,48158,1,0,0:0:0:0:
70,214,48253,2,0,L|59:274,3,46.875,8|0|0|0,0:0|0:0|0:0|0:0,0:0:0:0:
56,297,48633,5,6,0:0:0:0:
80,325,48728,1,0,0:0:0:0:
111,345,48823,1,0,0:0:0:0:
147,355,48918,1,0,0:0:0:0:
185,353,49013,1,8,0:0:0:0:
220,340,49108,1,0,0:0:0:0:
250,318,49203,6,0,L|250:262,5,37.5
250,252,49772,2,0,L|250:220,3,28.1250010728836,8|0|0|0,0:0|0:0|0:0|0:0,0:0:0:0:
252,186,50152,5,2,0:0:0:0:
278,159,50247,1,0,0:0:0:0:
311,142,50342,1,0,0:0:0:0:
348,136,50437,1,0,0:0:0:0:
385,142,50532,1,8,0:0:0:0:
418,159,50627,1,0,0:0:0:0:
445,185,50722,1,0,0:0:0:0:
462,218,50817,1,0,0:0:0:0:
468,255,50912,1,2,0:0:0:0:
462,292,51007,1,0,0:0:0:0:
445,325,51101,1,0,0:0:0:0:
419,352,51196,1,0,0:0:0:0:
385,369,51291,6,0,L|341:363,3,37.5,8|0|0|0,0:0|0:0|0:0|0:0,0:0:0:0:
292,348,51671,5,6,0:0:0:0:
237,334,51766,1,0,0:0:0:0:
194,299,51861,1,0,0:0:0:0:
167,250,51956,1,0,0:0:0:0:
163,194,52051,2,0,L|181:143,3,46.875,8|0|0|0,0:0|0:0|0:0|0:0,0:0:0:0:
272,140,52431,2,0,L|290:191,3,46.875,2|0|0|0,0:0|0:0|0:0|0:0,0:0:0:0:
327,269,52810,5,8,0:0:0:0:
197,245,53000,1,0,0:0:0:0:
67,220,53190,2,0,L|100:175,7,37.5,2|0|0|0|8|0|0|0,0:0|0:0|0:0|0:0|0:0|0:0|0:0|0:0,0:0:0:0:
140,134,53950,2,0,L|185:167,7,37.5,2|0|0|0|8|0|0|0,0:0|0:0|0:0|0:0|0:0|0:0|0:0|0:0,0:0:0:0:
232,198,54709,5,6,0:0:0:0:
262,219,54804,1,0,0:0:0:0:
299,224,54899,1,0,0:0:0:0:
334,212,54994,1,0,0:0:0:0:
359,185,55089,1,8,0:0:0:0:
370,149,55184,1,0,0:0:0:0:
363,113,55279,1,0,0:0:0:0:
340,84,55374,1,0,0:0:0:0:
305,68,55469,2,0,L|271:111,3,37.5,2|0|0|0,0:0|0:0|0:0|0:0,0:0:0:0:
232,153,55848,5,8,0:0:0:0:
286,292,56038,1,0,0:0:0:0:
433,317,56228,5,2,0:0:0:0:
466,300,56323,1,0,0:0:0:0:
482,267,56418,1,0,0:0:0:0:
478,230,56513,1,0,0:0:0:0:
457,200,56608,1,8,0:0:0:0:
423,185,56703,1,0,0:0:0:0:
387,194,56798,1,0,0:0:0:0:
362,221,56893,1,0,0:0:0:0:
350,256,56988,1,2,0:0:0:0:
334,290,57082,1,0,0:0:0:0:
307,315,57177,1,0,0:0:0:0:
271,325,57272,1,0,0:0:0:0:
234,318,57367,6,0,L|218:275,3,37.5,8|0|0|0,0:0|0:0|0:0|0:0,0:0:0:0:
203,209,57747,6,0,L|148:193,5,37.5,2|0|0|0|8|0,0:0|0:0|0:0|0:0|0:0|0:0,0:0:0:0:
131,131,58317,2,0,L|186:115,5,37.5,0|0|2|0|0|0,0:0|0:0|0:0|0:0|0:0|0:0,0:0:0:0:
202,54,58886,2,0,P|148:27|75:46,1,112.5,8|0,0:0|0:0,0:0:0:0:
46,58,59266,5,2,0:0:0:0:
51,85,59361,1,0,0:0:0:0:
56,113,59456,2,0,L|65:164,3,28.1250010728836,0|0|8|0,0:0|0:0|0:0|0:0,0:0:0:0:
137,179,59836,5,0,0:0:0:0:
133,197,59931,1,0,0:0:0:0:
130,215,60026,1,2,0:0:0:0:
126,234,60120,1,0,0:0:0:0:
123,252,60215,1,0,0:0:0:0:
120,271,60310,1,0,0:0:0:0:
116,289,60405,6,0,L|110:316,3,18.75,8|0|0|0,0:0|0:0|0:0|0:0,0:0:0:0:
98,362,60785,5,2,0:0:0:0:
124,371,60880,1,0,0:0:0:0:
152,373,60975,1,0,0:0:0:0:
179,368,61070,1,0,0:0:0:0:
204,355,61165,1,8,0:0:0:0:
225,336,61260,1,0,0:0:0:0:
240,313,61355,2,0,L|244:260,5,28.1250010728836,0|0|2|0|0|0,0:0|0:0|0:0|0:0|0:0|0:0,0:0:0:0:
247,229,61924,2,0,L|250:175,3,28.1250010728836,8|0|0|0,0:0|0:0|0:0|0:0,0:0:0:0:
253,144,62304,5,2,0:0:0:0:
281,119,62399,1,0,0:0:0:0:
315,104,62494,1,0,0:0:0:0:
352,100,62589,1,0,0:0:0:0:
389,108,62684,1,8,0:0:0:0:
422,125,62779,1,0,0:0:0:0:
447,152,62874,1,0,0:0:0:0:
464,186,62969,1,0,0:0:0:0:
470,223,63063,1,2,0:0:0:0:
465,260,63158,1,0,0:0:0:0:
449,293,63253,1,0,0:0:0:0:
423,321,63348,1,0,0:0:0:0:
390,340,63443,2,0,P|348:352|316:348,1,75,8|0,0:0|0:0,0:0:0:0:
318,349,63823,5,6,0:0:0:0:
