osu file format v14

[General]
AudioFilename: audio.mp3
AudioLeadIn: 0
PreviewTime: -1
Countdown: 0
SampleSet: None
StackLeniency: 0.7
Mode: 3
LetterboxInBreaks: 0
SpecialStyle: 0
WidescreenStoryboard: 1

[Editor]
DistanceSpacing: 0.5
BeatDivisor: 8
GridSize: 32
TimelineZoom: 2.5

[Metadata]
Title:We Could Be The Same
TitleUnicode:We Could Be The Same
Artist:maNga
ArtistUnicode:maNga
Creator:nfyx
Version:Eh
Source:
Tags:
BeatmapID:4538015
BeatmapSetID:2153654

[Difficulty]
HPDrainRate:7
CircleSize:7
OverallDifficulty:5
ApproachRate:5
SliderMultiplier:1.4
SliderTickRate:1

[Events]
//Background and Video events
0,0,"sini.png",0,0
//Break Periods
//Storyboard Layer 0 (Background)
//Storyboard Layer 1 (Fail)
//Storyboard Layer 2 (Pass)
//Storyboard Layer 3 (Foreground)
//Storyboard Layer 4 (Overlay)
//Storyboard Sound Samples

[TimingPoints]
0,451.127819548872,4,1,0,80,1,0

[HitObjects]
475,192,394,5,0,0:0:0:0:
402,192,563,1,0,0:0:0:0:
475,192,733,1,0,0:0:0:0:
36,192,1240,1,0,0:0:0:0:
109,192,1466,1,0,0:0:0:0:
36,192,1691,1,0,0:0:0:0:
475,192,2142,1,0,0:0:0:0:
402,192,2368,1,0,0:0:0:0:
475,192,2593,1,0,0:0:0:0:
36,192,3045,1,0,0:0:0:0:
109,192,3270,1,0,0:0:0:0:
36,192,3496,1,0,0:0:0:0:
475,192,3947,1,0,0:0:0:0:
402,192,4172,1,0,0:0:0:0:
475,192,4398,1,0,0:0:0:0:
36,192,4849,1,0,0:0:0:0:
109,192,5075,1,0,0:0:0:0:
36,192,5300,1,0,0:0:0:0:
475,192,5751,1,0,0:0:0:0:
402,192,5977,1,0,0:0:0:0:
475,192,6203,1,0,0:0:0:0:
36,192,6654,1,0,0:0:0:0:
109,192,6879,1,0,0:0:0:0:
256,192,6879,128,0,12744:0:0:0:0:
36,192,7105,1,0,0:0:0:0:
475,192,7556,1,0,0:0:0:0:
402,192,7781,1,0,0:0:0:0:
475,192,8007,1,0,0:0:0:0:
36,192,8458,1,0,0:0:0:0:
109,192,8684,1,0,0:0:0:0:
36,192,8909,1,0,0:0:0:0:
475,192,9360,1,0,0:0:0:0:
402,192,9586,1,0,0:0:0:0:
475,192,9812,1,0,0:0:0:0:
36,192,10263,1,0,0:0:0:0:
109,192,10488,1,0,0:0:0:0:
36,192,10714,1,0,0:0:0:0:
475,192,11165,1,0,0:0:0:0:
402,192,11390,1,0,0:0:0:0:
475,192,11616,1,0,0:0:0:0:
36,192,12067,1,0,0:0:0:0:
109,192,12293,1,0,0:0:0:0:
36,192,12518,1,0,0:0:0:0:
402,192,12744,1,0,0:0:0:0:
475,192,12744,1,0,0:0:0:0:
36,192,12744,1,0,0:0:0:0:
109,192,12744,1,0,0:0:0:0:
36,192,12969,1,0,0:0:0:0:
109,192,12969,1,0,0:0:0:0:
402,192,12969,1,0,0:0:0:0:
475,192,12969,1,0,0:0:0:0:
329,192,12969,1,0,0:0:0:0:
182,192,12969,1,0,0:0:0:0:
36,192,13195,1,0,0:0:0:0:
109,192,13195,1,0,0:0:0:0:
402,192,13195,1,0,0:0:0:0:
475,192,13195,1,0,0:0:0:0:
475,192,13421,1,0,0:0:0:0:
402,192,13421,1,0,0:0:0:0:
329,192,13421,1,0,0:0:0:0:
109,192,13421,1,0,0:0:0:0:
36,192,13421,1,0,0:0:0:0:
182,192,13421,1,0,0:0:0:0:
36,192,13646,1,0,0:0:0:0:
109,192,13646,1,0,0:0:0:0:
402,192,13646,1,0,0:0:0:0:
475,192,13646,1,0,0:0:0:0:
36,192,13872,1,0,0:0:0:0:
109,192,13872,1,0,0:0:0:0:
182,192,13872,1,0,0:0:0:0:
329,192,13872,1,0,0:0:0:0:
402,192,13872,1,0,0:0:0:0:
475,192,13872,1,0,0:0:0:0:
475,192,14097,1,0,0:0:0:0:
402,192,14097,1,0,0:0:0:0:
109,192,14097,1,0,0:0:0:0:
36,192,14097,1,0,0:0:0:0:
36,192,14548,5,0,0:0:0:0:
109,192,14548,1,0,0:0:0:0:
182,192,14548,1,0,0:0:0:0:
256,192,14548,1,0,0:0:0:0:
329,192,14548,1,0,0:0:0:0:
402,192,14548,1,0,0:0:0:0:
475,192,14548,1,0,0:0:0:0:
36,192,14774,1,0,0:0:0:0:
182,192,14774,1,0,0:0:0:0:
329,192,14774,1,0,0:0:0:0:
402,192,14999,1,0,0:0:0:0:
256,192,14999,1,0,0:0:0:0:
109,192,14999,1,0,0:0:0:0:
182,192,15225,1,0,0:0:0:0:
329,192,15225,1,0,0:0:0:0:
475,192,15225,1,0,0:0:0:0:
182,192,15902,1,0,0:0:0:0:
329,192,15902,1,0,0:0:0:0:
475,192,15902,1,0,0:0:0:0:
36,192,16127,1,0,0:0:0:0:
329,192,16127,1,0,0:0:0:0:
182,192,16127,1,0,0:0:0:0:
109,192,16578,1,0,0:0:0:0:
36,192,16578,1,0,0:0:0:0:
182,192,16578,1,0,0:0:0:0:
329,192,16804,1,0,0:0:0:0:
402,192,16804,1,0,0:0:0:0:
475,192,16804,1,0,0:0:0:0:
109,192,17030,1,0,0:0:0:0:
36,192,17030,1,0,0:0:0:0:
182,192,17030,1,0,0:0:0:0:
329,192,17255,1,0,0:0:0:0:
402,192,17255,1,0,0:0:0:0:
475,192,17255,1,0,0:0:0:0:
109,192,17481,1,0,0:0:0:0:
36,192,17481,1,0,0:0:0:0:
182,192,17481,1,0,0:0:0:0:
329,192,17706,1,0,0:0:0:0:
402,192,17706,1,0,0:0:0:0:
475,192,17706,1,0,0:0:0:0:
329,192,18383,1,0,0:0:0:0:
182,192,18383,1,0,0:0:0:0:
475,192,18383,1,0,0:0:0:0:
109,192,18609,1,0,0:0:0:0:
256,192,18609,1,0,0:0:0:0:
402,192,18609,1,0,0:0:0:0:
182,192,18834,1,0,0:0:0:0:
329,192,18834,1,0,0:0:0:0:
36,192,18834,1,0,0:0:0:0:
475,192,19736,128,0,19962:0:0:0:0:
402,192,19793,128,0,20018:0:0:0:0:
329,192,19849,128,0,20075:0:0:0:0:
256,192,19906,128,0,20131:0:0:0:0:
182,192,19962,128,0,20187:0:0:0:0:
109,192,20018,128,0,20244:0:0:0:0:
36,192,20075,128,0,20526:0:0:0:0:
109,192,20357,128,0,20582:0:0:0:0:
182,192,20413,128,0,20639:0:0:0:0:
256,192,20469,128,0,20695:0:0:0:0:
329,192,20526,128,0,20751:0:0:0:0:
402,192,20582,128,0,20808:0:0:0:0:
475,192,20639,128,0,21090:0:0:0:0:
402,192,20921,128,0,21146:0:0:0:0:
329,192,20977,128,0,21203:0:0:0:0:
256,192,21033,128,0,21259:0:0:0:0:
182,192,21090,128,0,21315:0:0:0:0:
109,192,21146,128,0,21372:0:0:0:0:
36,192,21203,128,0,21654:0:0:0:0:
109,192,21484,128,0,21710:0:0:0:0:
182,192,21541,128,0,21766:0:0:0:0:
256,192,21597,128,0,21823:0:0:0:0:
329,192,21654,128,0,21879:0:0:0:0:
402,192,21710,128,0,21936:0:0:0:0:
475,192,21710,128,0,21992:0:0:0:0:
36,192,21992,1,0,0:0:0:0:
182,192,21992,1,0,0:0:0:0:
256,192,21992,1,0,0:0:0:0:
36,192,22105,1,0,0:0:0:0:
329,192,22105,1,0,0:0:0:0:
475,192,22105,1,0,0:0:0:0:
329,192,22218,1,0,0:0:0:0:
182,192,22218,1,0,0:0:0:0:
475,192,22218,1,0,0:0:0:0:
402,192,22330,1,0,0:0:0:0:
256,192,22330,1,0,0:0:0:0:
109,192,22330,1,0,0:0:0:0:
36,192,22443,1,0,0:0:0:0:
182,192,22443,1,0,0:0:0:0:
256,192,22443,1,0,0:0:0:0:
475,192,22556,1,0,0:0:0:0:
329,192,22556,1,0,0:0:0:0:
182,192,22556,1,0,0:0:0:0:
109,192,22669,1,0,0:0:0:0:
256,192,22669,1,0,0:0:0:0:
402,192,22669,1,0,0:0:0:0:
475,192,22781,1,0,0:0:0:0:
402,192,22781,1,0,0:0:0:0:
329,192,22781,1,0,0:0:0:0:
182,192,22894,1,0,0:0:0:0:
256,192,22894,1,0,0:0:0:0:
36,192,22894,1,0,0:0:0:0:
475,192,23007,1,0,0:0:0:0:
256,192,23007,1,0,0:0:0:0:
109,192,23007,1,0,0:0:0:0:
475,192,23120,1,0,0:0:0:0:
256,192,23120,1,0,0:0:0:0:
402,192,23120,1,0,0:0:0:0:
36,192,23233,1,0,0:0:0:0:
402,192,23233,1,0,0:0:0:0:
182,192,23233,1,0,0:0:0:0:
109,192,23345,1,0,0:0:0:0:
256,192,23345,1,0,0:0:0:0:
475,192,23345,1,0,0:0:0:0:
475,192,23458,1,0,0:0:0:0:
182,192,23458,1,0,0:0:0:0:
402,192,23458,1,0,0:0:0:0:
109,192,23571,1,0,0:0:0:0:
402,192,23571,1,0,0:0:0:0:
256,192,23571,1,0,0:0:0:0:
36,192,23684,1,0,0:0:0:0:
182,192,23684,1,0,0:0:0:0:
475,192,23684,1,0,0:0:0:0:
329,192,23796,1,0,0:0:0:0:
256,192,23796,1,0,0:0:0:0:
182,192,23796,1,0,0:0:0:0:
109,192,23909,1,0,0:0:0:0:
402,192,23909,1,0,0:0:0:0:
256,192,23909,1,0,0:0:0:0:
475,192,24022,1,0,0:0:0:0:
256,192,24022,1,0,0:0:0:0:
36,192,24022,1,0,0:0:0:0:
109,192,24135,1,0,0:0:0:0:
329,192,24135,1,0,0:0:0:0:
402,192,24135,1,0,0:0:0:0:
182,192,24248,1,0,0:0:0:0:
475,192,24248,1,0,0:0:0:0:
329,192,24248,1,0,0:0:0:0:
256,192,24360,1,0,0:0:0:0:
36,192,24360,1,0,0:0:0:0:
109,192,24360,1,0,0:0:0:0:
329,192,24473,1,0,0:0:0:0:
36,192,24473,1,0,0:0:0:0:
182,192,24473,1,0,0:0:0:0:
402,192,24586,1,0,0:0:0:0:
256,192,24586,1,0,0:0:0:0:
109,192,24586,1,0,0:0:0:0:
475,192,24699,1,0,0:0:0:0:
36,192,24699,1,0,0:0:0:0:
109,192,24699,1,0,0:0:0:0:
329,192,24812,1,0,0:0:0:0:
256,192,24812,1,0,0:0:0:0:
182,192,24812,1,0,0:0:0:0:
402,192,24924,1,0,0:0:0:0:
256,192,24924,1,0,0:0:0:0:
109,192,24924,1,0,0:0:0:0:
36,192,25037,1,0,0:0:0:0:
256,192,25037,1,0,0:0:0:0:
475,192,25037,1,0,0:0:0:0:
402,192,25150,1,0,0:0:0:0:
329,192,25150,1,0,0:0:0:0:
109,192,25150,1,0,0:0:0:0:
36,192,25263,1,0,0:0:0:0:
182,192,25263,1,0,0:0:0:0:
475,192,25263,1,0,0:0:0:0:
402,192,25375,1,0,0:0:0:0:
109,192,25375,1,0,0:0:0:0:
329,192,25375,1,0,0:0:0:0:
256,192,25488,1,0,0:0:0:0:
36,192,25488,1,0,0:0:0:0:
475,192,25488,1,0,0:0:0:0:
182,192,25601,1,0,0:0:0:0:
36,192,25601,1,0,0:0:0:0:
329,192,25601,1,0,0:0:0:0:
256,192,25714,1,0,0:0:0:0:
402,192,25714,1,0,0:0:0:0:
475,192,25714,1,0,0:0:0:0:
109,192,25827,1,0,0:0:0:0:
182,192,25827,1,0,0:0:0:0:
329,192,25827,1,0,0:0:0:0:
402,192,25939,1,0,0:0:0:0:
256,192,25939,1,0,0:0:0:0:
109,192,25939,1,0,0:0:0:0:
329,192,26052,1,0,0:0:0:0:
402,192,26052,1,0,0:0:0:0:
36,192,26052,1,0,0:0:0:0:
109,192,26165,1,0,0:0:0:0:
256,192,26165,1,0,0:0:0:0:
475,192,26165,1,0,0:0:0:0:
36,192,26278,1,0,0:0:0:0:
475,192,26278,1,0,0:0:0:0:
402,192,26278,1,0,0:0:0:0:
109,192,26390,1,0,0:0:0:0:
256,192,26390,1,0,0:0:0:0:
475,192,26390,1,0,0:0:0:0:
36,192,26503,1,0,0:0:0:0:
329,192,26503,1,0,0:0:0:0:
256,192,26503,1,0,0:0:0:0:
475,192,26616,1,0,0:0:0:0:
182,192,26616,1,0,0:0:0:0:
329,192,26616,1,0,0:0:0:0:
109,192,26729,1,0,0:0:0:0:
402,192,26729,1,0,0:0:0:0:
475,192,26729,1,0,0:0:0:0:
36,192,26842,1,0,0:0:0:0:
256,192,26842,1,0,0:0:0:0:
475,192,26842,1,0,0:0:0:0:
109,192,26954,1,0,0:0:0:0:
182,192,26954,1,0,0:0:0:0:
402,192,26954,1,0,0:0:0:0:
256,192,27067,1,0,0:0:0:0:
475,192,27067,1,0,0:0:0:0:
109,192,27067,1,0,0:0:0:0:
36,192,27180,1,0,0:0:0:0:
475,192,27180,1,0,0:0:0:0:
329,192,27180,1,0,0:0:0:0:
109,192,27293,1,0,0:0:0:0:
182,192,27293,1,0,0:0:0:0:
256,192,27293,1,0,0:0:0:0:
475,192,27406,1,0,0:0:0:0:
402,192,27406,1,0,0:0:0:0:
36,192,27406,1,0,0:0:0:0:
182,192,27518,1,0,0:0:0:0:
329,192,27518,1,0,0:0:0:0:
475,192,27518,1,0,0:0:0:0:
109,192,27631,1,0,0:0:0:0:
256,192,27631,1,0,0:0:0:0:
36,192,27631,1,0,0:0:0:0:
182,192,27744,1,0,0:0:0:0:
475,192,27744,1,0,0:0:0:0:
402,192,27744,1,0,0:0:0:0:
256,192,27857,1,0,0:0:0:0:
475,192,27857,1,0,0:0:0:0:
36,192,27857,1,0,0:0:0:0:
109,192,27969,1,0,0:0:0:0:
329,192,27969,1,0,0:0:0:0:
475,192,27969,1,0,0:0:0:0:
256,192,28082,1,0,0:0:0:0:
182,192,28082,1,0,0:0:0:0:
402,192,28082,1,0,0:0:0:0:
109,192,28195,1,0,0:0:0:0:
36,192,28195,1,0,0:0:0:0:
329,192,28195,1,0,0:0:0:0:
475,192,28308,1,0,0:0:0:0:
256,192,28308,1,0,0:0:0:0:
109,192,28308,1,0,0:0:0:0:
402,192,28421,1,0,0:0:0:0:
256,192,28421,1,0,0:0:0:0:
36,192,28421,1,0,0:0:0:0:
182,192,28533,1,0,0:0:0:0:
329,192,28533,1,0,0:0:0:0:
256,192,28533,1,0,0:0:0:0:
109,192,28646,1,0,0:0:0:0:
329,192,28646,1,0,0:0:0:0:
475,192,28646,1,0,0:0:0:0:
402,192,28759,1,0,0:0:0:0:
36,192,28759,1,0,0:0:0:0:
256,192,28759,1,0,0:0:0:0:
109,192,28872,1,0,0:0:0:0:
182,192,28872,1,0,0:0:0:0:
475,192,28872,1,0,0:0:0:0:
36,192,28984,1,0,0:0:0:0:
402,192,28984,1,0,0:0:0:0:
256,192,28984,1,0,0:0:0:0:
109,192,29097,1,0,0:0:0:0:
329,192,29097,1,0,0:0:0:0:
475,192,29097,1,0,0:0:0:0:
256,192,29210,1,0,0:0:0:0:
182,192,29210,1,0,0:0:0:0:
402,192,29210,1,0,0:0:0:0:
36,192,29323,1,0,0:0:0:0:
256,192,29323,1,0,0:0:0:0:
475,192,29323,1,0,0:0:0:0:
109,192,29436,1,0,0:0:0:0:
402,192,29436,1,0,0:0:0:0:
256,192,29436,1,0,0:0:0:0:
182,192,29548,1,0,0:0:0:0:
36,192,29548,1,0,0:0:0:0:
329,192,29548,1,0,0:0:0:0:
475,192,29661,1,0,0:0:0:0:
402,192,29661,1,0,0:0:0:0:
182,192,29661,1,0,0:0:0:0:
256,192,29774,1,0,0:0:0:0:
36,192,29774,1,0,0:0:0:0:
402,192,29774,1,0,0:0:0:0:
329,192,29887,1,0,0:0:0:0:
182,192,29887,1,0,0:0:0:0:
36,192,29887,1,0,0:0:0:0:
109,192,29999,1,0,0:0:0:0:
256,192,29999,1,0,0:0:0:0:
475,192,29999,1,0,0:0:0:0:
329,192,30112,1,0,0:0:0:0:
475,192,30112,1,0,0:0:0:0:
182,192,30112,1,0,0:0:0:0:
36,192,30225,1,0,0:0:0:0:
256,192,30225,1,0,0:0:0:0:
402,192,30225,1,0,0:0:0:0:
109,192,30338,1,0,0:0:0:0:
182,192,30338,1,0,0:0:0:0:
475,192,30338,1,0,0:0:0:0:
36,192,30451,1,0,0:0:0:0:
182,192,30451,1,0,0:0:0:0:
402,192,30451,1,0,0:0:0:0:
182,192,30563,1,0,0:0:0:0:
329,192,30563,1,0,0:0:0:0:
475,192,30563,1,0,0:0:0:0:
36,192,30676,1,0,0:0:0:0:
256,192,30676,1,0,0:0:0:0:
402,192,30676,1,0,0:0:0:0:
109,192,30789,1,0,0:0:0:0:
182,192,30789,1,0,0:0:0:0:
475,192,30789,1,0,0:0:0:0:
475,192,30902,1,0,0:0:0:0:
329,192,30902,1,0,0:0:0:0:
36,192,30902,1,0,0:0:0:0:
182,192,31015,1,0,0:0:0:0:
402,192,31015,1,0,0:0:0:0:
36,192,31015,1,0,0:0:0:0:
329,192,31127,1,0,0:0:0:0:
109,192,31127,1,0,0:0:0:0:
475,192,31127,1,0,0:0:0:0:
256,192,31240,1,0,0:0:0:0:
36,192,31240,1,0,0:0:0:0:
475,192,31240,1,0,0:0:0:0:
109,192,31353,1,0,0:0:0:0:
182,192,31353,1,0,0:0:0:0:
402,192,31353,1,0,0:0:0:0:
329,192,31466,1,0,0:0:0:0:
36,192,31466,1,0,0:0:0:0:
475,192,31466,1,0,0:0:0:0:
402,192,31578,1,0,0:0:0:0:
256,192,31578,1,0,0:0:0:0:
109,192,31578,1,0,0:0:0:0:
182,192,31691,1,0,0:0:0:0:
36,192,31691,1,0,0:0:0:0:
329,192,31691,1,0,0:0:0:0:
475,192,31804,1,0,0:0:0:0:
256,192,31804,1,0,0:0:0:0:
109,192,31804,1,0,0:0:0:0:
109,192,31917,1,0,0:0:0:0:
36,192,31917,1,0,0:0:0:0:
329,192,31917,1,0,0:0:0:0:
475,192,32030,1,0,0:0:0:0:
402,192,32030,1,0,0:0:0:0:
182,192,32030,1,0,0:0:0:0:
109,192,32142,1,0,0:0:0:0:
329,192,32142,1,0,0:0:0:0:
475,192,32142,1,0,0:0:0:0:
109,192,32255,1,0,0:0:0:0:
36,192,32255,1,0,0:0:0:0:
256,192,32255,1,0,0:0:0:0:
182,192,32368,1,0,0:0:0:0:
402,192,32368,1,0,0:0:0:0:
36,192,32368,1,0,0:0:0:0:
182,192,32481,1,0,0:0:0:0:
256,192,32481,1,0,0:0:0:0:
329,192,32481,1,0,0:0:0:0:
475,192,32593,1,0,0:0:0:0:
402,192,32593,1,0,0:0:0:0:
36,192,32593,1,0,0:0:0:0:
109,192,32706,1,0,0:0:0:0:
256,192,32706,1,0,0:0:0:0:
475,192,32706,1,0,0:0:0:0:
36,192,32819,1,0,0:0:0:0:
256,192,32819,1,0,0:0:0:0:
402,192,32819,1,0,0:0:0:0:
329,192,32932,1,0,0:0:0:0:
182,192,32932,1,0,0:0:0:0:
36,192,32932,1,0,0:0:0:0:
475,192,33045,1,0,0:0:0:0:
402,192,33045,1,0,0:0:0:0:
109,192,33045,1,0,0:0:0:0:
256,192,33157,1,0,0:0:0:0:
182,192,33157,1,0,0:0:0:0:
475,192,33157,1,0,0:0:0:0:
36,192,33270,1,0,0:0:0:0:
256,192,33270,1,0,0:0:0:0:
402,192,33270,1,0,0:0:0:0:
109,192,33383,1,0,0:0:0:0:
329,192,33383,1,0,0:0:0:0:
475,192,33383,1,0,0:0:0:0:
256,192,33496,1,0,0:0:0:0:
36,192,33496,1,0,0:0:0:0:
329,192,33496,1,0,0:0:0:0:
475,192,33609,1,0,0:0:0:0:
256,192,33609,1,0,0:0:0:0:
36,192,33609,1,0,0:0:0:0:
182,192,33721,1,0,0:0:0:0:
402,192,33721,1,0,0:0:0:0:
329,192,33721,1,0,0:0:0:0:
36,192,33834,1,0,0:0:0:0:
256,192,33834,1,0,0:0:0:0:
475,192,33834,1,0,0:0:0:0:
182,192,33947,1,0,0:0:0:0:
36,192,33947,1,0,0:0:0:0:
329,192,33947,1,0,0:0:0:0:
109,192,34060,1,0,0:0:0:0:
475,192,34060,1,0,0:0:0:0:
256,192,34060,1,0,0:0:0:0:
402,192,34172,1,0,0:0:0:0:
329,192,34172,1,0,0:0:0:0:
182,192,34172,1,0,0:0:0:0:
36,192,34285,1,0,0:0:0:0:
109,192,34285,1,0,0:0:0:0:
256,192,34285,1,0,0:0:0:0:
475,192,34398,1,0,0:0:0:0:
329,192,34398,1,0,0:0:0:0:
182,192,34398,1,0,0:0:0:0:
402,192,34511,1,0,0:0:0:0:
329,192,34511,1,0,0:0:0:0:
109,192,34511,1,0,0:0:0:0:
182,192,34624,1,0,0:0:0:0:
256,192,34624,1,0,0:0:0:0:
329,192,34624,1,0,0:0:0:0:
109,192,34736,1,0,0:0:0:0:
402,192,34736,1,0,0:0:0:0:
256,192,34736,1,0,0:0:0:0:
36,192,34849,5,0,0:0:0:0:
256,192,34849,1,0,0:0:0:0:
475,192,34849,1,0,0:0:0:0:
402,192,34962,1,0,0:0:0:0:
109,192,34962,1,0,0:0:0:0:
182,192,34962,1,0,0:0:0:0:
36,192,35075,1,0,0:0:0:0:
182,192,35075,1,0,0:0:0:0:
475,192,35075,1,0,0:0:0:0:
329,192,35187,1,0,0:0:0:0:
402,192,35187,1,0,0:0:0:0:
109,192,35187,1,0,0:0:0:0:
182,192,35300,1,0,0:0:0:0:
475,192,35300,1,0,0:0:0:0:
329,192,35300,1,0,0:0:0:0:
256,192,35413,1,0,0:0:0:0:
109,192,35413,1,0,0:0:0:0:
36,192,35413,1,0,0:0:0:0:
329,192,35526,1,0,0:0:0:0:
475,192,35526,1,0,0:0:0:0:
109,192,35526,1,0,0:0:0:0:
182,192,35639,1,0,0:0:0:0:
36,192,35639,1,0,0:0:0:0:
402,192,35639,1,0,0:0:0:0:
329,192,35751,1,0,0:0:0:0:
182,192,35751,1,0,0:0:0:0:
109,192,35751,1,0,0:0:0:0:
475,192,35864,1,0,0:0:0:0:
256,192,35864,1,0,0:0:0:0:
36,192,35864,1,0,0:0:0:0:
109,192,35977,1,0,0:0:0:0:
256,192,35977,1,0,0:0:0:0:
402,192,35977,1,0,0:0:0:0:
475,192,36090,1,0,0:0:0:0:
256,192,36090,1,0,0:0:0:0:
36,192,36090,1,0,0:0:0:0:
182,192,36203,128,0,36372:0:0:0:0:
329,192,36315,128,0,36484:0:0:0:0:
475,192,36315,128,0,36428:0:0:0:0:
109,192,36428,128,0,36597:0:0:0:0:
256,192,36597,128,0,36710:0:0:0:0:
475,192,36597,128,0,36823:0:0:0:0:
36,192,36710,128,0,36879:0:0:0:0:
329,192,36936,128,0,37048:0:0:0:0:
109,192,36992,128,0,37105:0:0:0:0:
475,192,36992,128,0,37161:0:0:0:0:
256,192,37161,128,0,37274:0:0:0:0:
36,192,37218,128,0,37387:0:0:0:0:
329,192,37443,128,0,37556:0:0:0:0:
109,192,37556,128,0,37725:0:0:0:0:
475,192,37612,128,0,37781:0:0:0:0:
256,192,37612,128,0,37781:0:0:0:0:
36,192,37669,128,0,37781:0:0:0:0:
402,192,37725,128,0,37838:0:0:0:0:
36,192,37951,128,0,38063:0:0:0:0:
329,192,37951,128,0,38063:0:0:0:0:
256,192,38007,128,0,38176:0:0:0:0:
475,192,38063,128,0,38233:0:0:0:0:
109,192,38176,128,0,38345:0:0:0:0:
329,192,38289,128,0,38402:0:0:0:0:
402,192,38345,128,0,38515:0:0:0:0:
36,192,38458,128,0,38627:0:0:0:0:
256,192,38515,128,0,38684:0:0:0:0:
475,192,38571,128,0,38684:0:0:0:0:
109,192,38684,128,0,38796:0:0:0:0:
36,192,38853,128,0,38966:0:0:0:0:
109,192,38909,128,0,39022:0:0:0:0:
402,192,38909,128,0,39022:0:0:0:0:
182,192,38966,128,0,39078:0:0:0:0:
475,192,38966,128,0,39078:0:0:0:0:
256,192,39022,128,0,39135:0:0:0:0:
402,192,39191,128,0,39304:0:0:0:0:
36,192,39191,128,0,39304:0:0:0:0:
329,192,39248,128,0,39360:0:0:0:0:
109,192,39248,128,0,39360:0:0:0:0:
256,192,39304,128,0,39417:0:0:0:0:
182,192,39360,128,0,39473:0:0:0:0:
329,192,39473,128,0,39586:0:0:0:0:
402,192,39530,128,0,39642:0:0:0:0:
36,192,39530,128,0,39699:0:0:0:0:
475,192,39586,128,0,39699:0:0:0:0:
109,192,39586,128,0,39755:0:0:0:0:
182,192,39642,128,0,39812:0:0:0:0:
256,192,39699,128,0,39868:0:0:0:0:
402,192,39868,128,0,39981:0:0:0:0:
329,192,39924,128,0,40037:0:0:0:0:
256,192,39981,128,0,40093:0:0:0:0:
182,192,40037,128,0,40150:0:0:0:0:
36,192,40150,128,0,40319:0:0:0:0:
402,192,40150,128,0,40263:0:0:0:0:
109,192,40263,128,0,40375:0:0:0:0:
182,192,40319,128,0,40432:0:0:0:0:
475,192,40375,128,0,40545:0:0:0:0:
402,192,40432,128,0,40601:0:0:0:0:
329,192,40488,128,0,40657:0:0:0:0:
256,192,40545,128,0,40714:0:0:0:0:
36,192,40601,128,0,40714:0:0:0:0:
109,192,40657,128,0,40770:0:0:0:0:
402,192,40827,128,0,40996:0:0:0:0:
329,192,40827,128,0,40939:0:0:0:0:
256,192,40883,128,0,41052:0:0:0:0:
182,192,40939,128,0,41109:0:0:0:0:
475,192,41052,128,0,41221:0:0:0:0:
36,192,41165,128,0,41334:0:0:0:0:
256,192,41221,128,0,41390:0:0:0:0:
182,192,41278,128,0,41447:0:0:0:0:
402,192,41278,128,0,41447:0:0:0:0:
109,192,41503,128,0,41672:0:0:0:0:
256,192,41560,128,0,41729:0:0:0:0:
475,192,41560,128,0,41729:0:0:0:0:
402,192,41785,128,0,41954:0:0:0:0:
182,192,41785,128,0,41898:0:0:0:0:
109,192,41898,128,0,42067:0:0:0:0:
256,192,41898,128,0,42011:0:0:0:0:
36,192,42011,128,0,42180:0:0:0:0:
329,192,42124,128,0,42293:0:0:0:0:
475,192,42180,128,0,42349:0:0:0:0:
256,192,42293,128,0,42462:0:0:0:0:
109,192,42349,128,0,42518:0:0:0:0:
475,192,42518,128,0,42687:0:0:0:0:
402,192,42575,128,0,42744:0:0:0:0:
256,192,42631,128,0,42800:0:0:0:0:
109,192,42687,128,0,42857:0:0:0:0:
36,192,42744,128,0,42913:0:0:0:0:
329,192,42857,128,0,43026:0:0:0:0:
475,192,42913,128,0,43082:0:0:0:0:
402,192,42969,128,0,43139:0:0:0:0:
256,192,43026,128,0,43195:0:0:0:0:
109,192,43082,128,0,43251:0:0:0:0:
36,192,43139,128,0,43308:0:0:0:0:
182,192,43195,128,0,43364:0:0:0:0:
329,192,43251,128,0,43421:0:0:0:0:
475,192,43308,128,0,43477:0:0:0:0:
109,192,43477,128,0,43590:0:0:0:0:
402,192,43533,128,0,43646:0:0:0:0:
256,192,43646,128,0,43815:0:0:0:0:
475,192,43646,128,0,43759:0:0:0:0:
36,192,43703,128,0,43815:0:0:0:0:
109,192,43872,128,0,44041:0:0:0:0:
256,192,43928,128,0,44097:0:0:0:0:
475,192,43928,128,0,44041:0:0:0:0:
36,192,44097,128,0,44210:0:0:0:0:
109,192,44154,128,0,44323:0:0:0:0:
256,192,44210,128,0,44379:0:0:0:0:
329,192,44323,128,0,44492:0:0:0:0:
475,192,44492,128,0,44661:0:0:0:0:
182,192,44548,128,0,44718:0:0:0:0:
36,192,44605,128,0,44774:0:0:0:0:
329,192,44718,128,0,44887:0:0:0:0:
475,192,44830,128,0,45056:0:0:0:0:
109,192,44887,128,0,45112:0:0:0:0:
256,192,44999,128,0,45169:0:0:0:0:
402,192,45169,128,0,45338:0:0:0:0:
109,192,45225,128,0,45451:0:0:0:0:
329,192,45281,128,0,45507:0:0:0:0:
475,192,45507,128,0,45789:0:0:0:0:
182,192,45563,128,0,45733:0:0:0:0:
36,192,45676,128,0,45902:0:0:0:0:
329,192,45789,128,0,46015:0:0:0:0:
182,192,45958,128,0,46127:0:0:0:0:
36,192,46127,128,0,46409:0:0:0:0:
402,192,46127,128,0,46296:0:0:0:0:
256,192,46353,128,0,46635:0:0:0:0:
109,192,46522,128,0,46691:0:0:0:0:
475,192,46578,128,0,46804:0:0:0:0:
329,192,46748,128,0,46973:0:0:0:0:
182,192,46804,128,0,46917:0:0:0:0:
36,192,46860,128,0,47086:0:0:0:0:
475,192,46973,128,0,47199:0:0:0:0:
256,192,47086,128,0,47255:0:0:0:0:
402,192,47142,128,0,47368:0:0:0:0:
182,192,47199,128,0,47312:0:0:0:0:
36,192,47255,128,0,47481:0:0:0:0:
256,192,47424,128,0,47593:0:0:0:0:
402,192,47481,128,0,47706:0:0:0:0:
109,192,47650,128,0,47819:0:0:0:0:
182,192,47763,128,0,47932:0:0:0:0:
329,192,47819,128,0,47988:0:0:0:0:
475,192,47875,128,0,48045:0:0:0:0:
36,192,47932,128,0,48157:0:0:0:0:
402,192,48101,128,0,48270:0:0:0:0:
182,192,48157,128,0,48327:0:0:0:0:
329,192,48214,128,0,48383:0:0:0:0:
256,192,48327,128,0,48496:0:0:0:0:
36,192,48383,128,0,48552:0:0:0:0:
402,192,48552,128,0,48721:0:0:0:0:
109,192,48609,128,0,48721:0:0:0:0:
256,192,48665,128,0,48890:0:0:0:0:
475,192,48665,128,0,48947:0:0:0:0:
36,192,48834,128,0,48947:0:0:0:0:
109,192,49849,128,0,49962:0:0:0:0:
402,192,49962,128,0,50075:0:0:0:0:
182,192,50075,128,0,50187:0:0:0:0:
329,192,50187,128,0,50300:0:0:0:0:
256,192,50300,128,0,50469:0:0:0:0:
36,192,50639,128,0,51090:0:0:0:0:
109,192,50639,128,0,50808:0:0:0:0:
182,192,50639,128,0,51203:0:0:0:0:
256,192,50639,128,0,50921:0:0:0:0:
475,192,50639,128,0,50808:0:0:0:0:
329,192,50751,128,0,50864:0:0:0:0:
402,192,50808,128,0,51033:0:0:0:0:
475,192,50921,128,0,51146:0:0:0:0:
109,192,50921,128,0,51259:0:0:0:0:
329,192,50977,128,0,51315:0:0:0:0:
256,192,51033,128,0,51315:0:0:0:0:
402,192,51146,128,0,51372:0:0:0:0:
36,192,51203,128,0,51541:0:0:0:0:
475,192,51259,128,0,51879:0:0:0:0:
182,192,51315,128,0,51484:0:0:0:0:
109,192,51372,128,0,51541:0:0:0:0:
329,192,51428,128,0,51710:0:0:0:0:
256,192,51428,128,0,51710:0:0:0:0:
402,192,51484,128,0,51654:0:0:0:0:
182,192,51654,128,0,52161:0:0:0:0:
109,192,51654,128,0,51766:0:0:0:0:
36,192,51654,128,0,52330:0:0:0:0:
402,192,51766,128,0,51936:0:0:0:0:
256,192,51823,128,0,52161:0:0:0:0:
329,192,51823,128,0,52274:0:0:0:0:
109,192,51879,128,0,52105:0:0:0:0:
475,192,51992,128,0,52330:0:0:0:0:
402,192,52048,128,0,52274:0:0:0:0:
182,192,52274,128,0,52781:0:0:0:0:
109,192,52274,128,0,52725:0:0:0:0:
256,192,52330,128,0,52556:0:0:0:0:
329,192,52387,128,0,52725:0:0:0:0:
402,192,52387,128,0,52838:0:0:0:0:
475,192,52443,128,0,52838:0:0:0:0:
36,192,52443,128,0,52725:0:0:0:0:
256,192,52669,128,0,52951:0:0:0:0:
36,192,52838,128,0,53345:0:0:0:0:
109,192,52838,128,0,53063:0:0:0:0:
329,192,52838,128,0,53458:0:0:0:0:
182,192,52894,128,0,53120:0:0:0:0:
475,192,52951,128,0,53289:0:0:0:0:
402,192,52951,128,0,53120:0:0:0:0:
256,192,53063,128,0,53345:0:0:0:0:
109,192,53120,128,0,53345:0:0:0:0:
182,192,53233,128,0,53740:0:0:0:0:
402,192,53233,128,0,53684:0:0:0:0:
475,192,53402,128,0,54135:0:0:0:0:
109,192,53458,128,0,53684:0:0:0:0:
36,192,53458,128,0,53740:0:0:0:0:
256,192,53458,128,0,53740:0:0:0:0:
329,192,53571,128,0,53684:0:0:0:0:
329,192,53796,128,0,53966:0:0:0:0:
402,192,53796,128,0,54360:0:0:0:0:
109,192,53796,128,0,54135:0:0:0:0:
182,192,53853,128,0,54304:0:0:0:0:
256,192,53853,128,0,54248:0:0:0:0:
36,192,53853,128,0,54530:0:0:0:0:
329,192,54078,128,0,54191:0:0:0:0:
475,192,54248,128,0,54642:0:0:0:0:
109,192,54248,128,0,54642:0:0:0:0:
329,192,54304,128,0,54586:0:0:0:0:
256,192,54360,128,0,54924:0:0:0:0:
182,192,54417,128,0,54530:0:0:0:0:
402,192,54530,128,0,55150:0:0:0:0:
36,192,54642,128,0,54868:0:0:0:0:
182,192,54642,128,0,55206:0:0:0:0:
329,192,54699,128,0,54868:0:0:0:0:
109,192,54747,128,0,55123:0:0:0:0:
475,192,54755,128,0,55037:0:0:0:0:
36,192,54981,128,0,55375:0:0:0:0:
329,192,54981,128,0,55150:0:0:0:0:
256,192,55037,128,0,55375:0:0:0:0:
475,192,55150,128,0,55488:0:0:0:0:
109,192,55263,128,0,55657:0:0:0:0:
402,192,55263,128,0,55432:0:0:0:0:
329,192,55263,128,0,55375:0:0:0:0:
182,192,55375,128,0,55601:0:0:0:0:
256,192,55488,128,0,55601:0:0:0:0:
329,192,55488,128,0,56052:0:0:0:0:
36,192,55488,128,0,56278:0:0:0:0:
402,192,55545,128,0,58139:0:0:0:0:
475,192,55601,128,0,55770:0:0:0:0:
182,192,55714,128,0,56052:0:0:0:0:
256,192,55770,128,0,55996:0:0:0:0:
109,192,55770,128,0,56616:0:0:0:0:
475,192,55883,128,0,56109:0:0:0:0:
256,192,56165,128,0,56616:0:0:0:0:
182,192,56165,128,0,56447:0:0:0:0:
329,192,56165,128,0,56785:0:0:0:0:
475,192,56221,128,0,56503:0:0:0:0:
36,192,56390,128,0,56898:0:0:0:0:
182,192,56560,128,0,56842:0:0:0:0:
475,192,56672,128,0,56954:0:0:0:0:
109,192,56729,128,0,57011:0:0:0:0:
256,192,56785,128,0,57067:0:0:0:0:
329,192,56898,128,0,57124:0:0:0:0:
182,192,56954,128,0,57124:0:0:0:0:
36,192,57011,128,0,57406:0:0:0:0:
475,192,57067,128,0,57349:0:0:0:0:
109,192,57124,128,0,57518:0:0:0:0:
256,192,57180,128,0,57462:0:0:0:0:
329,192,57236,128,0,57575:0:0:0:0:
182,192,57236,128,0,58082:0:0:0:0:
475,192,57462,128,0,57575:0:0:0:0:
36,192,57518,128,0,57969:0:0:0:0:
256,192,57575,128,0,57800:0:0:0:0:
109,192,57631,128,0,57800:0:0:0:0:
329,192,57687,128,0,58082:0:0:0:0:
475,192,57687,128,0,57800:0:0:0:0:
109,192,57913,128,0,58251:0:0:0:0:
256,192,57913,128,0,58533:0:0:0:0:
475,192,57913,128,0,58026:0:0:0:0:
36,192,58082,128,0,58421:0:0:0:0:
475,192,58139,128,0,59266:0:0:0:0:
182,192,58195,128,0,58815:0:0:0:0:
329,192,58195,128,0,59041:0:0:0:0:
402,192,58251,128,0,58533:0:0:0:0:
109,192,58364,128,0,58703:0:0:0:0:
36,192,58533,128,0,58646:0:0:0:0:
256,192,58646,128,0,58928:0:0:0:0:
402,192,58646,128,0,59154:0:0:0:0:
36,192,58815,128,0,59097:0:0:0:0:
109,192,58872,128,0,59436:0:0:0:0:
182,192,58984,128,0,59266:0:0:0:0:
256,192,59097,128,0,59661:0:0:0:0:
329,192,59210,128,0,59379:0:0:0:0:
36,192,59210,128,0,59436:0:0:0:0:
402,192,59323,128,0,59661:0:0:0:0:
182,192,59379,128,0,60056:0:0:0:0:
475,192,59436,128,0,59943:0:0:0:0:
329,192,59492,128,0,59887:0:0:0:0:
36,192,59548,128,0,59943:0:0:0:0:
109,192,59548,128,0,59774:0:0:0:0:
256,192,59774,128,0,60056:0:0:0:0:
402,192,59774,128,0,60338:0:0:0:0:
109,192,59887,128,0,60338:0:0:0:0:
329,192,59999,128,0,60281:0:0:0:0:
475,192,60056,128,0,60733:0:0:0:0:
36,192,60112,128,0,60394:0:0:0:0:
182,192,60169,128,0,60451:0:0:0:0:
256,192,60338,128,0,60507:0:0:0:0:
329,192,60394,128,0,60507:0:0:0:0:
109,192,60451,128,0,60733:0:0:0:0:
402,192,60451,128,0,61071:0:0:0:0:
36,192,60563,128,0,60845:0:0:0:0:
182,192,60620,128,0,60845:0:0:0:0:
329,192,60620,128,0,61015:0:0:0:0:
256,192,60620,128,0,61015:0:0:0:0:
109,192,60845,128,0,61522:0:0:0:0:
475,192,60902,128,0,61409:0:0:0:0:
36,192,60958,128,0,61522:0:0:0:0:
182,192,61015,128,0,61409:0:0:0:0:
329,192,61127,128,0,61353:0:0:0:0:
256,192,61127,128,0,61691:0:0:0:0:
402,192,61184,128,0,61522:0:0:0:0:
329,192,61466,128,0,61973:0:0:0:0:
182,192,61522,128,0,61748:0:0:0:0:
475,192,61522,128,0,61748:0:0:0:0:
36,192,61635,128,0,62030:0:0:0:0:
402,192,61635,128,0,61917:0:0:0:0:
109,192,61691,128,0,61973:0:0:0:0:
256,192,61804,128,0,62030:0:0:0:0:
182,192,61860,128,0,62368:0:0:0:0:
475,192,61860,128,0,62142:0:0:0:0:
402,192,62030,128,0,62255:0:0:0:0:
329,192,62086,128,0,62255:0:0:0:0:
109,192,62086,128,0,62537:0:0:0:0:
256,192,62142,128,0,62593:0:0:0:0:
36,192,62142,128,0,62593:0:0:0:0:
475,192,62255,128,0,62706:0:0:0:0:
329,192,62368,128,0,62763:0:0:0:0:
182,192,62481,128,0,62819:0:0:0:0:
402,192,62481,128,0,62875:0:0:0:0:
109,192,62650,128,0,63045:0:0:0:0:
256,192,62706,128,0,65131:0:0:0:0:
36,192,62763,128,0,62988:0:0:0:0:
475,192,62819,128,0,63383:0:0:0:0:
329,192,62875,128,0,63439:0:0:0:0:
182,192,62932,128,0,63270:0:0:0:0:
402,192,63045,128,0,63665:0:0:0:0:
36,192,63157,128,0,63439:0:0:0:0:
109,192,63214,128,0,63665:0:0:0:0:
182,192,63383,128,0,63947:0:0:0:0:
36,192,63552,128,0,63778:0:0:0:0:
329,192,63552,128,0,64060:0:0:0:0:
475,192,63552,128,0,63834:0:0:0:0:
402,192,63778,128,0,64398:0:0:0:0:
109,192,63834,128,0,64003:0:0:0:0:
36,192,63890,128,0,64567:0:0:0:0:
475,192,63947,128,0,64229:0:0:0:0:
109,192,64116,128,0,64511:0:0:0:0:
182,192,64116,128,0,64680:0:0:0:0:
329,192,64172,128,0,64398:0:0:0:0:
475,192,64342,128,0,64793:0:0:0:0:
329,192,64511,128,0,65018:0:0:0:0:
402,192,64511,128,0,64680:0:0:0:0:
109,192,64624,128,0,64906:0:0:0:0:
36,192,64680,128,0,65018:0:0:0:0:
182,192,64793,128,0,64962:0:0:0:0:
402,192,64793,128,0,65131:0:0:0:0:
475,192,64906,128,0,65131:0:0:0:0:
109,192,65018,128,0,65131:0:0:0:0:
475,192,65413,1,0,0:0:0:0:
329,192,65413,1,0,0:0:0:0:
182,192,65413,1,0,0:0:0:0:
109,192,65639,1,0,0:0:0:0:
256,192,65639,1,0,0:0:0:0:
402,192,65639,1,0,0:0:0:0:
329,192,65864,1,0,0:0:0:0:
182,192,65864,1,0,0:0:0:0:
36,192,65864,1,0,0:0:0:0:
329,192,66541,1,0,0:0:0:0:
182,192,66541,1,0,0:0:0:0:
36,192,66541,1,0,0:0:0:0:
475,192,66766,1,0,0:0:0:0:
182,192,66766,1,0,0:0:0:0:
329,192,66766,1,0,0:0:0:0:
402,192,67218,1,0,0:0:0:0:
475,192,67218,1,0,0:0:0:0:
329,192,67218,1,0,0:0:0:0:
182,192,67443,1,0,0:0:0:0:
109,192,67443,1,0,0:0:0:0:
36,192,67443,1,0,0:0:0:0:
402,192,67669,1,0,0:0:0:0:
475,192,67669,1,0,0:0:0:0:
329,192,67669,1,0,0:0:0:0:
182,192,67894,1,0,0:0:0:0:
109,192,67894,1,0,0:0:0:0:
36,192,67894,1,0,0:0:0:0:
402,192,68120,1,0,0:0:0:0:
475,192,68120,1,0,0:0:0:0:
329,192,68120,1,0,0:0:0:0:
182,192,68345,1,0,0:0:0:0:
109,192,68345,1,0,0:0:0:0:
36,192,68345,1,0,0:0:0:0:
182,192,69022,1,0,0:0:0:0:
329,192,69022,1,0,0:0:0:0:
36,192,69022,1,0,0:0:0:0:
402,192,69248,1,0,0:0:0:0:
256,192,69248,1,0,0:0:0:0:
109,192,69248,1,0,0:0:0:0:
329,192,69473,1,0,0:0:0:0:
182,192,69473,1,0,0:0:0:0:
475,192,69473,1,0,0:0:0:0:
36,192,70375,128,0,70601:0:0:0:0:
109,192,70432,128,0,70657:0:0:0:0:
182,192,70488,128,0,70714:0:0:0:0:
256,192,70545,128,0,70770:0:0:0:0:
329,192,70601,128,0,70827:0:0:0:0:
402,192,70657,128,0,70883:0:0:0:0:
475,192,70714,128,0,71165:0:0:0:0:
402,192,70996,128,0,71221:0:0:0:0:
329,192,71052,128,0,71278:0:0:0:0:
256,192,71109,128,0,71334:0:0:0:0:
182,192,71165,128,0,71390:0:0:0:0:
109,192,71221,128,0,71447:0:0:0:0:
36,192,71278,128,0,71729:0:0:0:0:
109,192,71560,128,0,71785:0:0:0:0:
182,192,71616,128,0,71842:0:0:0:0:
256,192,71672,128,0,71898:0:0:0:0:
329,192,71729,128,0,71954:0:0:0:0:
402,192,71785,128,0,72011:0:0:0:0:
475,192,71842,128,0,72293:0:0:0:0:
402,192,72124,128,0,72349:0:0:0:0:
329,192,72180,128,0,72406:0:0:0:0:
256,192,72236,128,0,72462:0:0:0:0:
182,192,72293,128,0,72518:0:0:0:0:
109,192,72349,128,0,72575:0:0:0:0:
36,192,72349,128,0,72631:0:0:0:0:
475,192,72631,1,0,0:0:0:0:
329,192,72631,1,0,0:0:0:0:
256,192,72631,1,0,0:0:0:0:
475,192,72744,1,0,0:0:0:0:
182,192,72744,1,0,0:0:0:0:
36,192,72744,1,0,0:0:0:0:
182,192,72857,1,0,0:0:0:0:
329,192,72857,1,0,0:0:0:0:
36,192,72857,1,0,0:0:0:0:
109,192,72969,1,0,0:0:0:0:
256,192,72969,1,0,0:0:0:0:
402,192,72969,1,0,0:0:0:0:
475,192,73082,1,0,0:0:0:0:
329,192,73082,1,0,0:0:0:0:
256,192,73082,1,0,0:0:0:0:
36,192,73195,1,0,0:0:0:0:
182,192,73195,1,0,0:0:0:0:
329,192,73195,1,0,0:0:0:0:
402,192,73308,1,0,0:0:0:0:
256,192,73308,1,0,0:0:0:0:
109,192,73308,1,0,0:0:0:0:
36,192,73421,1,0,0:0:0:0:
109,192,73421,1,0,0:0:0:0:
182,192,73421,1,0,0:0:0:0:
329,192,73533,1,0,0:0:0:0:
256,192,73533,1,0,0:0:0:0:
475,192,73533,1,0,0:0:0:0:
36,192,73646,1,0,0:0:0:0:
256,192,73646,1,0,0:0:0:0:
402,192,73646,1,0,0:0:0:0:
36,192,73759,1,0,0:0:0:0:
256,192,73759,1,0,0:0:0:0:
109,192,73759,1,0,0:0:0:0:
475,192,73872,1,0,0:0:0:0:
109,192,73872,1,0,0:0:0:0:
329,192,73872,1,0,0:0:0:0:
402,192,73984,1,0,0:0:0:0:
256,192,73984,1,0,0:0:0:0:
36,192,73984,1,0,0:0:0:0:
36,192,74097,1,0,0:0:0:0:
329,192,74097,1,0,0:0:0:0:
109,192,74097,1,0,0:0:0:0:
402,192,74210,1,0,0:0:0:0:
109,192,74210,1,0,0:0:0:0:
256,192,74210,1,0,0:0:0:0:
475,192,74323,1,0,0:0:0:0:
329,192,74323,1,0,0:0:0:0:
36,192,74323,1,0,0:0:0:0:
182,192,74436,1,0,0:0:0:0:
256,192,74436,1,0,0:0:0:0:
329,192,74436,1,0,0:0:0:0:
402,192,74548,1,0,0:0:0:0:
109,192,74548,1,0,0:0:0:0:
256,192,74548,1,0,0:0:0:0:
36,192,74661,1,0,0:0:0:0:
256,192,74661,1,0,0:0:0:0:
475,192,74661,1,0,0:0:0:0:
402,192,74774,1,0,0:0:0:0:
182,192,74774,1,0,0:0:0:0:
109,192,74774,1,0,0:0:0:0:
329,192,74887,1,0,0:0:0:0:
36,192,74887,1,0,0:0:0:0:
182,192,74887,1,0,0:0:0:0:
256,192,74999,1,0,0:0:0:0:
475,192,74999,1,0,0:0:0:0:
402,192,74999,1,0,0:0:0:0:
182,192,75112,1,0,0:0:0:0:
475,192,75112,1,0,0:0:0:0:
329,192,75112,1,0,0:0:0:0:
109,192,75225,1,0,0:0:0:0:
256,192,75225,1,0,0:0:0:0:
402,192,75225,1,0,0:0:0:0:
36,192,75338,1,0,0:0:0:0:
475,192,75338,1,0,0:0:0:0:
402,192,75338,1,0,0:0:0:0:
182,192,75451,1,0,0:0:0:0:
256,192,75451,1,0,0:0:0:0:
329,192,75451,1,0,0:0:0:0:
109,192,75563,1,0,0:0:0:0:
256,192,75563,1,0,0:0:0:0:
402,192,75563,1,0,0:0:0:0:
475,192,75676,1,0,0:0:0:0:
256,192,75676,1,0,0:0:0:0:
36,192,75676,1,0,0:0:0:0:
109,192,75789,1,0,0:0:0:0:
182,192,75789,1,0,0:0:0:0:
402,192,75789,1,0,0:0:0:0:
475,192,75902,1,0,0:0:0:0:
329,192,75902,1,0,0:0:0:0:
36,192,75902,1,0,0:0:0:0:
109,192,76015,1,0,0:0:0:0:
402,192,76015,1,0,0:0:0:0:
182,192,76015,1,0,0:0:0:0:
256,192,76127,1,0,0:0:0:0:
475,192,76127,1,0,0:0:0:0:
36,192,76127,1,0,0:0:0:0:
329,192,76240,1,0,0:0:0:0:
475,192,76240,1,0,0:0:0:0:
182,192,76240,1,0,0:0:0:0:
256,192,76353,1,0,0:0:0:0:
109,192,76353,1,0,0:0:0:0:
36,192,76353,1,0,0:0:0:0:
402,192,76466,1,0,0:0:0:0:
329,192,76466,1,0,0:0:0:0:
182,192,76466,1,0,0:0:0:0:
109,192,76578,1,0,0:0:0:0:
256,192,76578,1,0,0:0:0:0:
402,192,76578,1,0,0:0:0:0:
182,192,76691,1,0,0:0:0:0:
109,192,76691,1,0,0:0:0:0:
475,192,76691,1,0,0:0:0:0:
402,192,76804,1,0,0:0:0:0:
256,192,76804,1,0,0:0:0:0:
36,192,76804,1,0,0:0:0:0:
475,192,76917,1,0,0:0:0:0:
36,192,76917,1,0,0:0:0:0:
109,192,76917,1,0,0:0:0:0:
402,192,77030,1,0,0:0:0:0:
256,192,77030,1,0,0:0:0:0:
36,192,77030,1,0,0:0:0:0:
475,192,77142,1,0,0:0:0:0:
182,192,77142,1,0,0:0:0:0:
256,192,77142,1,0,0:0:0:0:
36,192,77255,1,0,0:0:0:0:
329,192,77255,1,0,0:0:0:0:
182,192,77255,1,0,0:0:0:0:
402,192,77368,1,0,0:0:0:0:
109,192,77368,1,0,0:0:0:0:
36,192,77368,1,0,0:0:0:0:
475,192,77481,1,0,0:0:0:0:
256,192,77481,1,0,0:0:0:0:
36,192,77481,1,0,0:0:0:0:
402,192,77593,1,0,0:0:0:0:
329,192,77593,1,0,0:0:0:0:
109,192,77593,1,0,0:0:0:0:
256,192,77706,1,0,0:0:0:0:
36,192,77706,1,0,0:0:0:0:
402,192,77706,1,0,0:0:0:0:
475,192,77819,1,0,0:0:0:0:
36,192,77819,1,0,0:0:0:0:
182,192,77819,1,0,0:0:0:0:
402,192,77932,1,0,0:0:0:0:
329,192,77932,1,0,0:0:0:0:
256,192,77932,1,0,0:0:0:0:
36,192,78045,1,0,0:0:0:0:
109,192,78045,1,0,0:0:0:0:
475,192,78045,1,0,0:0:0:0:
329,192,78157,1,0,0:0:0:0:
182,192,78157,1,0,0:0:0:0:
36,192,78157,1,0,0:0:0:0:
402,192,78270,1,0,0:0:0:0:
256,192,78270,1,0,0:0:0:0:
475,192,78270,1,0,0:0:0:0:
329,192,78383,1,0,0:0:0:0:
36,192,78383,1,0,0:0:0:0:
109,192,78383,1,0,0:0:0:0:
256,192,78496,1,0,0:0:0:0:
36,192,78496,1,0,0:0:0:0:
475,192,78496,1,0,0:0:0:0:
402,192,78609,1,0,0:0:0:0:
182,192,78609,1,0,0:0:0:0:
36,192,78609,1,0,0:0:0:0:
256,192,78721,1,0,0:0:0:0:
329,192,78721,1,0,0:0:0:0:
109,192,78721,1,0,0:0:0:0:
402,192,78834,1,0,0:0:0:0:
475,192,78834,1,0,0:0:0:0:
182,192,78834,1,0,0:0:0:0:
36,192,78947,1,0,0:0:0:0:
256,192,78947,1,0,0:0:0:0:
402,192,78947,1,0,0:0:0:0:
109,192,79060,1,0,0:0:0:0:
256,192,79060,1,0,0:0:0:0:
475,192,79060,1,0,0:0:0:0:
329,192,79172,1,0,0:0:0:0:
182,192,79172,1,0,0:0:0:0:
256,192,79172,1,0,0:0:0:0:
402,192,79285,1,0,0:0:0:0:
182,192,79285,1,0,0:0:0:0:
36,192,79285,1,0,0:0:0:0:
109,192,79398,1,0,0:0:0:0:
475,192,79398,1,0,0:0:0:0:
256,192,79398,1,0,0:0:0:0:
402,192,79511,1,0,0:0:0:0:
329,192,79511,1,0,0:0:0:0:
36,192,79511,1,0,0:0:0:0:
475,192,79624,1,0,0:0:0:0:
109,192,79624,1,0,0:0:0:0:
256,192,79624,1,0,0:0:0:0:
402,192,79736,1,0,0:0:0:0:
182,192,79736,1,0,0:0:0:0:
36,192,79736,1,0,0:0:0:0:
256,192,79849,1,0,0:0:0:0:
329,192,79849,1,0,0:0:0:0:
109,192,79849,1,0,0:0:0:0:
475,192,79962,1,0,0:0:0:0:
256,192,79962,1,0,0:0:0:0:
36,192,79962,1,0,0:0:0:0:
402,192,80075,1,0,0:0:0:0:
109,192,80075,1,0,0:0:0:0:
256,192,80075,1,0,0:0:0:0:
329,192,80187,1,0,0:0:0:0:
475,192,80187,1,0,0:0:0:0:
182,192,80187,1,0,0:0:0:0:
36,192,80300,1,0,0:0:0:0:
109,192,80300,1,0,0:0:0:0:
329,192,80300,1,0,0:0:0:0:
256,192,80413,1,0,0:0:0:0:
475,192,80413,1,0,0:0:0:0:
109,192,80413,1,0,0:0:0:0:
182,192,80526,1,0,0:0:0:0:
329,192,80526,1,0,0:0:0:0:
475,192,80526,1,0,0:0:0:0:
402,192,80639,1,0,0:0:0:0:
256,192,80639,1,0,0:0:0:0:
36,192,80639,1,0,0:0:0:0:
182,192,80751,1,0,0:0:0:0:
36,192,80751,1,0,0:0:0:0:
329,192,80751,1,0,0:0:0:0:
475,192,80864,1,0,0:0:0:0:
256,192,80864,1,0,0:0:0:0:
109,192,80864,1,0,0:0:0:0:
402,192,80977,1,0,0:0:0:0:
329,192,80977,1,0,0:0:0:0:
36,192,80977,1,0,0:0:0:0:
475,192,81090,1,0,0:0:0:0:
329,192,81090,1,0,0:0:0:0:
109,192,81090,1,0,0:0:0:0:
329,192,81203,1,0,0:0:0:0:
182,192,81203,1,0,0:0:0:0:
36,192,81203,1,0,0:0:0:0:
475,192,81315,1,0,0:0:0:0:
256,192,81315,1,0,0:0:0:0:
109,192,81315,1,0,0:0:0:0:
402,192,81428,1,0,0:0:0:0:
329,192,81428,1,0,0:0:0:0:
36,192,81428,1,0,0:0:0:0:
36,192,81541,1,0,0:0:0:0:
182,192,81541,1,0,0:0:0:0:
475,192,81541,1,0,0:0:0:0:
329,192,81654,1,0,0:0:0:0:
109,192,81654,1,0,0:0:0:0:
475,192,81654,1,0,0:0:0:0:
182,192,81766,1,0,0:0:0:0:
402,192,81766,1,0,0:0:0:0:
36,192,81766,1,0,0:0:0:0:
256,192,81879,1,0,0:0:0:0:
475,192,81879,1,0,0:0:0:0:
36,192,81879,1,0,0:0:0:0:
402,192,81992,1,0,0:0:0:0:
329,192,81992,1,0,0:0:0:0:
109,192,81992,1,0,0:0:0:0:
182,192,82105,1,0,0:0:0:0:
475,192,82105,1,0,0:0:0:0:
36,192,82105,1,0,0:0:0:0:
109,192,82218,1,0,0:0:0:0:
256,192,82218,1,0,0:0:0:0:
402,192,82218,1,0,0:0:0:0:
329,192,82330,1,0,0:0:0:0:
475,192,82330,1,0,0:0:0:0:
182,192,82330,1,0,0:0:0:0:
36,192,82443,1,0,0:0:0:0:
256,192,82443,1,0,0:0:0:0:
402,192,82443,1,0,0:0:0:0:
402,192,82556,1,0,0:0:0:0:
475,192,82556,1,0,0:0:0:0:
182,192,82556,1,0,0:0:0:0:
36,192,82669,1,0,0:0:0:0:
109,192,82669,1,0,0:0:0:0:
329,192,82669,1,0,0:0:0:0:
402,192,82781,1,0,0:0:0:0:
182,192,82781,1,0,0:0:0:0:
36,192,82781,1,0,0:0:0:0:
402,192,82894,1,0,0:0:0:0:
475,192,82894,1,0,0:0:0:0:
256,192,82894,1,0,0:0:0:0:
329,192,83007,1,0,0:0:0:0:
109,192,83007,1,0,0:0:0:0:
475,192,83007,1,0,0:0:0:0:
329,192,83120,1,0,0:0:0:0:
256,192,83120,1,0,0:0:0:0:
182,192,83120,1,0,0:0:0:0:
36,192,83233,1,0,0:0:0:0:
109,192,83233,1,0,0:0:0:0:
475,192,83233,1,0,0:0:0:0:
402,192,83345,1,0,0:0:0:0:
256,192,83345,1,0,0:0:0:0:
36,192,83345,1,0,0:0:0:0:
475,192,83458,1,0,0:0:0:0:
256,192,83458,1,0,0:0:0:0:
109,192,83458,1,0,0:0:0:0:
182,192,83571,1,0,0:0:0:0:
329,192,83571,1,0,0:0:0:0:
475,192,83571,1,0,0:0:0:0:
36,192,83684,1,0,0:0:0:0:
109,192,83684,1,0,0:0:0:0:
402,192,83684,1,0,0:0:0:0:
256,192,83796,1,0,0:0:0:0:
329,192,83796,1,0,0:0:0:0:
36,192,83796,1,0,0:0:0:0:
475,192,83909,1,0,0:0:0:0:
256,192,83909,1,0,0:0:0:0:
109,192,83909,1,0,0:0:0:0:
402,192,84022,1,0,0:0:0:0:
182,192,84022,1,0,0:0:0:0:
36,192,84022,1,0,0:0:0:0:
256,192,84135,1,0,0:0:0:0:
475,192,84135,1,0,0:0:0:0:
182,192,84135,1,0,0:0:0:0:
36,192,84248,1,0,0:0:0:0:
256,192,84248,1,0,0:0:0:0:
475,192,84248,1,0,0:0:0:0:
329,192,84360,1,0,0:0:0:0:
109,192,84360,1,0,0:0:0:0:
182,192,84360,1,0,0:0:0:0:
475,192,84473,1,0,0:0:0:0:
256,192,84473,1,0,0:0:0:0:
36,192,84473,1,0,0:0:0:0:
329,192,84586,1,0,0:0:0:0:
475,192,84586,1,0,0:0:0:0:
182,192,84586,1,0,0:0:0:0:
402,192,84699,1,0,0:0:0:0:
36,192,84699,1,0,0:0:0:0:
256,192,84699,1,0,0:0:0:0:
109,192,84812,1,0,0:0:0:0:
182,192,84812,1,0,0:0:0:0:
329,192,84812,1,0,0:0:0:0:
475,192,84924,1,0,0:0:0:0:
402,192,84924,1,0,0:0:0:0:
256,192,84924,1,0,0:0:0:0:
36,192,85037,1,0,0:0:0:0:
182,192,85037,1,0,0:0:0:0:
329,192,85037,1,0,0:0:0:0:
109,192,85150,1,0,0:0:0:0:
182,192,85150,1,0,0:0:0:0:
402,192,85150,1,0,0:0:0:0:
329,192,85263,1,0,0:0:0:0:
256,192,85263,1,0,0:0:0:0:
182,192,85263,1,0,0:0:0:0:
402,192,85375,5,0,0:0:0:0:
109,192,85375,1,0,0:0:0:0:
256,192,85375,1,0,0:0:0:0:
475,192,85488,5,0,0:0:0:0:
256,192,85488,1,0,0:0:0:0:
36,192,85488,1,0,0:0:0:0:
109,192,85601,1,0,0:0:0:0:
402,192,85601,1,0,0:0:0:0:
329,192,85601,1,0,0:0:0:0:
475,192,85714,1,0,0:0:0:0:
329,192,85714,1,0,0:0:0:0:
36,192,85714,1,0,0:0:0:0:
182,192,85827,1,0,0:0:0:0:
109,192,85827,1,0,0:0:0:0:
402,192,85827,1,0,0:0:0:0:
329,192,85939,1,0,0:0:0:0:
36,192,85939,1,0,0:0:0:0:
182,192,85939,1,0,0:0:0:0:
256,192,86052,1,0,0:0:0:0:
402,192,86052,1,0,0:0:0:0:
475,192,86052,1,0,0:0:0:0:
182,192,86165,1,0,0:0:0:0:
36,192,86165,1,0,0:0:0:0:
402,192,86165,1,0,0:0:0:0:
329,192,86278,1,0,0:0:0:0:
475,192,86278,1,0,0:0:0:0:
109,192,86278,1,0,0:0:0:0:
182,192,86390,1,0,0:0:0:0:
329,192,86390,1,0,0:0:0:0:
402,192,86390,1,0,0:0:0:0:
36,192,86503,1,0,0:0:0:0:
256,192,86503,1,0,0:0:0:0:
475,192,86503,1,0,0:0:0:0:
402,192,86616,1,0,0:0:0:0:
256,192,86616,1,0,0:0:0:0:
109,192,86616,1,0,0:0:0:0:
36,192,86729,1,0,0:0:0:0:
256,192,86729,1,0,0:0:0:0:
475,192,86729,1,0,0:0:0:0:
329,192,86842,128,0,87011:0:0:0:0:
182,192,86954,128,0,87124:0:0:0:0:
36,192,86954,128,0,87067:0:0:0:0:
402,192,87067,128,0,87236:0:0:0:0:
256,192,87236,128,0,87349:0:0:0:0:
182,192,87349,128,0,87462:0:0:0:0:
475,192,87349,128,0,87518:0:0:0:0:
329,192,87462,128,0,87575:0:0:0:0:
182,192,87575,128,0,87687:0:0:0:0:
402,192,87631,128,0,87744:0:0:0:0:
36,192,87631,128,0,87800:0:0:0:0:
256,192,87800,128,0,87913:0:0:0:0:
475,192,87857,128,0,88026:0:0:0:0:
329,192,87969,128,0,88082:0:0:0:0:
109,192,87969,128,0,88139:0:0:0:0:
256,192,88251,128,0,88421:0:0:0:0:
475,192,88308,128,0,88421:0:0:0:0:
109,192,88364,128,0,88477:0:0:0:0:
329,192,88421,128,0,88590:0:0:0:0:
475,192,88590,128,0,88703:0:0:0:0:
256,192,88646,128,0,88815:0:0:0:0:
36,192,88703,128,0,88872:0:0:0:0:
402,192,88815,128,0,88984:0:0:0:0:
329,192,88872,128,0,89041:0:0:0:0:
109,192,88984,128,0,89154:0:0:0:0:
475,192,89097,128,0,89266:0:0:0:0:
256,192,89154,128,0,89323:0:0:0:0:
182,192,89266,128,0,89436:0:0:0:0:
402,192,89323,128,0,89436:0:0:0:0:
475,192,89492,128,0,89605:0:0:0:0:
402,192,89548,128,0,89661:0:0:0:0:
109,192,89548,128,0,89661:0:0:0:0:
329,192,89605,128,0,89718:0:0:0:0:
36,192,89605,128,0,89718:0:0:0:0:
256,192,89661,128,0,89774:0:0:0:0:
109,192,89830,128,0,89943:0:0:0:0:
475,192,89830,128,0,89943:0:0:0:0:
182,192,89887,128,0,89999:0:0:0:0:
402,192,89887,128,0,89999:0:0:0:0:
256,192,89943,128,0,90056:0:0:0:0:
329,192,89999,128,0,90112:0:0:0:0:
182,192,90112,128,0,90225:0:0:0:0:
109,192,90169,128,0,90281:0:0:0:0:
475,192,90169,128,0,90338:0:0:0:0:
36,192,90225,128,0,90338:0:0:0:0:
402,192,90225,128,0,90394:0:0:0:0:
329,192,90281,128,0,90451:0:0:0:0:
256,192,90338,128,0,90507:0:0:0:0:
109,192,90507,128,0,90620:0:0:0:0:
182,192,90563,128,0,90676:0:0:0:0:
256,192,90620,128,0,90733:0:0:0:0:
329,192,90676,128,0,90789:0:0:0:0:
475,192,90789,128,0,90958:0:0:0:0:
109,192,90789,128,0,90902:0:0:0:0:
402,192,90902,128,0,91015:0:0:0:0:
329,192,90958,128,0,91071:0:0:0:0:
36,192,91015,128,0,91184:0:0:0:0:
109,192,91071,128,0,91240:0:0:0:0:
182,192,91127,128,0,91296:0:0:0:0:
256,192,91184,128,0,91353:0:0:0:0:
475,192,91240,128,0,91353:0:0:0:0:
402,192,91296,128,0,91409:0:0:0:0:
109,192,91466,128,0,91635:0:0:0:0:
182,192,91466,128,0,91578:0:0:0:0:
256,192,91522,128,0,91691:0:0:0:0:
329,192,91578,128,0,91748:0:0:0:0:
36,192,91691,128,0,91860:0:0:0:0:
475,192,91804,128,0,91973:0:0:0:0:
256,192,91860,128,0,92030:0:0:0:0:
329,192,91917,128,0,92086:0:0:0:0:
109,192,91917,128,0,92086:0:0:0:0:
182,192,92086,128,0,92255:0:0:0:0:
402,192,92142,128,0,92312:0:0:0:0:
475,192,92199,128,0,92424:0:0:0:0:
256,192,92199,128,0,92368:0:0:0:0:
36,192,92199,128,0,92368:0:0:0:0:
109,192,92424,128,0,92593:0:0:0:0:
329,192,92424,128,0,92537:0:0:0:0:
402,192,92537,128,0,92706:0:0:0:0:
256,192,92537,128,0,92650:0:0:0:0:
475,192,92650,128,0,92819:0:0:0:0:
329,192,92706,128,0,92875:0:0:0:0:
182,192,92763,128,0,92932:0:0:0:0:
36,192,92819,128,0,92988:0:0:0:0:
109,192,92875,128,0,93045:0:0:0:0:
256,192,92932,128,0,93101:0:0:0:0:
402,192,92988,128,0,93157:0:0:0:0:
329,192,93045,128,0,93214:0:0:0:0:
182,192,93101,128,0,93270:0:0:0:0:
36,192,93157,128,0,93327:0:0:0:0:
109,192,93214,128,0,93383:0:0:0:0:
256,192,93270,128,0,93439:0:0:0:0:
402,192,93327,128,0,93496:0:0:0:0:
475,192,93383,128,0,93552:0:0:0:0:
329,192,93439,128,0,93609:0:0:0:0:
182,192,93496,128,0,93665:0:0:0:0:
36,192,93552,128,0,93721:0:0:0:0:
109,192,93609,128,0,93778:0:0:0:0:
256,192,93665,128,0,93834:0:0:0:0:
402,192,93721,128,0,93890:0:0:0:0:
475,192,93778,128,0,93947:0:0:0:0:
329,192,93834,128,0,94003:0:0:0:0:
182,192,93890,128,0,94060:0:0:0:0:
36,192,93947,128,0,94116:0:0:0:0:
256,192,94003,128,0,94172:0:0:0:0:
402,192,94116,128,0,94229:0:0:0:0:
109,192,94172,128,0,94285:0:0:0:0:
256,192,94285,128,0,94454:0:0:0:0:
36,192,94285,128,0,94398:0:0:0:0:
475,192,94342,128,0,94454:0:0:0:0:
329,192,94342,128,0,94511:0:0:0:0:
182,192,94398,128,0,94511:0:0:0:0:
402,192,94511,128,0,94680:0:0:0:0:
256,192,94567,128,0,94736:0:0:0:0:
36,192,94567,128,0,94680:0:0:0:0:
182,192,94680,128,0,94849:0:0:0:0:
475,192,94736,128,0,94849:0:0:0:0:
402,192,94793,128,0,94962:0:0:0:0:
256,192,94849,128,0,95018:0:0:0:0:
36,192,94849,128,0,94962:0:0:0:0:
182,192,94962,128,0,95131:0:0:0:0:
36,192,95131,128,0,95300:0:0:0:0:
329,192,95187,128,0,95357:0:0:0:0:
475,192,95244,128,0,95413:0:0:0:0:
182,192,95357,128,0,95526:0:0:0:0:
36,192,95469,128,0,95695:0:0:0:0:
402,192,95526,128,0,95751:0:0:0:0:
256,192,95639,128,0,95808:0:0:0:0:
109,192,95808,128,0,95977:0:0:0:0:
402,192,95864,128,0,96090:0:0:0:0:
182,192,95921,128,0,96146:0:0:0:0:
36,192,96146,128,0,96428:0:0:0:0:
329,192,96203,128,0,96372:0:0:0:0:
475,192,96315,128,0,96541:0:0:0:0:
182,192,96428,128,0,96654:0:0:0:0:
329,192,96597,128,0,96766:0:0:0:0:
475,192,96766,128,0,97048:0:0:0:0:
109,192,96766,128,0,96936:0:0:0:0:
256,192,96992,128,0,97274:0:0:0:0:
402,192,97161,128,0,97330:0:0:0:0:
36,192,97218,128,0,97443:0:0:0:0:
182,192,97387,128,0,97612:0:0:0:0:
329,192,97443,128,0,97556:0:0:0:0:
475,192,97499,128,0,97725:0:0:0:0:
36,192,97612,128,0,97838:0:0:0:0:
256,192,97725,128,0,97894:0:0:0:0:
109,192,97781,128,0,98007:0:0:0:0:
329,192,97838,128,0,97951:0:0:0:0:
475,192,97894,128,0,98120:0:0:0:0:
256,192,98063,128,0,98233:0:0:0:0:
109,192,98120,128,0,98345:0:0:0:0:
402,192,98289,128,0,98458:0:0:0:0:
329,192,98402,128,0,98571:0:0:0:0:
182,192,98458,128,0,98627:0:0:0:0:
36,192,98515,128,0,98684:0:0:0:0:
475,192,98571,128,0,98796:0:0:0:0:
109,192,98740,128,0,98909:0:0:0:0:
329,192,98796,128,0,98966:0:0:0:0:
182,192,98853,128,0,99022:0:0:0:0:
256,192,98966,128,0,99135:0:0:0:0:
475,192,99022,128,0,99191:0:0:0:0:
109,192,99191,128,0,99360:0:0:0:0:
402,192,99248,128,0,99360:0:0:0:0:
256,192,99304,128,0,99530:0:0:0:0:
36,192,99304,128,0,99586:0:0:0:0:
475,192,99473,128,0,99586:0:0:0:0:
402,192,100263,128,0,100375:0:0:0:0:
109,192,100375,128,0,100488:0:0:0:0:
329,192,100488,128,0,100601:0:0:0:0:
182,192,100601,128,0,100714:0:0:0:0:
256,192,100714,128,0,100883:0:0:0:0:
475,192,101165,128,0,101616:0:0:0:0:
402,192,101165,128,0,101334:0:0:0:0:
329,192,101165,128,0,101729:0:0:0:0:
256,192,101165,128,0,101447:0:0:0:0:
36,192,101165,128,0,101334:0:0:0:0:
182,192,101278,128,0,101390:0:0:0:0:
109,192,101334,128,0,101560:0:0:0:0:
36,192,101447,128,0,101672:0:0:0:0:
402,192,101447,128,0,101785:0:0:0:0:
182,192,101503,128,0,101842:0:0:0:0:
256,192,101560,128,0,101842:0:0:0:0:
109,192,101672,128,0,101898:0:0:0:0:
475,192,101729,128,0,102067:0:0:0:0:
36,192,101785,128,0,102406:0:0:0:0:
329,192,101842,128,0,102011:0:0:0:0:
402,192,101898,128,0,102067:0:0:0:0:
182,192,101954,128,0,102236:0:0:0:0:
256,192,101954,128,0,102236:0:0:0:0:
109,192,102011,128,0,102180:0:0:0:0:
329,192,102180,128,0,102687:0:0:0:0:
402,192,102180,128,0,102293:0:0:0:0:
475,192,102180,128,0,102857:0:0:0:0:
109,192,102293,128,0,102462:0:0:0:0:
256,192,102349,128,0,102687:0:0:0:0:
182,192,102349,128,0,102800:0:0:0:0:
402,192,102406,128,0,102631:0:0:0:0:
36,192,102518,128,0,102857:0:0:0:0:
109,192,102575,128,0,102800:0:0:0:0:
329,192,102800,128,0,103308:0:0:0:0:
402,192,102800,128,0,103251:0:0:0:0:
256,192,102857,128,0,103082:0:0:0:0:
182,192,102913,128,0,103251:0:0:0:0:
109,192,102913,128,0,103364:0:0:0:0:
36,192,102969,128,0,103364:0:0:0:0:
475,192,102969,128,0,103251:0:0:0:0:
256,192,103195,128,0,103477:0:0:0:0:
475,192,103364,128,0,103872:0:0:0:0:
402,192,103364,128,0,103590:0:0:0:0:
182,192,103364,128,0,103984:0:0:0:0:
329,192,103421,128,0,103646:0:0:0:0:
36,192,103477,128,0,103815:0:0:0:0:
109,192,103477,128,0,103646:0:0:0:0:
256,192,103590,128,0,103872:0:0:0:0:
402,192,103646,128,0,103872:0:0:0:0:
329,192,103759,128,0,104266:0:0:0:0:
109,192,103759,128,0,104210:0:0:0:0:
36,192,103928,128,0,104661:0:0:0:0:
402,192,103984,128,0,104210:0:0:0:0:
475,192,103984,128,0,104266:0:0:0:0:
256,192,103984,128,0,104266:0:0:0:0:
182,192,104097,128,0,104210:0:0:0:0:
182,192,104323,128,0,104492:0:0:0:0:
109,192,104323,128,0,104887:0:0:0:0:
402,192,104323,128,0,104661:0:0:0:0:
329,192,104379,128,0,104830:0:0:0:0:
256,192,104379,128,0,104774:0:0:0:0:
475,192,104379,128,0,105056:0:0:0:0:
182,192,104605,128,0,104718:0:0:0:0:
36,192,104774,128,0,105169:0:0:0:0:
402,192,104774,128,0,105169:0:0:0:0:
182,192,104830,128,0,105112:0:0:0:0:
256,192,104887,128,0,105451:0:0:0:0:
329,192,104943,128,0,105056:0:0:0:0:
109,192,105056,128,0,105676:0:0:0:0:
475,192,105169,128,0,105394:0:0:0:0:
329,192,105169,128,0,105733:0:0:0:0:
182,192,105225,128,0,105394:0:0:0:0:
402,192,105273,128,0,105648:0:0:0:0:
36,192,105281,128,0,105563:0:0:0:0:
475,192,105507,128,0,105902:0:0:0:0:
182,192,105507,128,0,105676:0:0:0:0:
256,192,105563,128,0,105902:0:0:0:0:
36,192,105676,128,0,106015:0:0:0:0:
402,192,105789,128,0,106184:0:0:0:0:
109,192,105789,128,0,105958:0:0:0:0:
182,192,105789,128,0,105902:0:0:0:0:
329,192,105902,128,0,106127:0:0:0:0:
256,192,106015,128,0,106127:0:0:0:0:
182,192,106015,128,0,106578:0:0:0:0:
475,192,106015,128,0,106804:0:0:0:0:
109,192,106071,128,0,108665:0:0:0:0:
36,192,106127,128,0,106296:0:0:0:0:
329,192,106240,128,0,106578:0:0:0:0:
256,192,106296,128,0,106522:0:0:0:0:
402,192,106296,128,0,107142:0:0:0:0:
36,192,106409,128,0,106635:0:0:0:0:
256,192,106691,128,0,107142:0:0:0:0:
329,192,106691,128,0,106973:0:0:0:0:
182,192,106691,128,0,107312:0:0:0:0:
36,192,106748,128,0,107030:0:0:0:0:
475,192,106917,128,0,107424:0:0:0:0:
329,192,107086,128,0,107368:0:0:0:0:
36,192,107199,128,0,107481:0:0:0:0:
402,192,107255,128,0,107537:0:0:0:0:
256,192,107312,128,0,107593:0:0:0:0:
182,192,107424,128,0,107650:0:0:0:0:
329,192,107481,128,0,107650:0:0:0:0:
475,192,107537,128,0,107932:0:0:0:0:
36,192,107593,128,0,107875:0:0:0:0:
402,192,107650,128,0,108045:0:0:0:0:
256,192,107706,128,0,107988:0:0:0:0:
182,192,107763,128,0,108101:0:0:0:0:
329,192,107763,128,0,108609:0:0:0:0:
36,192,107988,128,0,108101:0:0:0:0:
475,192,108045,128,0,108496:0:0:0:0:
256,192,108101,128,0,108327:0:0:0:0:
402,192,108157,128,0,108327:0:0:0:0:
182,192,108214,128,0,108609:0:0:0:0:
36,192,108214,128,0,108327:0:0:0:0:
402,192,108439,128,0,108778:0:0:0:0:
256,192,108439,128,0,109060:0:0:0:0:
36,192,108439,128,0,108552:0:0:0:0:
475,192,108609,128,0,108947:0:0:0:0:
36,192,108665,128,0,109793:0:0:0:0:
329,192,108721,128,0,109342:0:0:0:0:
182,192,108721,128,0,109567:0:0:0:0:
109,192,108778,128,0,109060:0:0:0:0:
402,192,108890,128,0,109229:0:0:0:0:
475,192,109060,128,0,109172:0:0:0:0:
256,192,109172,128,0,109454:0:0:0:0:
109,192,109172,128,0,109680:0:0:0:0:
475,192,109342,128,0,109624:0:0:0:0:
402,192,109398,128,0,109962:0:0:0:0:
329,192,109511,128,0,109793:0:0:0:0:
256,192,109624,128,0,110187:0:0:0:0:
182,192,109736,128,0,109906:0:0:0:0:
475,192,109736,128,0,109962:0:0:0:0:
109,192,109849,128,0,110187:0:0:0:0:
329,192,109906,128,0,110582:0:0:0:0:
36,192,109962,128,0,110469:0:0:0:0:
182,192,110018,128,0,110413:0:0:0:0:
475,192,110075,128,0,110469:0:0:0:0:
402,192,110075,128,0,110300:0:0:0:0:
256,192,110300,128,0,110582:0:0:0:0:
109,192,110300,128,0,110864:0:0:0:0:
402,192,110413,128,0,110864:0:0:0:0:
182,192,110526,128,0,110808:0:0:0:0:
36,192,110582,128,0,111259:0:0:0:0:
475,192,110639,128,0,110921:0:0:0:0:
329,192,110695,128,0,110977:0:0:0:0:
256,192,110864,128,0,111033:0:0:0:0:
182,192,110921,128,0,111033:0:0:0:0:
402,192,110977,128,0,111259:0:0:0:0:
109,192,110977,128,0,111597:0:0:0:0:
475,192,111090,128,0,111372:0:0:0:0:
329,192,111146,128,0,111372:0:0:0:0:
182,192,111146,128,0,111541:0:0:0:0:
256,192,111146,128,0,111541:0:0:0:0:
402,192,111372,128,0,112048:0:0:0:0:
36,192,111428,128,0,111936:0:0:0:0:
475,192,111484,128,0,112048:0:0:0:0:
329,192,111541,128,0,111936:0:0:0:0:
182,192,111654,128,0,111879:0:0:0:0:
256,192,111654,128,0,112218:0:0:0:0:
109,192,111710,128,0,112048:0:0:0:0:
182,192,111992,128,0,112499:0:0:0:0:
329,192,112048,128,0,112274:0:0:0:0:
36,192,112048,128,0,112274:0:0:0:0:
475,192,112161,128,0,112556:0:0:0:0:
109,192,112161,128,0,112443:0:0:0:0:
402,192,112218,128,0,112499:0:0:0:0:
256,192,112330,128,0,112556:0:0:0:0:
329,192,112387,128,0,112894:0:0:0:0:
36,192,112387,128,0,112669:0:0:0:0:
109,192,112556,128,0,112781:0:0:0:0:
182,192,112612,128,0,112781:0:0:0:0:
402,192,112612,128,0,113063:0:0:0:0:
256,192,112669,128,0,113120:0:0:0:0:
475,192,112669,128,0,113120:0:0:0:0:
36,192,112781,128,0,113233:0:0:0:0:
182,192,112894,128,0,113289:0:0:0:0:
329,192,113007,128,0,113345:0:0:0:0:
109,192,113007,128,0,113402:0:0:0:0:
402,192,113176,128,0,113571:0:0:0:0:
256,192,113233,128,0,115657:0:0:0:0:
475,192,113289,128,0,113515:0:0:0:0:
36,192,113345,128,0,113909:0:0:0:0:
182,192,113402,128,0,113966:0:0:0:0:
329,192,113458,128,0,113796:0:0:0:0:
109,192,113571,128,0,114191:0:0:0:0:
475,192,113684,128,0,113966:0:0:0:0:
402,192,113740,128,0,114191:0:0:0:0:
329,192,113909,128,0,114473:0:0:0:0:
475,192,114078,128,0,114304:0:0:0:0:
182,192,114078,128,0,114586:0:0:0:0:
36,192,114078,128,0,114360:0:0:0:0:
109,192,114304,128,0,114924:0:0:0:0:
402,192,114360,128,0,114530:0:0:0:0:
475,192,114417,128,0,115093:0:0:0:0:
36,192,114473,128,0,114755:0:0:0:0:
402,192,114642,128,0,115037:0:0:0:0:
329,192,114642,128,0,115206:0:0:0:0:
182,192,114699,128,0,114924:0:0:0:0:
36,192,114868,128,0,115319:0:0:0:0:
182,192,115037,128,0,115545:0:0:0:0:
109,192,115037,128,0,115206:0:0:0:0:
402,192,115150,128,0,115432:0:0:0:0:
475,192,115206,128,0,115545:0:0:0:0:
329,192,115319,128,0,115488:0:0:0:0:
109,192,115319,128,0,115657:0:0:0:0:
36,192,115432,128,0,115657:0:0:0:0:
402,192,115545,128,0,115657:0:0:0:0:
475,192,115827,1,0,0:0:0:0:
402,192,115827,1,0,0:0:0:0:
109,192,116052,1,0,0:0:0:0:
36,192,116052,1,0,0:0:0:0:
475,192,116278,1,0,0:0:0:0:
402,192,116278,1,0,0:0:0:0:
36,192,116503,1,0,0:0:0:0:
109,192,116503,1,0,0:0:0:0:
475,192,116729,1,0,0:0:0:0:
402,192,116729,1,0,0:0:0:0:
36,192,116954,1,0,0:0:0:0:
109,192,116954,1,0,0:0:0:0:
402,192,117180,1,0,0:0:0:0:
475,192,117180,1,0,0:0:0:0:
36,192,117406,1,0,0:0:0:0:
109,192,117406,1,0,0:0:0:0:
402,192,117631,1,0,0:0:0:0:
475,192,117631,1,0,0:0:0:0:
109,192,117857,1,0,0:0:0:0:
36,192,117857,1,0,0:0:0:0:
475,192,118082,1,0,0:0:0:0:
402,192,118082,1,0,0:0:0:0:
36,192,118308,1,0,0:0:0:0:
109,192,118308,1,0,0:0:0:0:
475,192,118533,1,0,0:0:0:0:
402,192,118533,1,0,0:0:0:0:
109,192,118759,1,0,0:0:0:0:
36,192,118759,1,0,0:0:0:0:
475,192,118984,1,0,0:0:0:0:
402,192,118984,1,0,0:0:0:0:
475,192,119210,1,0,0:0:0:0:
36,192,119210,1,0,0:0:0:0:
182,192,119210,1,0,0:0:0:0:
109,192,119323,1,0,0:0:0:0:
36,192,119436,1,0,0:0:0:0:
402,192,119436,1,0,0:0:0:0:
256,192,119436,1,0,0:0:0:0:
329,192,119548,1,0,0:0:0:0:
109,192,119661,1,0,0:0:0:0:
182,192,119661,1,0,0:0:0:0:
329,192,119661,1,0,0:0:0:0:
256,192,119774,1,0,0:0:0:0:
182,192,119887,1,0,0:0:0:0:
475,192,119887,1,0,0:0:0:0:
329,192,119887,1,0,0:0:0:0:
109,192,119999,1,0,0:0:0:0:
36,192,120112,1,0,0:0:0:0:
475,192,120112,1,0,0:0:0:0:
329,192,120112,1,0,0:0:0:0:
256,192,120225,1,0,0:0:0:0:
36,192,120338,1,0,0:0:0:0:
329,192,120338,1,0,0:0:0:0:
182,192,120338,1,0,0:0:0:0:
475,192,120451,1,0,0:0:0:0:
109,192,120563,1,0,0:0:0:0:
329,192,120563,1,0,0:0:0:0:
402,192,120563,1,0,0:0:0:0:
256,192,120676,1,0,0:0:0:0:
36,192,120789,1,0,0:0:0:0:
402,192,120789,1,0,0:0:0:0:
182,192,120789,1,0,0:0:0:0:
109,192,120902,1,0,0:0:0:0:
182,192,121015,1,0,0:0:0:0:
402,192,121015,1,0,0:0:0:0:
475,192,121015,1,0,0:0:0:0:
256,192,121127,1,0,0:0:0:0:
36,192,121240,1,0,0:0:0:0:
109,192,121240,1,0,0:0:0:0:
402,192,121240,1,0,0:0:0:0:
329,192,121353,1,0,0:0:0:0:
182,192,121466,1,0,0:0:0:0:
475,192,121466,1,0,0:0:0:0:
402,192,121466,1,0,0:0:0:0:
256,192,121578,1,0,0:0:0:0:
109,192,121691,1,0,0:0:0:0:
475,192,121691,1,0,0:0:0:0:
182,192,121691,1,0,0:0:0:0:
36,192,121804,1,0,0:0:0:0:
109,192,121917,1,0,0:0:0:0:
329,192,121917,1,0,0:0:0:0:
475,192,121917,1,0,0:0:0:0:
256,192,122030,1,0,0:0:0:0:
36,192,122142,1,0,0:0:0:0:
182,192,122142,1,0,0:0:0:0:
402,192,122142,1,0,0:0:0:0:
475,192,122255,1,0,0:0:0:0:
109,192,122368,1,0,0:0:0:0:
329,192,122368,1,0,0:0:0:0:
402,192,122368,1,0,0:0:0:0:
256,192,122481,1,0,0:0:0:0:
36,192,122593,1,0,0:0:0:0:
109,192,122593,1,0,0:0:0:0:
402,192,122593,1,0,0:0:0:0:
182,192,122706,1,0,0:0:0:0:
109,192,122819,1,0,0:0:0:0:
475,192,122819,1,0,0:0:0:0:
402,192,122819,1,0,0:0:0:0:
256,192,122932,1,0,0:0:0:0:
36,192,123045,1,0,0:0:0:0:
475,192,123045,1,0,0:0:0:0:
182,192,123045,1,0,0:0:0:0:
402,192,123157,1,0,0:0:0:0:
182,192,123270,1,0,0:0:0:0:
475,192,123270,1,0,0:0:0:0:
329,192,123270,1,0,0:0:0:0:
256,192,123383,1,0,0:0:0:0:
36,192,123496,1,0,0:0:0:0:
182,192,123496,1,0,0:0:0:0:
402,192,123496,1,0,0:0:0:0:
109,192,123609,1,0,0:0:0:0:
182,192,123721,1,0,0:0:0:0:
475,192,123721,1,0,0:0:0:0:
402,192,123721,1,0,0:0:0:0:
256,192,123834,1,0,0:0:0:0:
36,192,123947,1,0,0:0:0:0:
109,192,123947,1,0,0:0:0:0:
402,192,123947,1,0,0:0:0:0:
329,192,124060,1,0,0:0:0:0:
182,192,124172,1,0,0:0:0:0:
109,192,124172,1,0,0:0:0:0:
475,192,124172,1,0,0:0:0:0:
256,192,124285,1,0,0:0:0:0:
36,192,124398,1,0,0:0:0:0:
329,192,124398,1,0,0:0:0:0:
475,192,124398,1,0,0:0:0:0:
109,192,124511,1,0,0:0:0:0:
36,192,124624,1,0,0:0:0:0:
182,192,124624,1,0,0:0:0:0:
402,192,124624,1,0,0:0:0:0:
256,192,124736,1,0,0:0:0:0:
182,192,124849,1,0,0:0:0:0:
109,192,124849,1,0,0:0:0:0:
329,192,124849,1,0,0:0:0:0:
475,192,124962,1,0,0:0:0:0:
182,192,125075,1,0,0:0:0:0:
109,192,125075,1,0,0:0:0:0:
402,192,125075,1,0,0:0:0:0:
256,192,125187,1,0,0:0:0:0:
182,192,125300,5,0,0:0:0:0:
475,192,125300,1,0,0:0:0:0:
329,192,125300,1,0,0:0:0:0:
109,192,125413,1,0,0:0:0:0:
36,192,125526,1,0,0:0:0:0:
402,192,125526,1,0,0:0:0:0:
475,192,125526,1,0,0:0:0:0:
256,192,125639,1,0,0:0:0:0:
182,192,125751,1,0,0:0:0:0:
329,192,125751,1,0,0:0:0:0:
36,192,125751,1,0,0:0:0:0:
402,192,125864,1,0,0:0:0:0:
36,192,125977,1,0,0:0:0:0:
182,192,125977,1,0,0:0:0:0:
329,192,125977,1,0,0:0:0:0:
475,192,126203,5,0,0:0:0:0:
36,192,126203,1,0,0:0:0:0:
475,192,126428,5,0,0:0:0:0:
402,192,126428,1,0,0:0:0:0:
36,192,126428,1,0,0:0:0:0:
109,192,126428,1,0,0:0:0:0:
475,192,126654,1,0,0:0:0:0:
329,192,126654,1,0,0:0:0:0:
402,192,126654,1,0,0:0:0:0:
109,192,126654,1,0,0:0:0:0:
36,192,126654,1,0,0:0:0:0:
182,192,126654,1,0,0:0:0:0:
109,192,126879,1,0,0:0:0:0:
36,192,126879,1,0,0:0:0:0:
402,192,126879,1,0,0:0:0:0:
475,192,126879,1,0,0:0:0:0:
475,192,127105,1,0,0:0:0:0:
402,192,127105,1,0,0:0:0:0:
329,192,127105,1,0,0:0:0:0:
36,192,127105,1,0,0:0:0:0:
109,192,127105,1,0,0:0:0:0:
182,192,127105,1,0,0:0:0:0:
36,192,127330,1,0,0:0:0:0:
109,192,127330,1,0,0:0:0:0:
475,192,127330,1,0,0:0:0:0:
402,192,127330,1,0,0:0:0:0:
36,192,127556,1,0,0:0:0:0:
109,192,127556,1,0,0:0:0:0:
182,192,127556,1,0,0:0:0:0:
402,192,127556,1,0,0:0:0:0:
475,192,127556,1,0,0:0:0:0:
329,192,127556,1,0,0:0:0:0:
36,192,127781,1,0,0:0:0:0:
109,192,127781,1,0,0:0:0:0:
475,192,127781,1,0,0:0:0:0:
402,192,127781,1,0,0:0:0:0:
36,192,128007,1,0,0:0:0:0:
109,192,128007,1,0,0:0:0:0:
182,192,128007,1,0,0:0:0:0:
475,192,128007,1,0,0:0:0:0:
402,192,128007,1,0,0:0:0:0:
329,192,128007,1,0,0:0:0:0:
36,192,128233,1,0,0:0:0:0:
475,192,128233,1,0,0:0:0:0:
402,192,128233,1,0,0:0:0:0:
109,192,128233,1,0,0:0:0:0:
182,192,128233,1,0,0:0:0:0:
256,192,128233,1,0,0:0:0:0:
329,192,128233,1,0,0:0:0:0:
36,192,128458,128,0,128684:0:0:0:0:
475,192,128458,128,0,128684:0:0:0:0:
109,192,128796,128,0,129022:0:0:0:0:
402,192,128796,128,0,129022:0:0:0:0:
182,192,129135,128,0,129360:0:0:0:0:
329,192,129135,128,0,129360:0:0:0:0:
256,192,129473,128,0,129755:0:0:0:0:
36,192,130037,128,0,130488:0:0:0:0:
256,192,130037,128,0,131052:0:0:0:0:
475,192,130037,128,0,130545:0:0:0:0:
182,192,130037,128,0,130432:0:0:0:0:
109,192,130037,128,0,130375:0:0:0:0:
329,192,130037,128,0,130601:0:0:0:0:
402,192,130037,128,0,130770:0:0:0:0:
109,192,130488,128,0,130996:0:0:0:0:
182,192,130545,128,0,131165:0:0:0:0:
36,192,130657,128,0,131447:0:0:0:0:
475,192,130657,128,0,131109:0:0:0:0:
329,192,130714,128,0,131390:0:0:0:0:
402,192,130883,128,0,131447:0:0:0:0:
109,192,131109,128,0,131503:0:0:0:0:
256,192,131165,128,0,131503:0:0:0:0:
475,192,131221,128,0,131447:0:0:0:0:
182,192,131278,128,0,131447:0:0:0:0:
36,192,131560,128,0,131672:0:0:0:0:
182,192,131560,128,0,131672:0:0:0:0:
329,192,131560,128,0,131672:0:0:0:0:
475,192,131560,128,0,131672:0:0:0:0:
109,192,131616,128,0,131729:0:0:0:0:
256,192,131616,128,0,131729:0:0:0:0:
402,192,131616,128,0,131729:0:0:0:0:
36,192,131785,128,0,132011:0:0:0:0:
475,192,131785,128,0,132011:0:0:0:0:
109,192,131842,128,0,131954:0:0:0:0:
256,192,131842,128,0,132180:0:0:0:0:
402,192,131842,128,0,131954:0:0:0:0:
182,192,131898,128,0,132124:0:0:0:0:
329,192,131898,128,0,132124:0:0:0:0:
109,192,132067,128,0,132462:0:0:0:0:
402,192,132067,128,0,132180:0:0:0:0:
36,192,132124,128,0,132293:0:0:0:0:
475,192,132124,128,0,132406:0:0:0:0:
182,192,132236,128,0,132406:0:0:0:0:
256,192,132293,128,0,132462:0:0:0:0:
329,192,132293,128,0,132687:0:0:0:0:
402,192,132293,128,0,132518:0:0:0:0:
36,192,132462,128,0,133251:0:0:0:0:
475,192,132518,128,0,132913:0:0:0:0:
182,192,132518,128,0,133195:0:0:0:0:
256,192,132575,128,0,132800:0:0:0:0:
109,192,132575,128,0,132913:0:0:0:0:
402,192,132631,128,0,132800:0:0:0:0:
329,192,132857,128,0,133364:0:0:0:0:
256,192,132913,128,0,133139:0:0:0:0:
402,192,132913,128,0,133026:0:0:0:0:
109,192,133026,128,0,133703:0:0:0:0:
475,192,133026,128,0,133590:0:0:0:0:
402,192,133139,128,0,133421:0:0:0:0:
256,192,133251,128,0,133815:0:0:0:0:
182,192,133308,128,0,133421:0:0:0:0:
36,192,133364,128,0,133533:0:0:0:0:
329,192,133477,128,0,133759:0:0:0:0:
182,192,133533,128,0,133872:0:0:0:0:
402,192,133590,128,0,133703:0:0:0:0:
36,192,133703,128,0,133928:0:0:0:0:
475,192,133815,128,0,134154:0:0:0:0:
109,192,133815,128,0,134436:0:0:0:0:
402,192,133872,128,0,134097:0:0:0:0:
329,192,133928,128,0,133984:0:0:0:0:
256,192,133984,128,0,134323:0:0:0:0:
182,192,134041,128,0,134210:0:0:0:0:
36,192,134097,128,0,134379:0:0:0:0:
329,192,134154,128,0,134492:0:0:0:0:
402,192,134266,128,0,134830:0:0:0:0:
475,192,134266,128,0,134436:0:0:0:0:
182,192,134323,128,0,135169:0:0:0:0:
256,192,134492,128,0,134718:0:0:0:0:
36,192,134492,128,0,134887:0:0:0:0:
475,192,134548,128,0,134718:0:0:0:0:
109,192,134548,128,0,134718:0:0:0:0:
329,192,134605,128,0,134887:0:0:0:0:
256,192,134830,128,0,135056:0:0:0:0:
109,192,134830,128,0,135169:0:0:0:0:
475,192,134830,128,0,135507:0:0:0:0:
402,192,134943,128,0,135169:0:0:0:0:
36,192,134999,128,0,135394:0:0:0:0:
329,192,134999,128,0,135507:0:0:0:0:
256,192,135169,128,0,135394:0:0:0:0:
402,192,135281,128,0,135563:0:0:0:0:
182,192,135281,128,0,135789:0:0:0:0:
109,192,135338,128,0,135620:0:0:0:0:
36,192,135507,128,0,136071:0:0:0:0:
256,192,135507,128,0,135733:0:0:0:0:
402,192,135676,128,0,135958:0:0:0:0:
109,192,135733,128,0,135958:0:0:0:0:
329,192,135733,128,0,136240:0:0:0:0:
475,192,135733,128,0,136240:0:0:0:0:
256,192,135902,128,0,136127:0:0:0:0:
182,192,135902,128,0,136353:0:0:0:0:
402,192,136071,128,0,136409:0:0:0:0:
109,192,136071,128,0,136184:0:0:0:0:
36,192,136184,128,0,137086:0:0:0:0:
256,192,136240,128,0,137030:0:0:0:0:
109,192,136296,128,0,136691:0:0:0:0:
329,192,136353,128,0,136522:0:0:0:0:
475,192,136353,128,0,136691:0:0:0:0:
182,192,136522,128,0,136917:0:0:0:0:
402,192,136522,128,0,137030:0:0:0:0:
329,192,136635,128,0,136804:0:0:0:0:
475,192,136804,128,0,137086:0:0:0:0:
109,192,136804,128,0,137142:0:0:0:0:
329,192,136917,128,0,137312:0:0:0:0:
182,192,137030,128,0,137199:0:0:0:0:
256,192,137142,128,0,137255:0:0:0:0:
402,192,137142,128,0,137368:0:0:0:0:
475,192,137199,128,0,137424:0:0:0:0:
36,192,137255,128,0,137875:0:0:0:0:
109,192,137312,128,0,137537:0:0:0:0:
182,192,137368,128,0,137763:0:0:0:0:
256,192,137424,128,0,137593:0:0:0:0:
329,192,137424,128,0,137875:0:0:0:0:
402,192,137481,128,0,137650:0:0:0:0:
475,192,137593,128,0,138439:0:0:0:0:
109,192,137650,128,0,138045:0:0:0:0:
256,192,137706,128,0,137988:0:0:0:0:
402,192,137763,128,0,138270:0:0:0:0:
182,192,137875,128,0,138101:0:0:0:0:
36,192,137988,128,0,138439:0:0:0:0:
329,192,137988,128,0,138383:0:0:0:0:
256,192,138101,128,0,138552:0:0:0:0:
109,192,138157,128,0,138327:0:0:0:0:
182,192,138270,128,0,138496:0:0:0:0:
402,192,138383,128,0,138834:0:0:0:0:
109,192,138439,128,0,138665:0:0:0:0:
329,192,138496,128,0,138778:0:0:0:0:
36,192,138552,128,0,138947:0:0:0:0:
475,192,138552,128,0,139060:0:0:0:0:
182,192,138609,128,0,139003:0:0:0:0:
256,192,138665,128,0,139567:0:0:0:0:
109,192,138778,128,0,139060:0:0:0:0:
329,192,138890,128,0,139229:0:0:0:0:
402,192,138947,128,0,139454:0:0:0:0:
36,192,139060,128,0,139849:0:0:0:0:
182,192,139116,128,0,139398:0:0:0:0:
475,192,139172,128,0,139398:0:0:0:0:
109,192,139229,128,0,139736:0:0:0:0:
329,192,139342,128,0,139511:0:0:0:0:
182,192,139511,128,0,140018:0:0:0:0:
475,192,139511,128,0,139962:0:0:0:0:
402,192,139567,128,0,139849:0:0:0:0:
329,192,139624,128,0,139906:0:0:0:0:
256,192,139736,128,0,139962:0:0:0:0:
109,192,139849,128,0,140469:0:0:0:0:
36,192,139962,128,0,140075:0:0:0:0:
402,192,139962,128,0,140526:0:0:0:0:
329,192,140018,128,0,140357:0:0:0:0:
256,192,140075,128,0,140413:0:0:0:0:
475,192,140075,128,0,140300:0:0:0:0:
182,192,140131,128,0,140244:0:0:0:0:
36,192,140187,128,0,140639:0:0:0:0:
475,192,140413,128,0,140582:0:0:0:0:
182,192,140413,128,0,140751:0:0:0:0:
109,192,140582,128,0,141033:0:0:0:0:
256,192,140582,128,0,141146:0:0:0:0:
329,192,140639,128,0,141203:0:0:0:0:
475,192,140695,128,0,140921:0:0:0:0:
36,192,140751,128,0,140921:0:0:0:0:
402,192,140751,128,0,141033:0:0:0:0:
182,192,140921,128,0,141710:0:0:0:0:
475,192,141033,128,0,141372:0:0:0:0:
36,192,141090,128,0,141259:0:0:0:0:
109,192,141146,128,0,141428:0:0:0:0:
402,192,141146,128,0,141428:0:0:0:0:
256,192,141259,128,0,141484:0:0:0:0:
329,192,141315,128,0,141654:0:0:0:0:
36,192,141372,128,0,141654:0:0:0:0:
475,192,141484,128,0,141654:0:0:0:0:
109,192,141541,128,0,141654:0:0:0:0:
402,192,141541,128,0,141766:0:0:0:0:
256,192,141597,128,0,141992:0:0:0:0:
36,192,141766,128,0,141992:0:0:0:0:
329,192,141766,128,0,142499:0:0:0:0:
475,192,141766,128,0,141992:0:0:0:0:
182,192,141823,128,0,142218:0:0:0:0:
109,192,141879,128,0,142105:0:0:0:0:
402,192,141936,128,0,142330:0:0:0:0:
256,192,142105,128,0,142274:0:0:0:0:
475,192,142161,128,0,142499:0:0:0:0:
36,192,142161,128,0,142443:0:0:0:0:
109,192,142274,128,0,142612:0:0:0:0:
182,192,142387,128,0,142556:0:0:0:0:
256,192,142443,128,0,143007:0:0:0:0:
402,192,142556,128,0,142781:0:0:0:0:
36,192,142612,128,0,143007:0:0:0:0:
475,192,142612,128,0,142894:0:0:0:0:
329,192,142669,128,0,143176:0:0:0:0:
109,192,142725,128,0,143289:0:0:0:0:
182,192,142838,128,0,143120:0:0:0:0:
402,192,142951,128,0,143063:0:0:0:0:
475,192,143007,128,0,143796:0:0:0:0:
256,192,143120,128,0,143345:0:0:0:0:
36,192,143233,128,0,143796:0:0:0:0:
402,192,143233,128,0,143345:0:0:0:0:
182,192,143233,128,0,143458:0:0:0:0:
329,192,143289,128,0,143571:0:0:0:0:
109,192,143402,128,0,143571:0:0:0:0:
402,192,143458,128,0,143740:0:0:0:0:
256,192,143458,128,0,143627:0:0:0:0:
182,192,143571,128,0,143740:0:0:0:0:
109,192,143684,128,0,143909:0:0:0:0:
329,192,143684,128,0,143966:0:0:0:0:
256,192,143796,128,0,144530:0:0:0:0:
402,192,143853,128,0,144078:0:0:0:0:
36,192,143909,128,0,144248:0:0:0:0:
475,192,143909,128,0,144530:0:0:0:0:
182,192,143966,128,0,144191:0:0:0:0:
109,192,144022,128,0,144360:0:0:0:0:
329,192,144135,128,0,144473:0:0:0:0:
402,192,144191,128,0,144417:0:0:0:0:
182,192,144304,128,0,144473:0:0:0:0:
36,192,144360,128,0,144530:0:0:0:0:
256,192,145375,128,0,146109:0:0:0:0:
475,192,145375,128,0,145996:0:0:0:0:
36,192,145375,128,0,145545:0:0:0:0:
329,192,145432,128,0,145770:0:0:0:0:
182,192,145432,128,0,145601:0:0:0:0:
402,192,145488,128,0,145714:0:0:0:0:
109,192,145545,128,0,145883:0:0:0:0:
36,192,145657,128,0,145996:0:0:0:0:
182,192,145714,128,0,145939:0:0:0:0:
402,192,145827,128,0,146052:0:0:0:0:
329,192,145939,128,0,146221:0:0:0:0:
109,192,145996,128,0,146221:0:0:0:0:
475,192,146109,128,0,146898:0:0:0:0:
36,192,146109,128,0,146672:0:0:0:0:
402,192,146165,128,0,146447:0:0:0:0:
182,192,146165,128,0,146334:0:0:0:0:
256,192,146278,128,0,146447:0:0:0:0:
329,192,146334,128,0,146616:0:0:0:0:
109,192,146334,128,0,146503:0:0:0:0:
182,192,146447,128,0,146672:0:0:0:0:
256,192,146560,128,0,146785:0:0:0:0:
402,192,146560,128,0,146672:0:0:0:0:
109,192,146616,128,0,147180:0:0:0:0:
329,192,146729,128,0,147236:0:0:0:0:
182,192,146785,128,0,147067:0:0:0:0:
402,192,146842,128,0,146954:0:0:0:0:
256,192,146898,128,0,147462:0:0:0:0:
36,192,146898,128,0,147293:0:0:0:0:
475,192,147011,128,0,147293:0:0:0:0:
402,192,147124,128,0,147349:0:0:0:0:
109,192,147293,128,0,147631:0:0:0:0:
182,192,147349,128,0,147518:0:0:0:0:
329,192,147406,128,0,148139:0:0:0:0:
475,192,147406,128,0,147744:0:0:0:0:
36,192,147462,128,0,147744:0:0:0:0:
402,192,147575,128,0,147969:0:0:0:0:
256,192,147631,128,0,147800:0:0:0:0:
182,192,147687,128,0,148082:0:0:0:0:
109,192,147800,128,0,148026:0:0:0:0:
256,192,147913,128,0,148308:0:0:0:0:
36,192,147913,128,0,148139:0:0:0:0:
475,192,147913,128,0,148139:0:0:0:0:
402,192,148139,128,0,148364:0:0:0:0:
182,192,148195,128,0,148984:0:0:0:0:
329,192,148251,128,0,148590:0:0:0:0:
36,192,148251,128,0,148533:0:0:0:0:
475,192,148251,128,0,148421:0:0:0:0:
109,192,148251,128,0,148364:0:0:0:0:
256,192,148421,128,0,148646:0:0:0:0:
109,192,148477,128,0,148759:0:0:0:0:
402,192,148477,128,0,148759:0:0:0:0:
475,192,148533,128,0,148872:0:0:0:0:
36,192,148646,128,0,148815:0:0:0:0:
329,192,148703,128,0,149266:0:0:0:0:
256,192,148759,128,0,149323:0:0:0:0:
109,192,148872,128,0,149323:0:0:0:0:
402,192,148872,128,0,149154:0:0:0:0:
475,192,148984,128,0,149210:0:0:0:0:
36,192,148984,128,0,149154:0:0:0:0:
182,192,149154,128,0,149492:0:0:0:0:
36,192,149266,128,0,149718:0:0:0:0:
475,192,149323,128,0,149492:0:0:0:0:
402,192,149379,128,0,149943:0:0:0:0:
109,192,149436,128,0,150056:0:0:0:0:
256,192,149492,128,0,149830:0:0:0:0:
329,192,149548,128,0,149887:0:0:0:0:
475,192,149605,128,0,149830:0:0:0:0:
182,192,149661,128,0,149774:0:0:0:0:
36,192,149830,128,0,149943:0:0:0:0:
182,192,149887,128,0,150394:0:0:0:0:
475,192,149943,128,0,150394:0:0:0:0:
256,192,149943,128,0,150169:0:0:0:0:
329,192,149999,128,0,150281:0:0:0:0:
36,192,150056,128,0,150845:0:0:0:0:
402,192,150056,128,0,150338:0:0:0:0:
109,192,150169,128,0,150676:0:0:0:0:
256,192,150338,128,0,151240:0:0:0:0:
329,192,150394,128,0,150563:0:0:0:0:
402,192,150451,128,0,150958:0:0:0:0:
182,192,150507,128,0,150789:0:0:0:0:
475,192,150507,128,0,150733:0:0:0:0:
329,192,150676,128,0,151015:0:0:0:0:
475,192,150845,128,0,151353:0:0:0:0:
109,192,150845,128,0,151127:0:0:0:0:
182,192,150902,128,0,151296:0:0:0:0:
36,192,150958,128,0,151353:0:0:0:0:
402,192,151071,128,0,151522:0:0:0:0:
329,192,151127,128,0,151409:0:0:0:0:
109,192,151240,128,0,151466:0:0:0:0:
256,192,151353,128,0,151804:0:0:0:0:
182,192,151409,128,0,151635:0:0:0:0:
475,192,151466,128,0,152312:0:0:0:0:
36,192,151466,128,0,151917:0:0:0:0:
329,192,151522,128,0,151917:0:0:0:0:
109,192,151578,128,0,151748:0:0:0:0:
402,192,151635,128,0,152142:0:0:0:0:
182,192,151804,128,0,152030:0:0:0:0:
109,192,151860,128,0,152255:0:0:0:0:
256,192,151917,128,0,152199:0:0:0:0:
36,192,152030,128,0,152650:0:0:0:0:
329,192,152030,128,0,152481:0:0:0:0:
182,192,152142,128,0,152537:0:0:0:0:
402,192,152255,128,0,152424:0:0:0:0:
256,192,152312,128,0,152481:0:0:0:0:
109,192,152368,128,0,152593:0:0:0:0:
475,192,152481,128,0,152706:0:0:0:0:
402,192,152537,128,0,152763:0:0:0:0:
329,192,152593,128,0,152988:0:0:0:0:
256,192,152650,128,0,152763:0:0:0:0:
182,192,152706,128,0,152875:0:0:0:0:
109,192,152763,128,0,153101:0:0:0:0:
36,192,152819,128,0,153721:0:0:0:0:
475,192,152819,128,0,153101:0:0:0:0:
256,192,152875,128,0,153665:0:0:0:0:
402,192,152875,128,0,153383:0:0:0:0:
182,192,152988,128,0,153383:0:0:0:0:
329,192,153101,128,0,153270:0:0:0:0:
109,192,153214,128,0,153609:0:0:0:0:
475,192,153214,128,0,153552:0:0:0:0:
329,192,153383,128,0,153552:0:0:0:0:
402,192,153496,128,0,153834:0:0:0:0:
182,192,153552,128,0,154003:0:0:0:0:
329,192,153665,128,0,154172:0:0:0:0:
475,192,153665,128,0,154172:0:0:0:0:
109,192,153721,128,0,153834:0:0:0:0:
256,192,153778,128,0,154003:0:0:0:0:
36,192,153834,128,0,154398:0:0:0:0:
402,192,153947,128,0,154229:0:0:0:0:
109,192,153947,128,0,154172:0:0:0:0:
182,192,154116,128,0,154624:0:0:0:0:
256,192,154172,128,0,154398:0:0:0:0:
109,192,154285,128,0,154567:0:0:0:0:
402,192,154342,128,0,154624:0:0:0:0:
475,192,154398,128,0,155075:0:0:0:0:
329,192,154398,128,0,154906:0:0:0:0:
36,192,154511,128,0,154906:0:0:0:0:
256,192,154511,128,0,154736:0:0:0:0:
182,192,154736,128,0,155582:0:0:0:0:
109,192,154736,128,0,155075:0:0:0:0:
402,192,154736,128,0,154962:0:0:0:0:
256,192,154849,128,0,155075:0:0:0:0:
36,192,155018,128,0,155413:0:0:0:0:
329,192,155018,128,0,155300:0:0:0:0:
402,192,155075,128,0,155639:0:0:0:0:
256,192,155187,128,0,155413:0:0:0:0:
475,192,155187,128,0,155357:0:0:0:0:
109,192,155187,128,0,155357:0:0:0:0:
329,192,155413,128,0,155751:0:0:0:0:
109,192,155469,128,0,156090:0:0:0:0:
475,192,155469,128,0,155639:0:0:0:0:
36,192,155526,128,0,155808:0:0:0:0:
256,192,155582,128,0,155921:0:0:0:0:
182,192,155695,128,0,155864:0:0:0:0:
475,192,155751,128,0,156090:0:0:0:0:
402,192,155808,128,0,156033:0:0:0:0:
329,192,155921,128,0,155977:0:0:0:0:
36,192,155977,128,0,156203:0:0:0:0:
182,192,156033,128,0,156372:0:0:0:0:
256,192,156090,128,0,156654:0:0:0:0:
329,192,156146,128,0,156428:0:0:0:0:
109,192,156203,128,0,156879:0:0:0:0:
402,192,156203,128,0,156315:0:0:0:0:
475,192,156315,128,0,156879:0:0:0:0:
36,192,156372,128,0,156541:0:0:0:0:
402,192,156484,128,0,156766:0:0:0:0:
182,192,156484,128,0,156597:0:0:0:0:
329,192,156541,128,0,157048:0:0:0:0:
36,192,156654,128,0,157443:0:0:0:0:
182,192,156710,128,0,157387:0:0:0:0:
256,192,156766,128,0,156992:0:0:0:0:
402,192,156879,128,0,156992:0:0:0:0:
475,192,156992,128,0,157387:0:0:0:0:
109,192,156992,128,0,157330:0:0:0:0:
256,192,157105,128,0,157330:0:0:0:0:
402,192,157105,128,0,157274:0:0:0:0:
329,192,157218,128,0,157612:0:0:0:0:
402,192,157387,128,0,157612:0:0:0:0:
109,192,157443,128,0,157838:0:0:0:0:
256,192,157443,128,0,157612:0:0:0:0:
475,192,157499,128,0,157781:0:0:0:0:
182,192,157499,128,0,157669:0:0:0:0:
36,192,157612,128,0,157781:0:0:0:0:
256,192,157725,128,0,158063:0:0:0:0:
402,192,157725,128,0,157838:0:0:0:0:
182,192,157781,128,0,158007:0:0:0:0:
329,192,157781,128,0,158007:0:0:0:0:
36,192,157894,128,0,158120:0:0:0:0:
475,192,157894,128,0,158120:0:0:0:0:
109,192,157951,128,0,158063:0:0:0:0:
402,192,157951,128,0,158063:0:0:0:0:
109,192,158176,128,0,158289:0:0:0:0:
256,192,158176,128,0,158289:0:0:0:0:
402,192,158176,128,0,158289:0:0:0:0:
36,192,158233,128,0,158345:0:0:0:0:
182,192,158233,128,0,158345:0:0:0:0:
329,192,158233,128,0,158345:0:0:0:0:
475,192,158233,128,0,158345:0:0:0:0:
256,192,158402,128,0,158740:0:0:0:0:
402,192,158402,128,0,158740:0:0:0:0:
109,192,158402,128,0,158740:0:0:0:0:
475,192,158458,128,0,158684:0:0:0:0:
182,192,158458,128,0,158627:0:0:0:0:
329,192,158458,128,0,158627:0:0:0:0:
36,192,158458,128,0,158684:0:0:0:0:
36,192,158796,128,0,158909:0:0:0:0:
182,192,158796,128,0,158909:0:0:0:0:
329,192,158796,128,0,158909:0:0:0:0:
475,192,158796,128,0,158909:0:0:0:0:
109,192,158853,128,0,158966:0:0:0:0:
256,192,158853,128,0,158966:0:0:0:0:
402,192,158853,128,0,158966:0:0:0:0:
475,192,159022,128,0,159360:0:0:0:0:
182,192,159022,128,0,159360:0:0:0:0:
329,192,159022,128,0,159360:0:0:0:0:
36,192,159022,128,0,159360:0:0:0:0:
402,192,159078,128,0,159304:0:0:0:0:
256,192,159078,128,0,159248:0:0:0:0:
109,192,159078,128,0,159304:0:0:0:0:
109,192,159417,128,0,159530:0:0:0:0:
256,192,159417,128,0,159530:0:0:0:0:
402,192,159417,128,0,159530:0:0:0:0:
36,192,159473,128,0,159586:0:0:0:0:
182,192,159473,128,0,159586:0:0:0:0:
329,192,159473,128,0,159586:0:0:0:0:
475,192,159473,128,0,159586:0:0:0:0:
109,192,159642,128,0,159868:0:0:0:0:
256,192,159642,128,0,159868:0:0:0:0:
402,192,159642,128,0,159868:0:0:0:0:
36,192,159699,128,0,160037:0:0:0:0:
182,192,159699,128,0,160093:0:0:0:0:
329,192,159699,128,0,160093:0:0:0:0:
475,192,159699,128,0,160037:0:0:0:0:
109,192,159981,128,0,162518:0:0:0:0:
256,192,159981,128,0,162518:0:0:0:0:
402,192,159981,128,0,162518:0:0:0:0:
36,192,160150,128,0,160319:0:0:0:0:
475,192,160150,128,0,160319:0:0:0:0:
182,192,160206,128,0,160488:0:0:0:0:
329,192,160206,128,0,160488:0:0:0:0:
36,192,160432,128,0,160601:0:0:0:0:
475,192,160432,128,0,160601:0:0:0:0:
182,192,160601,128,0,160714:0:0:0:0:
329,192,160601,128,0,160714:0:0:0:0:
36,192,160714,128,0,160827:0:0:0:0:
475,192,160714,128,0,160827:0:0:0:0:
182,192,160883,128,0,161052:0:0:0:0:
329,192,160883,128,0,161052:0:0:0:0:
36,192,160939,128,0,161221:0:0:0:0:
475,192,160939,128,0,161221:0:0:0:0:
182,192,161165,128,0,161334:0:0:0:0:
329,192,161165,128,0,161334:0:0:0:0:
36,192,161334,128,0,161390:0:0:0:0:
475,192,161334,128,0,161390:0:0:0:0:
182,192,161447,128,0,161672:0:0:0:0:
329,192,161447,128,0,161672:0:0:0:0:
36,192,161503,128,0,161842:0:0:0:0:
475,192,161503,128,0,161842:0:0:0:0:
182,192,161785,128,0,162011:0:0:0:0:
329,192,161785,128,0,162011:0:0:0:0:
36,192,161954,128,0,162067:0:0:0:0:
475,192,161954,128,0,162067:0:0:0:0:
182,192,162124,128,0,162236:0:0:0:0:
329,192,162124,128,0,162236:0:0:0:0:
36,192,162180,128,0,162406:0:0:0:0:
475,192,162180,128,0,162406:0:0:0:0:
182,192,162349,128,0,162462:0:0:0:0:
329,192,162349,128,0,162462:0:0:0:0:
36,192,162969,1,0,0:0:0:0:
182,192,162969,1,0,0:0:0:0:
329,192,162969,1,0,0:0:0:0:
402,192,163195,1,0,0:0:0:0:
256,192,163195,1,0,0:0:0:0:
109,192,163195,1,0,0:0:0:0:
182,192,163421,1,0,0:0:0:0:
329,192,163421,1,0,0:0:0:0:
475,192,163421,1,0,0:0:0:0:
182,192,164097,1,0,0:0:0:0:
329,192,164097,1,0,0:0:0:0:
475,192,164097,1,0,0:0:0:0:
36,192,164323,1,0,0:0:0:0:
329,192,164323,1,0,0:0:0:0:
182,192,164323,1,0,0:0:0:0:
109,192,164774,1,0,0:0:0:0:
36,192,164774,1,0,0:0:0:0:
182,192,164774,1,0,0:0:0:0:
329,192,164999,1,0,0:0:0:0:
402,192,164999,1,0,0:0:0:0:
475,192,164999,1,0,0:0:0:0:
109,192,165225,1,0,0:0:0:0:
36,192,165225,1,0,0:0:0:0:
182,192,165225,1,0,0:0:0:0:
329,192,165451,1,0,0:0:0:0:
402,192,165451,1,0,0:0:0:0:
475,192,165451,1,0,0:0:0:0:
109,192,165676,1,0,0:0:0:0:
36,192,165676,1,0,0:0:0:0:
182,192,165676,1,0,0:0:0:0:
329,192,165902,1,0,0:0:0:0:
402,192,165902,1,0,0:0:0:0:
475,192,165902,1,0,0:0:0:0:
329,192,166578,1,0,0:0:0:0:
182,192,166578,1,0,0:0:0:0:
475,192,166578,1,0,0:0:0:0:
109,192,166804,1,0,0:0:0:0:
256,192,166804,1,0,0:0:0:0:
402,192,166804,1,0,0:0:0:0:
182,192,167030,1,0,0:0:0:0:
329,192,167030,1,0,0:0:0:0:
36,192,167030,1,0,0:0:0:0:
109,192,167706,128,0,167875:0:0:0:0:
182,192,167819,128,0,168609:0:0:0:0:
256,192,168552,128,0,169116:0:0:0:0:
329,192,169060,128,0,169680:0:0:0:0:
402,192,169624,128,0,170131:0:0:0:0:
402,192,172443,128,0,172669:0:0:0:0:
109,192,172669,128,0,172894:0:0:0:0:
329,192,172894,128,0,173120:0:0:0:0:
182,192,173120,128,0,173289:0:0:0:0:
256,192,173289,128,0,173684:0:0:0:0:
402,192,174924,128,0,175093:0:0:0:0:
329,192,175037,128,0,175827:0:0:0:0:
256,192,175770,128,0,176334:0:0:0:0:
182,192,176278,128,0,176898:0:0:0:0:
109,192,176842,128,0,177349:0:0:0:0:
