osu file format v14

[General]
AudioFilename: audio.mp3
AudioLeadIn: 0
PreviewTime: 11000
Countdown: 0
SampleSet: Soft
StackLeniency: 0.7
Mode: 0
LetterboxInBreaks: 0
EpilepsyWarning: 1
WidescreenStoryboard: 1

[Editor]
Bookmarks: 11044,13804,16564,19324,22084,27605,33125,38646,44166,49686,55207,60727,66248,71768,77288
DistanceSpacing: 1
BeatDivisor: 4
GridSize: 16
TimelineZoom: 2.999999

[Metadata]
Title:you
TitleUnicode:you
Artist:m1v
ArtistUnicode:m1v
Creator:vastly
Version:insane
Source:
Tags:suicide letter to myself english hyperpop pop alternative glitchcore bass emo hyper bluirre wetdog123 hhjkl lugu omtereston Aranel Dailycare Morinaga
BeatmapID:3648589
BeatmapSetID:1781647

[Difficulty]
HPDrainRate:5
CircleSize:4
OverallDifficulty:8.2
ApproachRate:8.2
SliderMultiplier:1.8
SliderTickRate:1

[Events]
//Background and Video events
0,0,"bgyou.png",0,0
//Break Periods
//Storyboard Layer 0 (Background)
//Storyboard Layer 1 (Fail)
//Storyboard Layer 2 (Pass)
//Storyboard Layer 3 (Foreground)
//Storyboard Layer 4 (Overlay)
//Storyboard Sound Samples

[TimingPoints]
11044,345.025876940771,4,2,1,80,1,0
11044,-100,4,2,1,80,0,0
13372,-100,4,2,1,5,0,0
13459,-100,4,2,1,80,0,0
16046,-100,4,2,1,5,0,0
16219,-100,4,2,1,80,0,0
16391,-100,4,2,1,5,0,0
16564,-100,4,2,1,80,0,0
22084,-100,4,2,1,90,0,1
22429,-95.2380952380952,4,2,1,90,0,1
27864,-95.2380952380952,4,2,1,5,0,1
27950,-95.2380952380952,4,2,1,90,0,1
29761,-95.2380952380952,4,2,1,5,0,1
29847,-95.2380952380952,4,2,1,90,0,1
32263,-133.333333333333,4,2,1,80,0,1
33125,-111.111111111111,4,2,1,70,0,0
33470,-111.111111111111,4,2,1,70,0,0
34160,-111.111111111111,4,2,1,70,0,0
42700,-111.111111111111,4,2,1,5,0,0
42786,-111.111111111111,4,2,1,70,0,0
52447,-444.444444444444,4,2,1,70,0,0
53137,-125,4,2,1,70,0,0
55207,-83.3333333333333,4,2,1,90,0,1
55466,-83.3333333333333,4,2,1,5,0,1
55552,-83.3333333333333,4,2,1,90,0,1
58226,-83.3333333333333,4,2,1,5,0,1
58312,-83.3333333333333,4,2,1,90,0,1
59261,-83.3333333333333,4,2,1,5,0,1
59347,-83.3333333333333,4,2,1,90,0,1
60986,-83.3333333333333,4,2,1,5,0,1
61072,-83.3333333333333,4,2,1,90,0,1
62884,-83.3333333333333,4,2,1,5,0,1
62970,-83.3333333333333,4,2,1,90,0,1
63746,-83.3333333333333,4,2,1,5,0,1
63832,-83.3333333333333,4,2,1,90,0,1
65644,-83.3333333333333,4,2,1,5,0,1
65730,-83.3333333333333,4,2,1,90,0,1
66506,-83.3333333333333,4,2,1,5,0,1
66592,-83.3333333333333,4,2,1,90,0,1
68577,-83.3333333333333,4,2,1,5,0,1
68663,-83.3333333333333,4,2,1,90,0,1
69267,-83.3333333333333,4,2,1,5,0,1
69353,-83.3333333333333,4,2,1,90,0,1
70215,-78.125,4,2,1,90,0,1
70474,-78.125,4,2,1,5,0,1
70560,-83.3333333333333,4,2,1,90,0,1
72027,-83.3333333333333,4,2,1,5,0,1
72113,-83.3333333333333,4,2,1,90,0,1
77288,-250,4,2,1,75,0,0
80049,-285.714285714286,4,2,1,75,0,0

[Colours]
Combo1 : 129,124,177
Combo2 : 230,230,230
Combo3 : 160,174,205
Combo4 : 202,209,210

[HitObjects]
219,46,11044,6,0,P|265:38|312:34,1,90,6|0,3:2|0:0,0:0:0:0:
392,50,11389,1,8,0:2:0:0:
392,50,11561,1,0,0:0:0:0:
154,0,11734,2,0,P|114:20|107:68,1,90,2|0,3:2|0:0,0:0:0:0:
204,201,12079,2,0,P|197:158|177:116,1,90,8|0,0:2|0:0,0:0:0:0:
155,321,12424,5,2,3:2:0:0:
124,197,12596,1,0,3:2:0:0:
265,269,12769,2,0,P|257:310|246:356,1,90,8|0,0:2|0:0,0:0:0:0:
55,376,13114,2,0,P|36:308|28:238,1,135,2|0,3:2|0:0,0:0:0:0:
25,162,13459,1,8,0:2:0:0:
109,179,13631,1,0,0:0:0:0:
216,49,13804,6,0,B|283:52|246:62|315:62,1,90,2|0,3:2|0:0,0:0:0:0:
430,55,14149,1,8,0:2:0:0:
430,55,14321,1,0,0:0:0:0:
491,179,14494,2,0,P|507:139|509:86,1,90,2|0,3:2|0:0,0:0:0:0:
356,161,14839,2,0,P|350:203|362:255,1,90,8|0,0:2|0:0,0:0:0:0:
512,354,15184,5,2,3:2:0:0:
430,285,15356,1,0,3:2:0:0:
343,355,15529,2,0,B|338:376|338:376|419:352,1,90,8|0,0:2|0:0,0:0:0:0:
247,356,15874,2,0,B|228:327|228:327|238:259,1,90,2|0,3:2|0:0,0:0:0:0:
131,337,16219,2,0,B|154:313|154:313|164:247,1,90,8|0,0:2|0:0,0:0:0:0:
176,143,16564,6,0,B|229:118|263:170|259:171|255:172|276:219|338:209,2,180,2|8|2,3:2|0:2|3:2,0:0:0:0:
81,177,17426,1,0,0:0:0:0:
19,102,17599,2,0,P|55:79|108:80,1,90,8|0,0:2|0:0,0:0:0:0:
152,236,17944,5,2,3:2:0:0:
57,280,18117,1,0,3:2:0:0:
245,239,18289,5,8,0:2:0:0:
254,134,18462,1,0,0:0:0:0:
198,320,18634,5,2,3:2:0:0:
284,380,18807,1,0,0:0:0:0:
147,219,18979,5,8,0:2:0:0:
52,263,19152,1,0,0:0:0:0:
262,254,19324,6,0,P|264:207|268:154,1,90,2|0,3:2|0:0,0:0:0:0:
344,42,19669,2,0,P|303:58|258:26,1,90,8|0,0:2|0:0,0:0:0:0:
363,145,20014,2,0,P|404:129|449:161,1,90,2|0,3:2|0:0,0:0:0:0:
500,226,20359,2,0,P|497:272|494:326,1,90,8|0,0:2|0:0,0:0:0:0:
413,384,20704,5,2,3:2:0:0:
339,312,20877,1,0,3:2:0:0:
265,382,21049,2,0,P|220:371|168:358,1,90,8|0,0:2|0:0,0:0:0:0:
93,299,21394,5,0,3:2:0:0:
8,347,21567,1,2,0:2:0:0:
26,162,21739,5,10,0:2:0:0:
111,210,21912,1,2,0:2:0:0:
10,64,22084,6,0,B|-24:47|-24:47|50:32|50:32|57:34|57:34|124:19,2,180,6|10|2,3:2|0:2|3:2,0:0:0:0:
102,122,22947,1,2,0:2:0:0:
212,95,23119,2,0,P|218:48|228:-5,1,94.499997116089,10|2,0:2|0:2,0:0:0:0:
431,30,23464,5,2,3:2:0:0:
323,67,23637,1,2,3:2:0:0:
473,194,23809,5,10,0:2:0:0:
494,81,23982,1,2,0:2:0:0:
312,156,24154,5,0,3:2:0:0:
399,230,24327,1,0,0:0:0:0:
405,122,24500,1,10,0:2:0:0:
312,156,24672,1,2,0:2:0:0:
312,156,24845,6,0,B|263:181|224:146|224:142|224:138|178:108|126:134,1,188.999994232178,2|10,3:2|0:2,0:0:0:0:
54,192,25362,1,2,0:2:0:0:
74,383,25535,5,0,3:2:0:0:
29,285,25707,1,2,0:2:0:0:
130,253,25880,2,0,P|176:261|229:264,1,94.499997116089,10|0,0:2|0:0,0:0:0:0:
335,255,26225,5,2,3:2:0:0:
359,354,26397,1,2,3:2:0:0:
503,234,26570,5,8,0:2:0:0:
405,205,26742,1,2,0:2:0:0:
391,121,26915,5,0,3:2:0:0:
464,50,27087,1,2,0:2:0:0:
284,0,27260,5,8,0:2:0:0:
308,99,27432,1,2,0:2:0:0:
210,189,27605,6,0,B|187:196|148:174|148:174|148:182|148:182|110:160|67:170,1,141.749995674133,0|0,3:2|0:0,0:0:0:0:
0,196,27950,2,0,P|-15:238|2:285,1,94.499997116089,8|0,0:2|0:0,0:0:0:0:
130,282,28295,5,2,3:2:0:0:
186,350,28467,1,2,0:2:0:0:
335,382,28640,5,10,0:2:0:0:
391,314,28812,1,2,0:2:0:0:
452,239,28985,2,0,L|478:345,1,94.499997116089,2|0,3:2|3:2,0:0:0:0:
381,308,29330,5,10,0:2:0:0:
363,218,29502,2,0,L|323:58,1,141.749995674133,2|0,0:2|0:0,0:0:0:0:
324,67,29847,1,2,0:2:0:0:
245,3,30020,2,0,P|200:-8|159:12,1,94.499997116089,8|0,0:2|0:0,0:0:0:0:
67,108,30365,2,0,B|107:117|121:82|121:82|52:97|1:59,1,188.999994232178,0|8,3:2|0:2,0:0:0:0:
194,146,31055,5,2,3:2:0:0:
169,241,31227,1,2,0:2:0:0:
351,191,31400,5,10,0:2:0:0:
281,121,31572,1,2,0:2:0:0:
232,310,31745,5,2,3:2:0:0:
326,284,31917,1,2,3:2:0:0:
194,146,32090,5,10,0:2:0:0:
169,241,32263,2,0,B|126:369,1,135.000005149842,2|2,0:2|0:2,0:0:0:0:
109,161,33125,6,0,B|19:164,1,80.9999975280763,0|0,3:2|0:0,0:0:0:0:
80,236,33470,2,0,B|0:239,1,80.9999975280763,8|0,0:2|0:0,0:0:0:0:
147,89,33815,1,2,3:2:0:0:
192,158,33988,1,2,0:2:0:0:
1,128,34160,2,0,P|-4:87|25:52,1,80.9999975280763,10|0,0:2|0:0,0:0:0:0:
201,22,34505,5,2,3:2:0:0:
273,134,34678,1,0,3:2:0:0:
273,134,34850,1,10,0:2:0:0:
280,54,35023,2,0,L|367:38,1,80.9999975280763,2|0,0:2|3:2,0:0:0:0:
496,81,35368,2,0,L|400:96,1,80.9999975280763,2|8,0:2|0:2,0:0:0:0:
315,204,35713,2,0,P|392:209|500:233,1,161.999995056153,2|0,0:2|0:0,0:0:0:0:
512,294,36230,5,10,0:2:0:0:
477,364,36403,2,0,P|438:374|397:361,1,80.9999975280763,2|0,0:2|3:2,0:0:0:0:
357,297,36748,2,0,P|367:258|399:230,1,80.9999975280763,2|8,0:2|0:2,0:0:0:0:
474,226,37093,2,0,P|502:254|510:295,1,80.9999975280763,2|0,0:2|3:2,0:0:0:0:
400,362,37438,1,2,3:2:0:0:
277,292,37610,1,8,0:2:0:0:
155,346,37783,2,0,L|69:334,1,80.9999975280763,2|0,0:2|3:2,0:0:0:0:
148,270,38128,2,0,L|67:259,1,80.9999975280763,2|8,0:2|0:2,0:0:0:0:
0,149,38473,1,2,0:2:0:0:
83,51,38646,6,0,B|131:24|170:55|167:59|164:63|206:102|252:72,1,161.999995056153,0|8,3:2|0:2,0:0:0:0:
325,20,39163,1,2,0:2:0:0:
435,74,39336,2,0,B|463:79|500:28|561:98|480:137|463:79|423:72,1,161.999995056153,2|10,3:2|0:2,0:0:0:0:
312,116,39853,2,0,P|282:142|268:181,1,80.9999975280763,2|0,0:2|3:2,0:0:0:0:
191,202,40198,2,0,P|208:237|209:279,1,80.9999975280763,2|8,3:2|0:2,0:0:0:0:
185,384,40543,2,0,P|155:357|141:318,1,80.9999975280763,2|0,0:2|3:2,0:0:0:0:
64,298,40888,2,0,P|81:263|82:221,1,80.9999975280763,2|8,0:2|0:2,0:0:0:0:
39,111,41233,1,2,0:2:0:0:
191,86,41406,6,0,B|219:60|212:9|212:9|220:59|262:80,1,161.999995056153,0|10,3:2|0:2,0:0:0:0:
135,27,41923,1,2,0:2:0:0:
292,4,42096,2,0,P|329:16|373:25,1,80.9999975280763,2|2,3:2|0:2,0:0:0:0:
497,122,42441,2,0,B|506:90|506:90|409:102,1,121.499996292114,10|0,0:2|0:0,0:0:0:0:
407,104,42786,5,0,3:2:0:0:
389,182,42958,1,0,3:2:0:0:
374,261,43131,1,8,0:2:0:0:
213,279,43476,1,0,3:2:0:0:
345,371,43821,1,8,0:2:0:0:
477,197,44166,6,0,B|485:257|485:257|475:283|475:283|488:372,1,161.999995056153,2|10,3:2|0:2,0:0:0:0:
390,384,44684,2,0,B|327:368|311:326|311:326|337:350|369:345,1,161.999995056153,2|2,0:2|0:2,0:0:0:0:
437,311,45201,1,8,0:2:0:0:
311,211,45374,2,0,P|346:193|394:206,1,80.9999975280763,2|0,0:2|3:2,0:0:0:0:
360,270,45719,1,2,3:2:0:0:
360,270,45891,1,8,0:2:0:0:
222,223,46064,2,0,P|213:175|209:56,1,161.999995056153,2|2,0:2|0:2,0:0:0:0:
276,0,46581,1,8,0:2:0:0:
354,42,46754,6,0,L|340:126,1,80.9999975280763,2|0,2:2|2:2,2:0:0:0:
434,31,47099,2,0,L|421:111,1,80.9999975280763,2|8,0:2|0:2,0:0:0:0:
335,218,47444,2,0,L|347:137,1,80.9999975280763,2|0,0:2|3:2,0:0:0:0:
431,136,47789,2,0,L|418:217,2,80.9999975280763,2|8|2,0:2|0:2|0:2,0:0:0:0:
499,275,48306,5,0,3:2:0:0:
393,307,48479,1,0,3:2:0:0:
285,338,48651,2,0,L|206:317,1,80.9999975280763,8|0,0:2|3:0,3:0:0:0:
60,285,48996,1,2,3:2:0:0:
145,384,49169,1,2,0:2:0:0:
206,317,49341,1,8,0:2:0:0:
145,235,49514,6,0,B|125:193|151:154|155:154|159:154|188:124|169:68,1,161.999995056153,2|2,0:2|0:2,0:0:0:0:
72,0,50031,1,8,0:2:0:0:
21,107,50204,2,0,P|59:115|98:100,1,80.9999975280763,2|0,0:2|3:2,0:0:0:0:
72,0,50549,2,0,P|34:-3|-4:29,1,80.9999975280763,2|8,0:2|0:2,0:0:0:0:
172,82,50894,1,2,0:2:0:0:
266,53,51067,2,0,B|255:37|263:10|263:10|252:37|230:47,1,80.9999975280763,0|0,3:2|3:2,0:0:0:0:
235,160,51412,5,10,0:2:0:0:
235,160,51584,2,0,P|247:199|270:235,1,80.9999975280763,2|0,0:2|3:2,0:0:0:0:
389,137,51929,2,0,P|349:138|314:167,1,80.9999975280763,2|8,0:2|0:2,0:0:0:0:
379,214,52274,1,2,0:2:0:0:
484,264,52447,6,0,B|464:276|443:266|443:266|463:255|484:264,2,80.9999975280763,0|8|2,3:2|0:2|3:2,0:0:0:0:
484,264,54517,5,4,0:2:0:0:
459,125,55207,6,0,P|471:178|464:124,1,161.999995056153,6|0,3:2|0:0,0:0:0:0:
412,32,55552,2,0,B|414:11|432:-4|432:-4|399:-2|388:40,1,107.999996704102,10|2,0:2|0:2,0:0:0:0:
361,116,55897,5,2,3:2:0:0:
268,71,56069,1,2,0:2:0:0:
128,145,56242,2,0,P|72:137|12:123,1,107.999996704102,10|2,0:2|0:2,0:0:0:0:
108,12,56587,5,2,3:2:0:0:
0,47,56759,1,2,3:2:0:0:
10,279,56931,5,10,0:2:0:0:
107,214,57104,1,2,0:2:0:0:
212,384,57276,5,0,3:2:0:0:
190,262,57449,1,0,0:0:0:0:
242,42,57622,5,10,0:2:0:0:
198,162,57795,1,2,0:2:0:0:
399,152,57967,6,0,B|321:134|321:134|277:156|293:201,1,161.999995056153,2|0,3:2|0:0,0:0:0:0:
301,218,58312,1,10,0:2:0:0:
444,305,58485,2,0,B|463:330|449:368|449:368|449:344|438:327,1,107.999996704102,2|0,0:2|3:2,0:0:0:0:
289,338,58830,1,2,0:2:0:0:
219,268,59002,2,0,P|281:253|382:246,1,161.999995056153,10|0,0:2|0:0,0:0:0:0:
508,251,59347,5,2,3:2:0:0:
489,374,59520,1,2,3:2:0:0:
407,316,59692,5,8,0:2:0:0:
378,245,59865,1,2,0:2:0:0:
442,195,60037,5,0,3:2:0:0:
327,301,60210,1,2,0:2:0:0:
316,191,60382,5,8,0:2:0:0:
354,377,60555,1,2,0:2:0:0:
261,248,60727,6,0,B|218:248|196:208|196:208|196:215|196:215|180:179|131:172,1,161.999995056153,0|0,3:2|0:0,0:0:0:0:
85,192,61072,2,0,B|109:180|109:180|84:98,1,107.999996704102,8|0,0:2|0:0,0:0:0:0:
7,71,61417,5,2,3:2:0:0:
106,11,61589,1,2,0:2:0:0:
217,52,61762,1,10,0:2:0:0:
290,4,61934,1,2,0:2:0:0:
397,36,62107,2,0,L|416:142,1,107.999996704102,2|0,3:2|3:2,0:0:0:0:
481,193,62452,5,10,0:2:0:0:
376,350,62624,2,0,P|412:281|432:348,1,161.999995056153,2|0,0:2|0:0,0:0:0:0:
440,343,62969,1,2,0:2:0:0:
291,384,63142,2,0,P|275:337|290:274,1,107.999996704102,8|0,0:2|0:0,0:0:0:0:
379,207,63487,6,0,B|344:164|344:164|283:190|241:150,1,161.999995056153,0|0,3:2|0:0,0:0:0:0:
228,81,63832,2,0,B|198:128|198:128|218:109|261:102,1,107.999996704102,8|0,0:2|0:0,0:0:0:0:
315,23,64177,5,2,3:2:0:0:
417,39,64349,1,2,0:2:0:0:
501,107,64523,5,10,0:2:0:0:
399,123,64695,1,2,0:2:0:0:
446,192,64868,5,2,3:2:0:0:
497,200,65040,1,2,3:2:0:0:
467,277,65212,5,10,0:2:0:0:
467,277,65384,2,0,B|493:261|516:291|516:291|460:283|413:319,1,161.999995056153,2|0,0:2|0:0,0:0:0:0:
402,330,65730,1,2,0:2:0:0:
293,363,65902,2,0,B|316:349|316:349|329:270,1,107.999996704102,10|2,0:2|0:2,0:0:0:0:
293,167,66248,6,0,P|217:167|131:141,1,161.999995056153,4|0,3:2|0:0,0:0:0:0:
102,147,66593,2,0,P|51:164|39:217,1,107.999996704102,10|2,0:2|0:2,0:0:0:0:
87,309,66938,5,0,3:2:0:0:
168,238,67110,1,2,0:2:0:0:
272,297,67283,2,0,L|158:314,1,107.999996704102,10|2,0:2|0:2,0:0:0:0:
50,379,67628,5,0,3:2:0:0:
10,278,67800,1,2,3:2:0:0:
88,203,67973,2,0,L|207:221,1,107.999996704102,10|2,0:2|0:2,0:0:0:0:
294,177,68318,2,0,B|322:141|289:94|288:97|287:101|253:74|274:22,1,161.999995056153,0|0,3:2|0:0,0:0:0:0:
296,3,68663,2,0,B|326:-19|355:2|355:2|331:0|306:27,1,107.999996704102,10|2,0:2|0:2,0:0:0:0:
149,123,69008,6,0,B|193:90|193:90|79:74,1,161.999995056153,2|0,3:2|0:0,0:0:0:0:
59,72,69353,1,10,0:2:0:0:
66,179,69525,2,0,B|56:229|26:205|18:272,1,107.999996704102,2|2,0:2|3:2,0:0:0:0:
94,349,69870,5,2,0:2:0:0:
133,248,70043,1,10,0:2:0:0:
273,360,70215,2,0,B|216:323|233:262|233:262|245:303|280:316,1,172.8,2|0,0:2|0:0,0:0:0:0:
299,307,70560,1,2,3:2:0:0:
377,232,70733,1,8,0:2:0:0:
375,339,70905,1,2,0:2:0:0:
301,217,71078,2,0,P|289:162|283:108,1,107.999996704102,0|2,3:2|0:2,0:0:0:0:
388,17,71423,2,0,P|378:71|373:125,1,107.999996704102,8|2,0:2|0:2,0:0:0:0:
419,221,71768,6,0,B|372:250|337:219|337:214|294:199|250:240,1,161.999995056153,2|0,3:2|0:0,0:0:0:0:
239,248,72113,1,10,0:2:0:0:
153,181,72286,2,0,P|123:224|132:278,1,107.999996704102,2|0,0:2|3:2,0:0:0:0:
229,156,72631,1,2,0:2:0:0:
177,61,72803,5,10,0:2:0:0:
276,18,72976,2,0,L|386:35,1,107.999996704102,2|0,0:2|3:2,0:0:0:0:
488,57,73321,1,2,3:2:0:0:
414,135,73493,2,0,B|362:177|403:241|402:221|447:284|386:341,1,215.999993408203,8|0,0:2|3:2,0:0:0:0:
301,384,74011,2,0,L|282:265,1,107.999996704102,2|8,0:2|0:2,0:0:0:0:
212,195,74356,1,2,0:2:0:0:
111,234,74528,6,0,L|131:112,1,107.999996704102,0|0,3:2|0:0,0:0:0:0:
207,52,74873,1,8,0:2:0:0:
100,30,75046,1,0,0:0:0:0:
260,122,75218,6,0,P|316:117|374:104,1,107.999996704102,0|0,3:2|0:0,0:0:0:0:
464,59,75563,1,8,0:2:0:0:
359,18,75736,1,0,0:0:0:0:
490,163,75908,6,0,P|492:220|467:270,1,107.999996704102,0|0,3:2|3:2,0:0:0:0:
317,236,76253,2,0,P|357:206|421:207,1,107.999996704102,8|0,0:2|0:0,0:0:0:0:
391,310,76598,5,0,3:2:0:0:
389,326,76943,1,8,0:2:0:0:
108,321,77288,2,0,B|168:333|168:333|176:353|176:353|230:385,1,144,2|0,3:1|0:0,0:0:0:0:
263,37,78669,2,0,B|281:24|281:24|261:10|258:-18|258:-18|246:8|224:14|224:14|240:37,1,144,2|0,0:1|0:0,0:0:0:0:
257,194,80049,6,0,B|241:191|228:270|20:156|253:112|241:191|257:194,1,188.999994232178,2|0,0:1|0:0,0:0:0:0:
