osu file format v14

[General]
AudioFilename: audio.mp3
AudioLeadIn: 0
PreviewTime: 11000
Countdown: 0
SampleSet: Soft
StackLeniency: 0.7
Mode: 0
LetterboxInBreaks: 0
EpilepsyWarning: 1
WidescreenStoryboard: 1

[Editor]
Bookmarks: 11044,22084,33125,44166,55207,77288
DistanceSpacing: 0.3
BeatDivisor: 4
GridSize: 16
TimelineZoom: 2.999999

[Metadata]
Title:you
TitleUnicode:you
Artist:m1v
ArtistUnicode:m1v
Creator:Aranel
Version:muya-'s hard
Source:
Tags:suicide letter to myself english hyperpop pop alternative glitchcore bass emo omori omoricat hyper lugu muya- binarie
BeatmapID:3594876
BeatmapSetID:1748483

[Difficulty]
HPDrainRate:5
CircleSize:3.6
OverallDifficulty:6.4
ApproachRate:8
SliderMultiplier:1.5
SliderTickRate:1

[Events]
//Background and Video events
0,0,"soon.png",0,0
//Break Periods
//Storyboard Layer 0 (Background)
//Storyboard Layer 1 (Fail)
//Storyboard Layer 2 (Pass)
//Storyboard Layer 3 (Foreground)
//Storyboard Layer 4 (Overlay)
//Storyboard Sound Samples

[TimingPoints]
11044,345.025876940771,4,2,1,80,1,0
11044,-95.2380952380952,4,2,1,80,0,0
22084,-90.9090909090909,4,2,1,90,0,1
32263,-90.9090909090909,4,2,1,80,0,1
33125,-100,4,2,1,70,0,0
52447,-111.111111111111,4,2,1,70,0,0
54517,-111.111111111111,4,2,1,70,0,1
54689,-111.111111111111,4,2,1,70,0,0
55207,-90.9090909090909,4,2,1,90,0,1
66075,-90.9090909090909,4,2,1,90,0,0
66248,-90.9090909090909,4,2,1,90,0,1
77288,-90.9090909090909,4,2,1,75,0,0

[Colours]
Combo1 : 129,124,177
Combo2 : 230,230,230
Combo3 : 160,174,205
Combo4 : 202,209,210

[HitObjects]
379,359,11044,5,6,3:2:0:0:
379,359,11216,1,0,0:0:0:0:
456,304,11389,2,0,P|476:265|466:225,1,78.7499975967408,8|0,0:2|0:0,0:0:0:0:
390,180,11734,2,0,B|306:154|307:223|229:213,1,157.499995193482,2|8,3:2|0:2,0:0:0:0:
242,213,12251,1,0,0:0:0:0:
166,114,12424,6,0,P|204:120|246:129,1,78.7499975967408,2|0,3:2|3:2,0:0:0:0:
276,39,12769,2,0,P|237:31|198:24,1,78.7499975967408,8|0,0:2|0:0,0:0:0:0:
97,43,13114,2,0,P|116:122|136:209,1,157.499995193482,2|8,3:2|0:2,0:0:0:0:
0,382,13804,6,0,P|-23:321|52:280,1,157.499995193482,2|8,3:2|0:2,0:0:0:0:
141,293,14321,1,0,0:0:0:0:
141,293,14494,2,0,P|177:319|217:313,1,78.7499975967408,2|0,3:2|0:0,0:0:0:0:
297,351,14839,2,0,P|323:314|317:275,1,78.7499975967408,8|0,0:2|0:0,0:0:0:0:
279,180,15184,5,2,3:2:0:0:
279,180,15356,1,0,3:2:0:0:
354,122,15529,2,0,L|454:142,1,78.7499975967408,8|0,0:2|0:0,0:0:0:0:
467,50,15874,2,0,P|381:34|308:20,1,157.499995193482,2|8,3:2|0:2,0:0:0:0:
115,79,16564,5,2,3:2:0:0:
115,79,16736,1,0,0:0:0:0:
164,160,16909,2,0,P|187:200|176:246,1,78.7499975967408,8|0,0:2|0:0,0:0:0:0:
111,291,17254,2,0,P|72:263|89:148,1,157.499995193482,2|8,3:2|0:2,0:0:0:0:
74,162,17771,1,0,0:0:0:0:
202,87,17944,6,0,P|242:96|280:104,1,78.7499975967408,2|0,3:2|3:2,0:0:0:0:
259,196,18289,2,0,P|220:188|182:179,1,78.7499975967408,8|0,0:2|0:0,0:0:0:0:
188,74,18634,2,0,P|259:92|364:112,1,157.499995193482,2|8,3:2|0:2,0:0:0:0:
512,0,19324,6,0,P|444:29|454:111,1,157.499995193482,2|8,3:2|0:2,0:0:0:0:
490,192,19841,1,0,0:0:0:0:
490,192,20014,2,0,P|513:225|509:268,1,78.7499975967408,2|0,3:2|0:0,0:0:0:0:
485,353,20359,2,0,P|452:376|409:372,1,78.7499975967408,8|0,0:2|0:0,0:0:0:0:
335,302,20704,5,2,3:2:0:0:
335,302,20876,1,0,3:2:0:0:
283,214,21049,2,0,P|253:192|197:193,1,78.7499975967408,8|0,0:2|0:0,0:0:0:0:
135,239,21394,1,0,3:2:0:0:
135,239,21567,1,2,0:2:0:0:
169,327,21739,2,0,P|214:297|225:254,1,78.7499975967408,10|2,0:2|0:2,0:0:0:0:
138,151,22084,6,0,P|97:159|56:166,1,82.5000025177003,6|0,3:2|0:0,0:0:0:0:
21,69,22429,1,10,0:2:0:0:
21,69,22602,2,0,P|61:62|102:54,1,82.5000025177003,2|2,0:2|3:2,0:0:0:0:
199,5,22947,1,2,0:2:0:0:
199,5,23119,1,10,0:2:0:0:
283,76,23292,6,0,P|308:114|296:162,1,82.5000025177003,2|2,0:2|3:2,0:0:0:0:
205,193,23637,2,0,P|180:155|192:107,1,82.5000025177003,2|10,3:2|0:2,0:0:0:0:
283,234,23982,1,2,0:2:0:0:
283,234,24154,2,0,B|368:206|367:264|444:268,1,165.000005035401,0|10,3:2|0:2,0:0:0:0:
512,223,24672,1,2,0:2:0:0:
416,168,24845,6,0,P|428:223|454:340,1,165.000005035401,2|10,3:2|0:2,0:0:0:0:
353,384,25362,2,0,P|344:347|331:290,1,82.5000025177003,2|0,0:2|3:2,0:0:0:0:
296,201,25707,2,0,P|262:178|220:178,2,82.5000025177003,2|10|0,0:2|0:2|0:0,0:0:0:0:
225,296,26225,5,2,3:2:0:0:
225,296,26397,2,0,P|188:316|144:312,1,82.5000025177003,2|8,3:2|0:2,0:0:0:0:
41,304,26742,2,0,P|28:268|38:226,1,82.5000025177003,2|0,0:2|3:2,0:0:0:0:
1,124,27087,2,0,P|37:111|78:125,1,82.5000025177003,2|8,0:2|0:2,0:0:0:0:
139,212,27432,1,2,0:2:0:0:
236,167,27605,6,0,P|252:77|282:-9,1,165.000005035401,0|8,3:2|0:2,0:0:0:0:
431,150,28295,1,2,3:2:0:0:
431,150,28467,1,2,0:2:0:0:
494,80,28640,2,0,P|447:51|415:51,1,82.5000025177003,10|2,0:2|0:2,0:0:0:0:
330,108,28985,5,2,3:2:0:0:
330,108,29157,2,0,P|338:144|347:191,1,82.5000025177003,0|10,3:2|0:2,0:0:0:0:
242,217,29502,2,0,P|234:175|224:126,1,82.5000025177003,2|0,0:2|3:2,0:0:0:0:
128,167,29847,2,0,P|136:207|143:247,2,82.5000025177003,2|8|0,0:2|0:2|0:0,0:0:0:0:
12,148,30365,6,0,P|32:242|46:329,1,165.000005035401,0|8,3:2|0:2,0:0:0:0:
226,384,31055,1,2,3:2:0:0:
226,384,31228,1,2,0:2:0:0:
304,323,31400,2,0,P|326:286|313:223,1,82.5000025177003,10|2,0:2|0:2,0:0:0:0:
246,182,31745,5,2,3:2:0:0:
246,182,31918,2,0,P|209:142|207:100,1,82.5000025177003,2|10,3:2|0:2,0:0:0:0:
253,28,32263,2,0,P|292:38|340:48,1,82.5000025177003,2|0,0:2|3:2,0:0:0:0:
449,45,32608,2,0,P|366:58|372:153,1,165.000005035401,2|0,0:2|0:0,0:0:0:0:
429,188,33125,6,0,P|455:224|457:269,1,75,0|0,3:2|0:0,0:0:0:0:
369,293,33470,2,0,P|343:257|341:212,1,75,8|0,0:2|0:0,0:0:0:0:
353,127,33815,1,2,3:2:0:0:
353,127,33988,1,2,0:2:0:0:
286,56,34160,1,10,0:2:0:0:
149,172,34505,6,0,P|113:199|59:199,2,75,2|0|10,3:2|3:2|0:2,0:0:0:0:
160,76,35023,2,0,P|146:37|132:0,1,75,2|0,0:2|3:2,0:0:0:0:
48,35,35368,2,0,P|61:70|73:105,1,75,2|8,0:2|0:2,0:0:0:0:
73,105,35713,1,2,0:2:0:0:
146,174,35885,2,0,P|118:253|103:324,1,150,0|10,3:2|0:2,0:0:0:0:
169,380,36403,2,0,P|188:353|192:303,1,75,2|0,0:2|3:2,0:0:0:0:
279,284,36748,2,0,P|265:254|223:225,1,75,2|8,0:2|0:2,0:0:0:0:
146,174,37093,6,0,P|120:142|120:85,1,75,2|0,0:2|3:2,0:0:0:0:
158,31,37438,2,0,P|198:24|248:52,1,75,2|8,3:2|0:2,0:0:0:0:
306,83,37783,2,0,P|294:129|285:171,1,75,2|0,0:2|3:2,0:0:0:0:
380,177,38128,2,0,P|387:141|397:105,1,75,2|8,0:2|0:2,0:0:0:0:
397,105,38473,1,2,0:2:0:0:
298,72,38646,6,0,P|278:155|258:229,1,150,0|8,3:2|0:2,0:0:0:0:
359,350,39336,2,0,P|397:353|436:330,2,75,2|2|10,3:2|0:2|0:2,0:0:0:0:
279,307,39853,2,0,P|255:286|198:280,1,75,2|0,0:2|3:2,0:0:0:0:
190,189,40198,2,0,P|159:199|126:245,1,75,2|8,3:2|0:2,0:0:0:0:
48,266,40543,2,0,P|62:305|74:351,1,75,2|0,0:2|3:2,0:0:0:0:
154,302,40888,2,0,P|143:265|131:230,1,75,2|8,0:2|0:2,0:0:0:0:
131,230,41233,1,2,0:2:0:0:
205,149,41406,6,0,B|282:126|285:178|357:180,1,150,0|10,3:2|0:2,0:0:0:0:
437,204,41923,1,2,0:2:0:0:
437,204,42096,2,0,P|442:172|427:132,1,75,2|2,3:2|0:2,0:0:0:0:
347,80,42441,1,10,0:2:0:0:
239,225,42786,5,0,3:2:0:0:
239,225,42958,1,0,3:2:0:0:
300,292,43131,1,8,0:2:0:0:
154,384,43476,2,0,P|136:318|110:236,1,150,0|8,3:2|0:2,0:0:0:0:
298,293,44166,6,0,B|389:280|365:343|458:348,1,150,2|10,3:2|0:2,0:0:0:0:
504,289,44684,2,0,P|511:253|493:210,1,75,2|0,0:2|3:2,0:0:0:0:
508,127,45029,2,0,P|480:102|434:97,1,75,2|8,0:2|0:2,0:0:0:0:
344,72,45374,2,0,P|368:158|385:224,1,150,2|2,0:2|3:2,0:0:0:0:
383,216,45891,1,8,0:2:0:0:
292,209,46064,2,0,P|281:168|267:118,1,75,2|0,0:2|3:2,0:0:0:0:
182,135,46409,2,0,P|192:171|201:207,1,75,2|8,0:2|0:2,0:0:0:0:
126,273,46754,6,0,P|112:216|85:126,1,150,2|2,0:2|0:2,0:0:0:0:
72,36,47271,1,8,0:2:0:0:
72,36,47444,2,0,P|99:33|142:61,1,75,2|0,0:2|3:2,0:0:0:0:
182,135,47789,2,0,P|213:165|261:173,2,75,2|8|2,0:2|0:2|0:2,0:0:0:0:
234,52,48306,1,0,3:2:0:0:
234,52,48479,1,0,3:2:0:0:
310,115,48651,1,8,0:2:0:0:
472,43,48996,1,2,3:2:0:0:
472,43,49169,2,0,P|445:17|380:17,1,75,2|8,0:2|0:2,0:0:0:0:
334,74,49514,6,0,P|355:166|368:228,1,150,2|2,0:2|0:2,0:0:0:0:
433,287,50031,1,8,0:2:0:0:
433,287,50204,2,0,P|454:258|455:213,1,75,2|0,0:2|3:2,0:0:0:0:
489,134,50549,2,0,P|474:101|434:76,1,75,2|8,0:2|0:2,0:0:0:0:
345,122,50894,2,0,B|273:112|270:171|212:189,1,150,2|0,0:2|3:2,0:0:0:0:
146,140,51412,1,10,0:2:0:0:
146,140,51584,2,0,P|153:99|163:55,1,75,2|0,0:2|3:2,0:0:0:0:
74,40,51929,2,0,P|66:76|59:113,1,75,2|8,0:2|0:2,0:0:0:0:
59,113,52274,1,2,0:2:0:0:
85,217,52447,6,0,B|148:227|148:227|153:230|153:230|224:242,2,134.999995880127,0|0|8,3:2|0:0|0:2,0:0:0:0:
21,329,53482,1,2,0:0:0:0:
159,356,53827,2,0,B|203:291|134:211|106:228|110:253|25:200|63:113,1,269.999991760254,2|6,3:2|0:1,0:0:0:0:
338,5,55207,6,0,P|324:51|314:91,1,82.5000025177003,6|0,3:2|0:0,0:0:0:0:
239,160,55552,1,10,0:2:0:0:
239,160,55725,2,0,P|252:201|264:247,1,82.5000025177003,2|2,0:2|3:2,0:0:0:0:
293,346,56070,1,2,0:2:0:0:
293,346,56242,1,10,0:2:0:0:
400,337,56415,6,0,P|397:299|362:263,1,82.5000025177003,2|2,0:2|3:2,0:0:0:0:
262,239,56759,2,0,P|226:264|181:266,1,82.5000025177003,2|10,3:2|0:2,0:0:0:0:
102,174,57105,1,2,0:2:0:0:
102,174,57277,2,0,P|161:177|187:268,1,165.000005035401,0|10,3:2|0:2,0:0:0:0:
98,333,57795,1,2,0:2:0:0:
0,276,57968,6,0,P|11:224|35:104,1,165.000005035401,2|10,3:2|0:2,0:0:0:0:
105,35,58485,2,0,P|142:28|186:55,1,82.5000025177003,2|0,0:2|3:2,0:0:0:0:
242,135,58830,2,0,P|273:165|315:170,2,82.5000025177003,2|10|2,0:2|0:2|0:0,0:0:0:0:
294,26,59348,5,2,3:2:0:0:
294,26,59520,2,0,P|332:27|369:58,1,82.5000025177003,2|8,3:2|0:2,0:0:0:0:
473,57,59865,2,0,P|471:94|441:131,1,82.5000025177003,2|0,0:2|3:2,0:0:0:0:
448,236,60210,2,0,P|410:234|373:204,1,82.5000025177003,2|8,0:2|0:2,0:0:0:0:
299,132,60555,1,2,0:2:0:0:
208,210,60728,6,0,B|204:257|242:296|260:259|298:314|282:363,1,165.000005035401,0|8,3:2|0:2,0:0:0:0:
80,384,61418,1,2,3:2:0:0:
80,384,61590,1,2,0:2:0:0:
2,314,61763,2,0,P|-16:279|-3:223,1,82.5000025177003,10|2,0:2|0:2,0:0:0:0:
67,164,62108,5,2,3:2:0:0:
67,164,62280,1,0,3:2:0:0:
156,104,62452,1,10,0:2:0:0:
156,104,62625,2,0,P|181:69|185:23,1,82.5000025177003,2|0,0:2|3:2,0:0:0:0:
86,4,62970,1,2,0:2:0:0:
86,4,63142,2,0,P|61:39|57:85,1,82.5000025177003,8|0,0:2|0:0,0:0:0:0:
156,190,63488,6,0,B|238:170|241:238|326:216,1,165.000005035401,0|8,3:2|0:2,0:0:0:0:
488,81,64178,1,2,3:2:0:0:
488,81,64351,1,2,0:2:0:0:
391,35,64523,2,0,P|377:80|388:118,1,82.5000025177003,10|2,0:2|0:2,0:0:0:0:
458,200,64868,5,2,3:2:0:0:
458,200,65041,2,0,P|486:236|485:276,1,82.5000025177003,2|10,3:2|0:2,0:0:0:0:
440,368,65386,2,0,P|401:358|359:350,1,82.5000025177003,2|0,0:2|3:2,0:0:0:0:
253,338,65730,1,2,0:2:0:0:
316,248,65903,1,10,0:2:0:0:
316,248,66075,1,2,0:2:0:0:
235,159,66248,6,0,B|159:130|149:199|69:194,1,165.000005035401,4|10,3:2|0:2,0:0:0:0:
3,98,66765,2,0,P|45:107|98:115,1,82.5000025177003,2|0,0:2|3:2,0:0:0:0:
186,159,67110,1,2,0:2:0:0:
186,159,67283,1,10,0:2:0:0:
284,98,67455,6,0,P|272:56|257:9,1,82.5000025177003,2|0,0:2|3:2,0:0:0:0:
399,0,67800,2,0,P|386:39|375:79,1,82.5000025177003,2|10,3:2|0:2,0:0:0:0:
337,184,68145,2,0,P|319:219|332:267,1,82.5000025177003,2|0,0:2|3:2,0:0:0:0:
363,353,68490,2,0,P|398:371|446:358,1,82.5000025177003,2|10,0:2|0:2,0:0:0:0:
512,296,68835,1,2,0:2:0:0:
471,185,69008,6,0,B|408:162|420:103|319:91,1,165.000005035401,2|10,3:2|0:2,0:0:0:0:
251,151,69525,2,0,P|213:176|168:178,1,82.5000025177003,2|2,0:2|3:2,0:0:0:0:
79,148,69870,1,2,0:2:0:0:
79,148,70043,1,10,0:2:0:0:
189,98,70215,6,0,P|181:146|173:196,1,82.5000025177003,2|0,0:2|3:2,0:0:0:0:
279,207,70560,2,0,P|285:166|291:125,1,82.5000025177003,2|8,3:2|0:2,0:0:0:0:
182,99,70905,2,0,P|174:147|166:197,1,82.5000025177003,2|0,0:2|3:2,0:0:0:0:
271,209,71251,2,0,P|277:168|283:127,1,82.5000025177003,2|8,0:2|0:2,0:0:0:0:
303,18,71596,1,2,0:2:0:0:
390,104,71768,6,0,P|370:203|358:282,1,165.000005035401,2|10,3:2|0:2,0:0:0:0:
426,350,72286,2,0,P|446:321|448:263,1,82.5000025177003,2|0,0:2|3:2,0:0:0:0:
374,209,72631,1,2,0:2:0:0:
374,209,72803,1,10,0:2:0:0:
286,288,72976,6,0,P|248:310|199:304,1,82.5000025177003,2|0,0:2|3:2,0:0:0:0:
107,340,73321,2,0,P|84:301|91:252,1,82.5000025177003,2|8,3:2|0:2,0:0:0:0:
169,195,73666,2,0,P|191:156|185:107,1,82.5000025177003,2|0,0:2|3:2,0:0:0:0:
189,119,74011,1,2,0:2:0:0:
88,82,74183,2,0,P|66:120|72:169,1,82.5000025177003,8|2,0:2|0:2,0:0:0:0:
171,280,74528,6,0,P|249:293|345:313,1,165.000005035401,0|8,3:2|0:2,0:0:0:0:
333,310,75046,1,0,0:0:0:0:
372,210,75218,2,0,P|334:202|275:189,1,82.5000025177003,0|0,3:2|0:0,0:0:0:0:
317,88,75563,2,0,P|357:96|397:105,1,82.5000025177003,8|0,0:2|0:0,0:0:0:0:
512,93,75908,5,0,3:2:0:0:
512,93,76081,1,0,3:2:0:0:
419,31,76253,2,0,P|397:61|400:111,1,82.5000025177003,8|0,0:2|0:0,0:0:0:0:
472,193,76598,2,0,P|519:264|490:357,1,165.000005035401,0|8,3:2|0:2,0:0:0:0:
292,384,77288,5,2,3:1:0:0:
258,256,78669,5,2,0:1:0:0:
219,129,80049,5,2,0:1:0:0:
