osu file format v14

[General]
AudioFilename: audio.mp3
AudioLeadIn: 0
PreviewTime: 11000
Countdown: 0
SampleSet: Soft
StackLeniency: 0.7
Mode: 0
LetterboxInBreaks: 0
EpilepsyWarning: 1
WidescreenStoryboard: 1

[Editor]
Bookmarks: 11044,13804,16564,19324,22084,27605,33125,38646,44166,49686,55207,60727,66248,71768,77288
DistanceSpacing: 0.3
BeatDivisor: 4
GridSize: 4
TimelineZoom: 2.999999

[Metadata]
Title:you
TitleUnicode:you
Artist:m1v
ArtistUnicode:m1v
Creator:Aranel
Version:lugu's insane
Source:
Tags:suicide letter to myself english hyperpop pop alternative glitchcore bass emo omori omoricat hyper lugu muya- binarie
BeatmapID:3594765
BeatmapSetID:1748483

[Difficulty]
HPDrainRate:5.2
CircleSize:3.9
OverallDifficulty:7.5
ApproachRate:8.8
SliderMultiplier:1.7
SliderTickRate:1

[Events]
//Background and Video events
0,0,"soon.png",0,0
//Break Periods
//Storyboard Layer 0 (Background)
//Storyboard Layer 1 (Fail)
//Storyboard Layer 2 (Pass)
//Storyboard Layer 3 (Foreground)
//Storyboard Layer 4 (Overlay)
//Storyboard Sound Samples

[TimingPoints]
11044,345.025876940771,4,2,1,80,1,0
11044,-100,4,2,1,80,0,0
16133,-100,4,2,1,5,0,0
16219,-100,4,2,1,80,0,0
16478,-100,4,2,1,80,0,0
16564,-100,4,2,1,80,0,0
22084,-100,4,2,1,90,0,0
22429,-95.2380952380952,4,2,1,90,0,0
27864,-95.2380952380952,4,2,1,5,0,0
27950,-95.2380952380952,4,2,1,90,0,0
29761,-95.2380952380952,4,2,1,5,0,0
29847,-95.2380952380952,4,2,1,90,0,0
32263,-133.333333333333,4,2,1,80,0,0
33125,-111.111111111111,4,2,1,70,0,0
33470,-111.111111111111,4,2,1,70,0,0
34160,-111.111111111111,4,2,1,70,0,0
42700,-111.111111111111,4,2,1,5,0,0
42786,-111.111111111111,4,2,1,70,0,0
52447,-444.444444444444,4,2,1,70,0,0
53137,-125,4,2,1,70,0,0
55207,-83.3333333333333,4,2,1,90,0,1
55466,-83.3333333333333,4,2,1,5,0,1
55552,-83.3333333333333,4,2,1,90,0,1
58226,-83.3333333333333,4,2,1,5,0,1
58312,-83.3333333333333,4,2,1,90,0,1
59347,-83.3333333333333,4,2,1,90,0,1
60986,-83.3333333333333,4,2,1,90,0,1
61072,-83.3333333333333,4,2,1,90,0,1
62884,-83.3333333333333,4,2,1,5,0,1
62970,-83.3333333333333,4,2,1,90,0,1
63746,-83.3333333333333,4,2,1,5,0,1
63832,-83.3333333333333,4,2,1,90,0,1
65644,-83.3333333333333,4,2,1,5,0,1
65730,-83.3333333333333,4,2,1,90,0,1
66506,-83.3333333333333,4,2,1,5,0,1
66592,-83.3333333333333,4,2,1,90,0,1
68577,-83.3333333333333,4,2,1,5,0,1
68663,-83.3333333333333,4,2,1,90,0,1
69267,-83.3333333333333,4,2,1,5,0,1
69353,-83.3333333333333,4,2,1,90,0,1
70215,-78.125,4,2,1,90,0,1
70474,-78.125,4,2,1,5,0,1
70560,-83.3333333333333,4,2,1,90,0,1
72027,-83.3333333333333,4,2,1,5,0,1
72113,-83.3333333333333,4,2,1,90,0,1
77288,-83.3333333333333,4,2,1,75,0,0

[Colours]
Combo1 : 129,124,177
Combo2 : 230,230,230
Combo3 : 160,174,205
Combo4 : 202,209,210

[HitObjects]
58,142,11044,6,0,P|109:148|232:174,1,170,6|8,3:2|0:2,0:0:0:0:
298,138,11561,1,0,0:0:0:0:
123,256,11734,2,0,P|140:295|153:352,1,85,2|0,3:2|0:0,0:0:0:0:
295,382,12079,2,0,P|278:343|267:301,1,85,8|0,0:2|0:0,0:0:0:0:
328,256,12424,5,2,3:2:0:0:
328,256,12596,1,0,3:2:0:0:
512,162,12769,2,0,P|472:157|422:142,1,85,8|0,0:2|0:0,0:0:0:0:
327,24,13114,2,0,P|259:37|184:138,1,170,2|8,3:2|0:2,0:0:0:0:
293,153,13631,1,0,0:0:0:0:
106,182,13804,6,0,P|55:192|7:211,1,85,2|0,3:2|0:0,0:0:0:0:
167,308,14149,2,0,P|216:296|327:242,1,170,8|2,0:2|3:2,0:0:0:0:
323,244,14666,1,0,0:0:0:0:
400,368,14839,2,0,P|420:320|402:279,1,85,8|0,0:2|0:0,0:0:0:0:
279,145,15184,5,2,3:2:0:0:
279,145,15356,1,0,3:2:0:0:
104,157,15529,2,0,P|156:166|199:182,1,85,8|0,0:2|0:0,0:0:0:0:
407,88,15874,2,0,P|350:72|257:27,1,127.5,2|0,3:2|0:0,0:0:0:0:
216,12,16219,2,0,L|129:30,1,85,8|0,0:2|0:0,0:0:0:0:
47,234,16564,6,0,P|12:195|14:73,2,170,2|8|2,3:2|0:2|3:2,0:0:0:0:
120,378,17426,1,0,0:0:0:0:
223,270,17599,2,0,P|179:276|127:286,1,85,8|0,0:2|0:0,0:0:0:0:
279,192,17944,5,2,3:2:0:0:
279,192,18117,1,0,3:2:0:0:
328,322,18289,2,0,P|339:266|406:148,1,170,8|2,0:2|3:2,0:0:0:0:
450,234,18807,1,0,0:0:0:0:
491,136,18979,2,0,P|479:88|442:60,1,85,8|0,0:2|0:0,0:0:0:0:
304,18,19324,6,0,P|263:46|126:69,1,170,2|8,3:2|0:2,0:0:0:0:
146,71,19842,1,0,0:0:0:0:
46,237,20014,2,0,P|8:209|12:163,1,85,2|0,3:2|0:0,0:0:0:0:
31,90,20359,2,0,P|77:127|92:176,1,85,8|0,0:2|0:0,0:0:0:0:
152,321,20704,5,2,3:2:0:0:
152,321,20877,1,0,3:2:0:0:
215,270,21049,2,0,P|223:223|237:162,1,85,8|0,0:2|0:0,0:0:0:0:
181,110,21394,1,0,3:2:0:0:
369,39,21567,5,2,0:2:0:0:
348,122,21739,1,10,0:2:0:0:
369,39,21912,1,2,0:2:0:0:
483,128,22084,6,0,B|499:197|434:183|458:258,1,127.5,6|0,3:2|0:0,0:0:0:0:
454,246,22429,2,0,P|493:238|456:213,1,89.2499972763062,10|2,0:2|0:2,0:0:0:0:
371,279,22774,5,2,3:2:0:0:
257,373,22947,2,0,P|216:341|224:299,1,89.2499972763062,2|10,0:2|0:2,0:0:0:0:
326,151,23292,2,0,P|307:197|298:250,1,89.2499972763062,2|2,0:2|3:2,0:0:0:0:
216,160,23637,1,2,3:2:0:0:
381,83,23809,6,0,P|427:72|453:34,1,89.2499972763062,10|2,0:2|0:2,0:0:0:0:
302,63,24154,1,0,3:2:0:0:
302,63,24327,1,0,0:0:0:0:
216,160,24500,2,0,P|173:123|81:93,1,133.874995914459,10|0,0:2|0:0,0:0:0:0:
34,64,24845,6,0,P|9:10|88:31,1,178.499994552612,2|10,3:2|0:2,0:0:0:0:
24,155,25362,1,2,0:2:0:0:
71,240,25535,2,0,P|133:228|168:225,1,89.2499972763062,0|2,3:2|0:2,0:0:0:0:
275,314,25880,1,10,0:2:0:0:
275,314,26052,1,0,0:0:0:0:
331,177,26225,6,0,P|323:130|274:117,1,89.2499972763062,2|2,3:2|3:2,0:0:0:0:
275,314,26570,1,8,0:2:0:0:
430,242,26743,2,0,P|388:256|350:279,1,89.2499972763062,2|0,0:2|3:2,0:0:0:0:
500,162,27087,1,2,0:2:0:0:
392,16,27260,2,0,P|403:61|410:108,1,89.2499972763062,8|2,0:2|0:2,0:0:0:0:
208,194,27605,6,0,P|189:150|254:72,1,133.874995914459,0|0,3:2|0:0,0:0:0:0:
286,34,27950,2,0,P|236:30|179:11,1,89.2499972763062,8|0,0:2|0:0,0:0:0:0:
39,113,28295,1,2,3:2:0:0:
39,113,28467,1,2,0:2:0:0:
95,2,28640,2,0,P|104:57|126:107,1,89.2499972763062,10|2,0:2|0:2,0:0:0:0:
42,264,28985,5,2,3:2:0:0:
155,202,29157,1,0,3:2:0:0:
42,264,29330,2,0,P|86:266|138:285,1,89.2499972763062,10|2,0:2|0:2,0:0:0:0:
281,160,29675,2,0,L|295:111,1,44.6249986381531,0|0,3:2|0:0,0:0:0:0:
268,118,29847,6,0,B|287:167|311:155|326:197,1,89.2499972763062,2|8,0:2|0:2,0:0:0:0:
291,347,30192,1,0,0:0:0:0:
409,269,30365,2,0,B|434:199|483:236|513:160,1,133.874995914459,0|0,3:2|0:0,0:0:0:0:
453,118,30710,2,0,P|409:108|373:83,1,89.2499972763062,8|0,0:2|0:0,0:0:0:0:
150,34,31055,1,2,3:2:0:0:
172,117,31228,1,2,0:2:0:0:
150,34,31400,2,0,P|198:22|247:17,1,89.2499972763062,10|2,0:2|0:2,0:0:0:0:
284,172,31745,5,2,3:2:0:0:
256,270,31918,1,2,3:2:0:0:
174,221,32090,1,10,0:2:0:0:
340,249,32263,5,2,0:2:0:0:
192,337,32435,1,0,3:2:0:0:
325,371,32608,2,0,P|376:352|460:328,1,127.500004863739,2|0,0:2|0:0,0:0:0:0:
502,239,33125,6,0,P|457:227|390:140,1,152.999995330811,0|8,3:2|0:2,0:0:0:0:
377,67,33643,1,0,0:0:0:0:
467,26,33815,2,0,P|458:79|438:127,1,76.4999976654053,2|2,3:2|0:2,0:0:0:0:
311,154,34160,1,10,0:2:0:0:
249,100,34333,1,0,0:0:0:0:
104,152,34505,6,0,P|55:130|9:119,1,76.4999976654053,2|0,3:2|3:2,0:0:0:0:
26,47,34850,1,10,0:2:0:0:
212,29,35023,2,0,L|191:156,1,114.749996498108,2|0,0:2|0:0,0:0:0:0:
249,195,35368,2,0,P|285:162|322:152,1,76.4999976654053,2|8,0:2|0:2,0:0:0:0:
241,301,35713,1,2,0:2:0:0:
496,290,35885,6,0,B|417:270|468:219|374:199,1,152.999995330811,0|10,3:2|0:2,0:0:0:0:
249,195,36403,1,2,0:2:0:0:
428,70,36575,2,0,B|390:88|406:97|365:117,2,76.4999976654053,0|2|8,3:2|0:2|0:2,0:0:0:0:
231,28,37093,2,0,P|274:37|323:57,1,76.4999976654053,2|0,0:2|3:2,0:0:0:0:
248,194,37438,2,0,P|212:206|181:228,1,76.4999976654053,2|8,3:2|0:2,0:0:0:0:
124,89,37783,1,2,0:2:0:0:
54,184,37956,5,0,3:2:0:0:
10,25,38128,2,0,P|25:73|50:112,1,76.4999976654053,2|8,0:2|0:2,0:0:0:0:
144,190,38473,1,2,0:2:0:0:
8,273,38646,6,0,P|53:280|175:321,1,152.999995330811,0|8,3:2|0:2,0:0:0:0:
237,366,39163,1,2,0:2:0:0:
341,237,39336,2,0,P|302:278|281:313,1,76.4999976654053,2|2,3:2|0:2,0:0:0:0:
237,366,39681,1,10,0:2:0:0:
402,333,39853,6,0,P|440:307|444:191,1,152.999995330811,2|2,0:2|3:2,0:0:0:0:
349,120,40371,1,8,0:2:0:0:
349,120,40543,2,0,P|366:68|386:32,2,76.4999976654053,2|0|2,0:2|3:2|0:2,0:0:0:0:
239,156,41061,1,8,0:2:0:0:
157,86,41233,1,2,0:2:0:0:
12,172,41406,6,0,P|75:186|168:237,1,152.999995330811,0|10,3:2|0:2,0:0:0:0:
201,288,41923,1,2,0:2:0:0:
28,352,42096,2,0,P|74:353|125:333,1,76.4999976654053,2|2,3:2|0:2,0:0:0:0:
141,196,42441,1,10,0:2:0:0:
290,320,42613,2,0,L|281:382,1,38.2499988327027
333,246,42786,5,0,3:2:0:0:
141,196,42958,1,0,3:2:0:0:
309,121,43131,2,0,B|395:87|340:44|439:12,2,152.999995330811,8|0|8,0:2|3:2|0:2,0:0:0:0:
441,272,44166,6,0,B|362:300|410:332|326:380,1,152.999995330811,2|10,3:2|0:2,0:0:0:0:
262,226,44684,2,0,P|255:278|253:318,1,76.4999976654053,2|0,0:2|3:2,0:0:0:0:
165,382,45029,2,0,P|128:362|104:328,1,76.4999976654053,2|8,0:2|0:2,0:0:0:0:
18,268,45374,1,2,0:2:0:0:
149,157,45546,5,0,3:2:0:0:
65,199,45719,1,2,3:2:0:0:
110,73,45891,1,8,0:2:0:0:
251,124,46064,2,0,P|326:112|398:87,1,152.999995330811,2|2,0:2|0:2,0:0:0:0:
398,87,46581,1,8,0:2:0:0:
335,25,46754,1,2,0:2:0:0:
313,227,46926,5,0,3:2:0:0:
481,196,47099,2,0,P|428:212|396:229,1,76.4999976654053,2|8,0:2|0:2,0:0:0:0:
293,329,47444,2,0,P|244:322|136:284,1,152.999995330811,2|2,0:2|0:2,0:0:0:0:
46,203,47961,1,8,0:2:0:0:
54,359,48134,2,0,P|60:322|72:280,1,76.4999976654053,2|0,0:2|3:2,0:0:0:0:
170,183,48479,1,0,3:2:0:0:
123,75,48651,2,0,P|88:101|87:144,1,76.4999976654053,8|0,0:2|0:0,0:0:0:0:
170,183,48996,5,2,3:2:0:0:
274,64,49169,2,0,P|284:101|303:139,1,76.4999976654053,2|8,0:2|0:2,0:0:0:0:
417,203,49514,6,0,P|457:194|475:150,1,76.4999976654053,2|0,0:2|3:2,0:0:0:0:
308,279,49859,2,0,P|279:303|277:350,1,76.4999976654053,2|8,0:2|0:2,0:0:0:0:
418,366,50204,2,0,P|465:348|500:341,1,76.4999976654053,2|0,0:2|3:2,0:0:0:0:
308,279,50549,2,0,P|266:273|216:252,1,76.4999976654053,2|8,0:2|0:2,0:0:0:0:
11,216,50894,6,0,P|60:207|182:159,1,152.999995330811,2|0,0:2|3:2,0:0:0:0:
192,40,51412,1,10,0:2:0:0:
341,119,51584,2,0,P|290:102|255:92,1,76.4999976654053,2|0,0:2|3:2,0:0:0:0:
439,31,51929,2,0,P|490:48|525:58,1,76.4999976654053,2|8,0:2|0:2,0:0:0:0:
410,163,52274,1,2,0:2:0:0:
464,301,52447,6,0,L|486:296,1,19.1249994163513,0|0,3:2|0:0,0:0:0:0:
389,265,52792,2,0,L|384:247,1,19.1249994163513
394,345,53137,1,8,0:2:0:0:
266,365,53482,6,0,P|182:349|143:347,1,102,2|0,0:0|0:0,0:0:0:0:
86,377,53827,6,0,B|54:337|100:284|102:288|159:262|133:193,1,204,2|0,3:2|0:0,0:0:0:0:
84,130,54517,6,0,B|32:117|32:117|-16:132|-16:132|8:182|8:182|60:197,1,204,4|2,0:2|0:2,0:0:0:0:
221,106,55207,6,0,B|267:121|290:79|279:78|320:52|360:72,1,152.999995330811,6|0,3:2|0:0,0:0:0:0:
427,31,55552,2,0,P|437:81|423:106,1,50.9999984436036,10|0,0:2|0:0,0:0:0:0:
329,192,55724,1,2,0:2:0:0:
512,285,55897,2,0,P|464:289|419:257,1,101.999996887207,2|2,3:2|0:2,0:0:0:0:
329,192,56242,1,10,0:2:0:0:
287,384,56414,6,0,P|249:350|254:299,1,101.999996887207,2|2,0:2|3:2,0:0:0:0:
397,135,56759,1,2,3:2:0:0:
397,135,56932,1,10,0:2:0:0:
238,209,57104,2,0,P|179:213|104:84,1,203.999993774414,2|0,0:2|0:0,0:0:0:0:
131,31,57622,1,10,0:2:0:0:
46,189,57795,2,0,L|62:243,1,50.9999984436036,2|0,0:2|0:0,0:0:0:0:
7,384,57967,6,0,P|60:366|188:340,1,152.999995330811,2|0,3:2|0:0,0:0:0:0:
223,311,58312,2,0,B|210:290|210:290|184:275,1,50.9999984436036,10|0,0:2|0:0,0:0:0:0:
0,291,58485,1,2,0:2:0:0:
179,202,58657,2,0,L|291:229,1,101.999996887207,0|2,3:2|0:2,0:0:0:0:
154,344,59002,1,10,0:2:0:0:
60,237,59175,2,0,L|75:179,1,50.9999984436036,2|0,0:0|0:0,0:0:0:0:
179,77,59347,5,2,3:2:0:0:
364,144,59520,2,0,P|411:163|465:137,1,101.999996887207,2|8,3:2|0:2,0:0:0:0:
460,42,59865,2,0,P|363:43|280:108,1,203.999993774414,2|2,0:2|0:2,0:0:0:0:
225,257,60382,2,0,P|272:238|328:223,1,101.999996887207,8|2,0:2|0:2,0:0:0:0:
39,373,60727,6,0,B|8:332|50:270|71:292|121:257|96:170,2,203.999993774414,0|8|2,3:2|0:2|3:2,0:0:0:0:
156,326,61590,1,2,0:2:0:0:
281,350,61762,2,0,L|331:369,1,50.9999984436036,10|0,0:2|0:0,0:0:0:0:
391,329,61935,1,2,0:2:0:0:
503,173,62107,6,0,P|452:203|450:268,1,101.999996887207,2|0,3:2|3:2,0:0:0:0:
490,371,62452,1,10,0:2:0:0:
362,247,62625,2,0,L|210:239,1,152.999995330811,2|0,0:2|0:0,0:0:0:0:
147,280,62970,2,0,P|130:246|144:211,1,50.9999984436036,2|0,0:2|0:0,0:0:0:0:
249,78,63142,2,0,P|233:143|184:161,1,101.999996887207,8|0,0:2|0:0,0:0:0:0:
4,154,63487,6,0,P|8:89|96:42,1,152.999995330811,0|0,3:2|0:0,0:0:0:0:
152,37,63832,2,0,P|140:87|116:103,1,50.9999984436036,8|0,0:2|0:0,0:0:0:0:
96,162,64005,1,0,0:0:0:0:
248,291,64177,2,0,L|138:278,1,101.999996887207,2|2,3:2|0:2,0:0:0:0:
68,350,64523,1,10,0:2:0:0:
309,348,64695,6,0,B|336:299|336:299|312:235,1,101.999996887207,2|2,0:2|3:2,0:0:0:0:
185,168,65040,1,2,3:2:0:0:
313,65,65213,2,0,L|298:118,1,50.9999984436036,10|0,0:2|0:0,0:0:0:0:
185,168,65385,2,0,P|126:176|53:93,1,152.999995330811,2|0,0:2|0:0,0:0:0:0:
39,42,65730,1,2,0:2:0:0:
198,0,65903,2,0,P|221:45|210:117,1,101.999996887207,10|2,0:2|0:2,0:0:0:0:
0,296,66248,6,0,P|60:280|173:261,1,152.999995330811,4|0,3:2|0:0,0:0:0:0:
228,255,66593,2,0,P|214:308|191:321,1,50.9999984436036,10|0,0:2|0:0,0:0:0:0:
0,212,66765,2,0,P|55:201|101:179,1,101.999996887207,2|0,0:2|3:2,0:0:0:0:
89,100,67110,1,2,0:2:0:0:
287,172,67283,1,10,0:2:0:0:
468,95,67455,2,0,P|488:34|510:-18,1,101.999996887207,2|0,0:2|3:2,0:0:0:0:
379,110,67800,1,2,3:2:0:0:
493,224,67973,1,10,0:2:0:0:
493,224,68145,1,2,0:2:0:0:
397,357,68318,6,0,P|340:339|206:328,1,152.999995330811,0|0,3:2|0:0,0:0:0:0:
183,373,68663,2,0,P|159:340|181:271,1,101.999996887207,10|2,0:2|0:2,0:0:0:0:
379,110,69008,6,0,B|338:188|298:120|258:201,1,152.999995330811,2|0,3:2|0:0,0:0:0:0:
296,260,69353,2,0,L|365:244,1,50.9999984436036,10|0,0:2|0:0,0:0:0:0:
225,115,69525,1,2,0:2:0:0:
98,245,69698,2,0,P|90:194|73:130,1,101.999996887207,2|2,3:2|0:2,0:0:0:0:
14,79,70043,1,10,0:2:0:0:
256,22,70215,6,0,P|308:36|433:54,1,163.2,2|0,0:2|0:0,0:0:0:0:
489,18,70560,2,0,P|516:62|483:113,1,101.999996887207,2|8,3:2|0:2,0:0:0:0:
346,227,70905,2,0,P|396:223|483:284,1,152.999995330811,2|0,0:2|0:0,0:0:0:0:
498,351,71251,1,2,0:2:0:0:
286,289,71423,2,0,L|177:303,1,101.999996887207,8|2,0:2|0:2,0:0:0:0:
35,374,71768,6,0,P|18:322|98:263,1,152.999995330811,2|0,3:2|0:0,0:0:0:0:
144,215,72113,2,0,P|154:172|101:127,1,101.999996887207,10|2,0:2|0:2,0:0:0:0:
41,113,72458,1,0,3:2:0:0:
41,113,72631,1,2,0:2:0:0:
160,305,72803,2,0,L|223:280,1,50.9999984436036,10|0,0:2|0:0,0:0:0:0:
279,222,72976,1,2,0:2:0:0:
226,19,73148,6,0,P|237:69|249:140,1,101.999996887207,0|2,3:2|3:2,0:0:0:0:
374,218,73493,1,8,0:2:0:0:
491,152,73666,1,2,0:2:0:0:
491,152,73838,2,0,P|419:135|373:110,1,101.999996887207,0|2,3:2|0:2,0:0:0:0:
279,222,74183,2,0,P|301:290|320:386,1,152.999995330811,8|0,0:2|0:0,0:0:0:0:
234,384,74528,6,0,P|215:321|207:273,1,101.999996887207,0|0,3:2|0:0,0:0:0:0:
72,106,74873,2,0,P|33:143|55:204,1,101.999996887207,8|0,0:2|0:0,0:0:0:0:
123,316,75218,1,0,3:2:0:0:
178,138,75391,2,0,L|169:78,1,50.9999984436036
18,18,75563,2,0,P|81:24|145:27,1,101.999996887207,8|0,0:2|0:0,0:0:0:0:
291,113,75908,5,0,3:2:0:0:
291,113,76081,1,0,3:2:0:0:
496,16,76253,2,0,P|437:25|376:43,1,101.999996887207,8|0,0:2|0:0,0:0:0:0:
326,212,76598,2,0,P|384:213|462:102,1,203.999993774414,0|8,3:2|0:2,0:0:0:0:
236,245,77116,1,0,0:0:0:0:
49,368,77288,6,0,B|75:309|63:243|3:208|3:208|50:212|80:287|54:246|98:335|161:338|199:297,1,407.999987548829,2|0,3:1|0:0,0:0:0:0:
447,105,78669,6,0,B|390:117|367:170|367:170|390:117|351:61|351:61|419:55|435:14|435:14|419:55|447:106,1,407.999987548829,2|0,0:1|0:0,0:0:0:0:
107,219,80049,6,0,B|25:256|25:256|35:145|35:145|144:90|144:90|152:143|169:175,1,407.999987548829,2|0,0:1|0:0,0:0:0:0:
