osu file format v14

[General]
AudioFilename: audio.mp3
AudioLeadIn: 0
PreviewTime: 86855
Countdown: 0
SampleSet: Soft
StackLeniency: 0.7
Mode: 3
LetterboxInBreaks: 0
SpecialStyle: 0
WidescreenStoryboard: 0

[Editor]
Bookmarks: 286,5209,10132,15055,18747,23670,24901,34747,43362,49517,54678,58549,61129,70162,81775,86936,97258,102420,107581,119009,127898
DistanceSpacing: 1.8
BeatDivisor: 4
GridSize: 16
TimelineZoom: 1.8

[Metadata]
Title:XIII Charlotte
TitleUnicode:XIII Charlotte
Artist:m108
ArtistUnicode:m108
Creator:FAMoss
Version:Hard
Source:
Tags:VorticalEx z Flash of Crimson Lily Lisette Crow Solace BOFU2017 FRENZ2017 of fighters 2012 ein neuer heiliger legenda est a myth 13lue cave neo epic trancecore metuya flap instrumental electronic bms
BeatmapID:2854192
BeatmapSetID:1366994

[Difficulty]
HPDrainRate:7.8
CircleSize:4
OverallDifficulty:7.8
ApproachRate:5
SliderMultiplier:1.4
SliderTickRate:1

[Events]
//Background and Video events
0,0,"BG.jpg",0,0
//Break Periods
//Storyboard Layer 0 (Background)
//Storyboard Layer 1 (Fail)
//Storyboard Layer 2 (Pass)
//Storyboard Layer 3 (Foreground)
//Storyboard Layer 4 (Overlay)
//Storyboard Sound Samples
Sample,18824,0,"prt-01.wav",100
Sample,19901,0,"prt-15.wav",100
Sample,20978,0,"prt-29.wav",100
Sample,21132,0,"prt-31.wav",100
Sample,21747,0,"prt-39.wav",100
Sample,23439,0,"prt-61.wav",100
Sample,23593,0,"prt-63.wav",100
Sample,24209,0,"prt-71.wav",100
Sample,60162,0,"B_B_Fill8.wav",100
Sample,60807,0,"B_B_Fill11.wav",100
Sample,70202,0,"p-002.wav",100
Sample,70242,0,"p-003.wav",100
Sample,70283,0,"p-004.wav",100
Sample,70565,0,"p-007.wav",100
Sample,70726,0,"p-009.wav",100
Sample,71210,0,"p-015.wav",100
Sample,71371,0,"p-017.wav",100
Sample,71855,0,"p-023.wav",100
Sample,71936,0,"p-024.wav",100
Sample,72258,0,"p-028.wav",100
Sample,72420,0,"p-030.wav",100
Sample,72823,0,"p-035.wav",100
Sample,73146,0,"p-039.wav",100
Sample,73468,0,"p-043.wav",100
Sample,73791,0,"p-048.wav",100
Sample,73952,0,"p-051.wav",100
Sample,74073,0,"p-053.wav",100
Sample,74154,0,"p-055.wav",100
Sample,74234,0,"p-057.wav",100
Sample,74315,0,"p-059.wav",100
Sample,74436,0,"p-061.wav",100
Sample,74597,0,"p-063.wav",100
Sample,74758,0,"p-065.wav",100
Sample,75000,0,"p-068.wav",100
Sample,75162,0,"p-072.wav",100
Sample,75404,0,"p-075.wav",100
Sample,75726,0,"p-079.wav",100
Sample,76049,0,"p-083.wav",100
Sample,76371,0,"p-087.wav",100
Sample,76533,0,"p-089.wav",100
Sample,76654,0,"p-091.wav",100
Sample,76734,0,"p-093.wav",100
Sample,76815,0,"p-095.wav",100
Sample,76896,0,"p-097.wav",100
Sample,77016,0,"p-099.wav",100
Sample,77339,0,"p-103.wav",100
Sample,77500,0,"p-105.wav",100
Sample,77662,0,"p-107.wav",100
Sample,77823,0,"p-109.wav",100
Sample,78146,0,"p-113.wav",100
Sample,78468,0,"p-117.wav",100
Sample,78791,0,"p-121.wav",100
Sample,79113,0,"p-125.wav",100
Sample,79194,0,"p-126a.wav",100
Sample,79315,0,"p-127a.wav",100
Sample,79436,0,"p-128a.wav",100
Sample,79436,0,"p-128b.wav",100
Sample,79557,0,"p-126a.wav",100
Sample,79678,0,"p-127a.wav",100
Sample,79799,0,"p-128b.wav",100
Sample,79799,0,"p-128a.wav",100
Sample,79920,0,"p-126a.wav",100
Sample,80041,0,"p-128a.wav",100
Sample,80041,0,"p-128b.wav",100
Sample,80162,0,"p-129a.wav",100
Sample,80323,0,"p-130a.wav",100
Sample,80646,0,"p-131b.wav",100
Sample,81049,0,"p-132b.wav",100
Sample,81452,0,"p-133a.wav",100
Sample,84113,0,"adsnare-yowao2.wav",100
Sample,84194,0,"adsnare-yowao2.wav",100
Sample,84275,0,"adsnare-yowao2.wav",100

[TimingPoints]
286,307.692307692308,5,2,1,70,1,0
286,-104.839,5,2,1,70,0,0
18747,-104.839,5,2,1,50,0,0
34747,-104.839,5,2,1,60,0,0
35670,-104.839,5,2,1,70,0,0
49517,322.58064516129,4,2,1,70,1,0
70162,-100,4,2,1,50,0,0
81775,-100,4,2,1,60,0,0
86936,-100,4,2,1,70,0,1
94678,-100,4,2,1,70,0,0
97258,-100,4,2,1,70,0,1
102420,-100,4,2,1,70,0,0
107581,317.460317460317,4,2,1,70,1,0
107581,-101.613,4,2,1,70,0,1
116469,-101.613,4,2,1,70,0,0
119009,-101.613,4,2,1,70,0,1
122819,-101.613,4,2,1,70,0,0

[HitObjects]
320,192,286,5,8,0:0:0:0:
448,192,286,1,2,0:0:0:0:
192,192,362,1,8,0:0:0:0:
64,192,439,1,8,0:0:0:0:
320,192,516,1,8,0:0:0:0:
192,192,593,128,8,747:0:0:0:0:
64,192,747,1,8,0:0:0:0:
320,192,824,1,8,0:0:0:0:
448,192,901,128,8,1055:0:0:0:0:
192,192,1055,1,8,0:0:0:0:
320,192,1132,1,8,0:0:0:0:
64,192,1209,128,8,1362:0:0:0:0:
448,192,1362,1,8,0:0:0:0:
320,192,1516,128,8,1670:0:0:0:0:
192,192,1670,1,8,0:0:0:0:
64,192,1824,1,6,0:0:0:0:
448,192,1824,1,0,0:0:0:100:clap.wav
320,192,1978,1,0,0:0:0:0:
192,192,2132,1,2,0:0:0:0:
448,192,2132,1,0,0:0:0:0:
64,192,2286,1,0,0:0:0:0:
320,192,2439,1,2,0:0:0:0:
448,192,2439,1,0,0:0:0:100:clap.wav
192,192,2593,1,0,0:0:0:0:
64,192,2747,1,2,0:0:0:0:
320,192,2747,1,0,0:0:0:0:
448,192,2901,1,0,0:0:0:0:
64,192,3055,1,2,0:0:0:0:
192,192,3055,1,0,0:0:0:100:clap.wav
320,192,3209,1,0,0:0:0:0:
64,192,3362,1,2,0:0:0:0:
192,192,3362,1,0,0:0:0:0:
320,192,3516,1,0,0:0:0:0:
64,192,3670,1,2,0:0:0:0:
448,192,3670,1,0,0:0:0:100:clap.wav
192,192,3824,1,0,0:0:0:0:
320,192,3978,1,2,0:0:0:0:
448,192,3978,1,0,0:0:0:0:
64,192,4132,1,0,0:0:0:0:
320,192,4286,1,2,0:0:0:0:
448,192,4286,1,0,0:0:0:100:clap.wav
192,192,4439,1,0,0:0:0:0:
64,192,4593,1,2,0:0:0:0:
320,192,4593,128,0,4901:0:0:0:0:
192,192,4901,1,0,0:0:0:100:clap.wav
64,192,5209,1,2,0:0:0:0:
448,192,5209,1,0,0:0:0:0:
320,192,5362,1,0,0:0:0:0:
64,192,5516,1,2,0:0:0:0:
192,192,5516,1,0,0:0:0:100:clap.wav
320,192,5670,1,0,0:0:0:0:
64,192,5824,1,2,0:0:0:0:
192,192,5824,1,0,0:0:0:0:
320,192,5978,1,0,0:0:0:0:
64,192,6132,1,2,0:0:0:0:
448,192,6132,1,0,0:0:0:100:clap.wav
192,192,6286,1,0,0:0:0:0:
320,192,6439,1,2,0:0:0:0:
448,192,6439,1,0,0:0:0:0:
192,192,6593,1,0,0:0:0:0:
320,192,6747,1,2,0:0:0:0:
448,192,6747,1,0,0:0:0:100:clap.wav
192,192,6901,1,0,0:0:0:0:
64,192,7055,1,2,0:0:0:0:
448,192,7055,1,0,0:0:0:0:
320,192,7209,1,0,0:0:0:0:
64,192,7362,1,2,0:0:0:0:
192,192,7362,1,0,0:0:0:100:clap.wav
320,192,7516,1,0,0:0:0:0:
64,192,7670,1,2,0:0:0:0:
192,192,7670,1,0,0:0:0:0:
320,192,7824,1,0,0:0:0:0:
64,192,7978,1,2,0:0:0:0:
448,192,7978,1,0,0:0:0:100:clap.wav
192,192,8132,1,0,0:0:0:0:
320,192,8286,1,2,0:0:0:0:
448,192,8286,1,0,0:0:0:0:
192,192,8439,1,0,0:0:0:0:
320,192,8593,1,2,0:0:0:0:
448,192,8593,1,0,0:0:0:100:clap.wav
192,192,8747,1,0,0:0:0:0:
64,192,8901,1,2,0:0:0:0:
448,192,8901,1,0,0:0:0:0:
320,192,9055,1,0,0:0:0:0:
64,192,9209,1,2,0:0:0:0:
448,192,9209,1,0,0:0:0:100:clap.wav
192,192,9286,1,0,0:0:0:0:
320,192,9362,1,0,0:0:0:0:
448,192,9439,1,0,0:0:0:0:
192,192,9516,128,0,9670:0:0:0:0:
320,192,9670,1,0,0:0:0:0:
448,192,9824,128,0,9978:0:0:0:0:
192,192,9978,1,0,0:0:0:0:
320,192,10055,1,0,0:0:0:0:
64,192,10132,1,2,0:0:0:0:
448,192,10132,1,4,0:0:0:0:
192,192,10286,1,0,0:0:0:0:
320,192,10439,1,2,0:0:0:0:
448,192,10439,1,0,0:0:0:100:clap.wav
192,192,10593,1,0,0:0:0:0:
320,192,10747,1,2,0:0:0:0:
448,192,10747,1,0,0:0:0:0:
192,192,10901,1,0,0:0:0:0:
64,192,11055,1,2,0:0:0:0:
448,192,11055,1,0,0:0:0:100:clap.wav
320,192,11209,1,0,0:0:0:0:
64,192,11362,1,2,0:0:0:0:
192,192,11362,1,0,0:0:0:0:
320,192,11516,1,0,0:0:0:0:
64,192,11670,1,2,0:0:0:0:
192,192,11670,1,0,0:0:0:100:clap.wav
320,192,11824,1,0,0:0:0:0:
64,192,11978,1,2,0:0:0:0:
448,192,11978,1,0,0:0:0:0:
192,192,12132,1,0,0:0:0:0:
320,192,12286,1,2,0:0:0:0:
448,192,12286,1,0,0:0:0:100:clap.wav
64,192,12439,1,0,0:0:0:0:
192,192,12516,1,0,0:0:0:0:
320,192,12593,1,2,0:0:0:0:
448,192,12593,1,0,0:0:0:0:
192,192,12747,1,0,0:0:0:0:
64,192,12901,1,2,0:0:0:0:
448,192,12901,1,0,0:0:0:100:clap.wav
320,192,13055,1,0,0:0:0:0:
64,192,13209,1,2,0:0:0:0:
192,192,13209,1,0,0:0:0:0:
320,192,13362,1,0,0:0:0:0:
64,192,13516,1,2,0:0:0:0:
192,192,13516,1,0,0:0:0:100:clap.wav
320,192,13670,1,0,0:0:0:0:
64,192,13824,1,8,0:0:0:0:
448,192,13824,1,2,0:0:0:0:
192,192,13901,1,8,0:0:0:0:
320,192,13978,1,8,0:0:0:0:
448,192,14055,1,8,0:0:0:0:
64,192,14132,1,2,0:0:0:0:
192,192,14132,1,4,0:0:0:0:
320,192,14286,1,0,0:0:0:0:
64,192,14593,1,2,0:0:0:0:
448,192,14593,1,8,0:0:0:0:
320,192,14670,1,8,0:0:0:0:
192,192,14747,1,8,0:0:0:0:
448,192,14824,1,8,0:0:0:0:
320,192,14901,1,8,0:0:0:0:
192,192,14978,1,8,0:0:0:0:
64,192,15055,1,4,0:0:0:0:
448,192,15055,1,2,0:0:0:0:
320,192,15209,1,0,0:0:0:0:
64,192,15362,1,2,0:0:0:0:
192,192,15362,1,8,0:0:0:0:
320,192,15516,1,8,0:0:0:0:
192,192,15593,1,0,0:0:0:0:
64,192,15670,1,8,0:0:0:0:
448,192,15670,1,2,0:0:0:0:
448,192,15824,1,8,0:0:0:0:
64,192,15978,1,8,0:0:0:0:
320,192,15978,1,2,0:0:0:0:
64,192,16132,1,8,0:0:0:0:
320,192,16286,1,8,0:0:0:0:
448,192,16286,1,2,0:0:0:0:
320,192,16439,1,8,0:0:0:0:
64,192,16593,1,2,0:0:0:0:
192,192,16593,1,8,0:0:0:0:
192,192,16747,1,8,0:0:0:0:
320,192,16901,1,8,0:0:0:0:
448,192,16901,128,2,17055:0:0:0:0:
192,192,17055,128,8,17209:0:0:0:0:
448,192,17209,1,8,0:0:0:0:
320,192,17286,1,8,0:0:0:0:
64,192,17362,1,8,0:0:0:0:
192,192,17439,1,8,0:0:0:0:
320,192,17516,1,8,0:0:0:0:
448,192,17516,1,0,0:0:0:0:
320,192,17670,1,8,0:0:0:0:
192,192,17824,1,8,0:0:0:0:
192,192,17978,1,8,0:0:0:0:
64,192,18132,1,8,0:0:0:0:
448,192,18132,1,0,0:0:0:0:
448,192,18286,1,8,0:0:0:0:
192,192,18439,128,8,18747:0:0:0:0:
320,192,18593,128,8,18747:0:0:0:0:
64,192,18747,1,4,0:0:0:0:
448,192,18747,1,0,0:0:0:100:prt.wav
192,192,18901,1,0,0:0:0:100:prt-02.wav
320,192,18978,1,0,0:0:0:100:prt-03.wav
448,192,19055,1,0,0:0:0:100:prt-04.wav
64,192,19132,1,0,0:0:0:100:prt-05.wav
192,192,19209,1,0,0:0:0:100:prt-06.wav
320,192,19286,1,0,0:0:0:100:prt-07.wav
64,192,19362,1,0,0:0:0:100:prt-08.wav
448,192,19439,1,0,0:0:0:100:prt-09.wav
320,192,19516,1,0,0:0:0:100:prt-10.wav
192,192,19593,1,0,0:0:0:100:prt-11.wav
64,192,19670,1,0,0:0:0:100:prt-12.wav
320,192,19747,1,0,0:0:0:100:prt-13.wav
192,192,19824,128,0,19978:0:0:0:100:prt-14.wav
448,192,19978,1,0,0:0:0:100:prt-16.wav
320,192,20055,1,0,0:0:0:100:prt-17.wav
192,192,20132,1,0,0:0:0:100:prt-18.wav
64,192,20209,1,0,0:0:0:100:prt-19.wav
448,192,20286,1,0,0:0:0:100:prt-20.wav
192,192,20362,1,0,0:0:0:100:prt-21.wav
320,192,20439,1,0,0:0:0:100:prt-22.wav
64,192,20516,1,0,0:0:0:100:prt-23.wav
448,192,20593,1,0,0:0:0:100:prt-24.wav
192,192,20670,1,0,0:0:0:100:prt-25.wav
320,192,20747,1,0,0:0:0:100:prt-26.wav
448,192,20824,1,0,0:0:0:100:prt-27.wav
192,192,20901,128,0,21055:0:0:0:100:prt-28.wav
320,192,21055,128,0,21209:0:0:0:100:prt-30.wav
64,192,21209,1,0,0:0:0:100:prt-32.wav
192,192,21286,1,0,0:0:0:100:prt-33.wav
320,192,21362,1,0,0:0:0:100:prt-34.wav
192,192,21439,1,0,0:0:0:100:prt-35.wav
64,192,21516,1,0,0:0:0:100:prt-36.wav
448,192,21593,1,0,0:0:0:100:prt-37.wav
320,192,21670,128,0,21824:0:0:0:100:prt-38.wav
192,192,21824,1,0,0:0:0:100:prt-40.wav
64,192,21901,1,0,0:0:0:100:prt-41.wav
448,192,21978,1,0,0:0:0:100:prt-42.wav
320,192,22055,1,0,0:0:0:100:prt-43.wav
64,192,22132,1,0,0:0:0:100:prt-44.wav
192,192,22209,1,0,0:0:0:100:prt-45.wav
320,192,22286,1,0,0:0:0:100:prt-46.wav
448,192,22362,1,0,0:0:0:100:prt-47.wav
64,192,22439,1,0,0:0:0:100:prt-48.wav
192,192,22516,1,0,0:0:0:100:prt-49.wav
448,192,22593,1,0,0:0:0:100:prt-50.wav
320,192,22670,1,0,0:0:0:100:prt-51.wav
64,192,22747,1,0,0:0:0:100:prt-52.wav
448,192,22824,1,0,0:0:0:100:prt-53.wav
192,192,22901,1,0,0:0:0:100:prt-54.wav
320,192,22978,1,0,0:0:0:100:prt-55.wav
64,192,23055,1,0,0:0:0:100:prt-56.wav
448,192,23132,1,0,0:0:0:100:prt-57.wav
192,192,23209,1,0,0:0:0:100:prt-58.wav
64,192,23286,1,0,0:0:0:100:prt-59.wav
320,192,23362,128,0,23516:0:0:0:100:prt-60.wav
192,192,23516,128,0,23670:0:0:0:100:prt-62.wav
448,192,23670,1,0,0:0:0:100:prt-64.wav
64,192,23747,1,0,0:0:0:100:prt-65.wav
192,192,23824,1,0,0:0:0:100:prt-66.wav
320,192,23901,1,0,0:0:0:100:prt-67.wav
448,192,23978,1,0,0:0:0:100:prt-68.wav
64,192,24055,1,0,0:0:0:100:prt-69.wav
192,192,24132,128,0,24286:0:0:0:100:prt-70.wav
320,192,24286,1,0,0:0:0:100:prt-72.wav
448,192,24362,1,0,0:0:0:100:prt-73.wav
64,192,24439,1,0,0:0:0:100:prt-74.wav
192,192,24516,1,0,0:0:0:100:prt-75.wav
448,192,24593,1,0,0:0:0:100:prt-76.wav
64,192,24670,1,0,0:0:0:100:prt-77.wav
320,192,24747,1,0,0:0:0:100:prt-78.wav
192,192,24824,1,0,0:0:0:100:prt-79.wav
64,192,24901,1,2,0:0:0:0:
448,192,24901,1,0,0:0:0:100:prt-80.wav
320,192,25055,1,0,0:0:0:0:
192,192,25209,1,0,0:0:0:0:
64,192,25362,1,0,0:0:0:0:
320,192,25516,1,0,0:0:0:0:
192,192,25670,1,0,0:0:0:0:
448,192,25824,1,0,0:0:0:0:
64,192,25978,1,0,0:0:0:0:
448,192,26132,1,0,0:0:0:0:
320,192,26286,1,0,0:0:0:0:
192,192,26439,1,0,0:0:0:0:
64,192,26593,1,0,0:0:0:0:
320,192,26747,1,0,0:0:0:0:
448,192,26901,1,0,0:0:0:0:
192,192,27055,1,0,0:0:0:0:
320,192,27209,1,0,0:0:0:0:
64,192,27362,1,0,0:0:0:0:
192,192,27516,1,0,0:0:0:0:
320,192,27670,1,0,0:0:0:0:
448,192,27824,1,0,0:0:0:0:
192,192,27978,1,0,0:0:0:0:
320,192,28132,1,0,0:0:0:0:
64,192,28286,1,0,0:0:0:0:
448,192,28439,1,0,0:0:0:0:
64,192,28593,1,0,0:0:0:0:
192,192,28747,1,0,0:0:0:0:
320,192,28901,1,0,0:0:0:0:
448,192,29055,1,0,0:0:0:0:
192,192,29209,1,0,0:0:0:0:
64,192,29362,1,0,0:0:0:0:
320,192,29516,1,0,0:0:0:0:
192,192,29670,1,0,0:0:0:0:
448,192,29824,1,0,0:0:0:0:
320,192,29978,1,0,0:0:0:0:
192,192,30132,1,0,0:0:0:0:
64,192,30286,1,0,0:0:0:0:
320,192,30439,1,0,0:0:0:0:
192,192,30593,1,0,0:0:0:0:
448,192,30747,1,0,0:0:0:0:
64,192,30901,1,0,0:0:0:0:
192,192,30978,1,0,0:0:0:0:
448,192,31055,1,0,0:0:0:0:
320,192,31209,1,0,0:0:0:0:
192,192,31362,128,0,31516:0:0:0:0:
448,192,31516,128,0,31670:0:0:0:0:
64,192,31670,1,0,0:0:0:0:
320,192,31824,1,0,0:0:0:0:
64,192,31978,128,0,32132:0:0:0:0:
320,192,32132,128,0,32286:0:0:0:0:
192,192,32286,1,0,0:0:0:0:
448,192,32439,1,0,0:0:0:0:
64,192,32593,1,0,0:0:0:0:
448,192,32747,1,0,0:0:0:0:
320,192,32901,1,0,0:0:0:0:
192,192,32978,1,0,0:0:0:0:
64,192,33055,128,0,33209:0:0:0:0:
192,192,33362,1,0,0:0:0:0:
448,192,33516,1,0,0:0:0:0:
320,192,33593,1,0,0:0:0:0:
192,192,33670,1,0,0:0:0:0:
64,192,33747,1,0,0:0:0:0:
320,192,33824,1,0,0:0:0:0:
192,192,33978,1,0,0:0:0:0:
448,192,34132,1,0,0:0:0:0:
320,192,34286,1,0,0:0:0:0:
64,192,34439,1,0,0:0:0:0:
448,192,34593,128,0,34747:0:0:0:0:
192,192,34747,1,0,0:0:0:0:
320,192,34901,1,0,0:0:0:0:
64,192,35055,1,0,0:0:0:0:
320,192,35209,128,2,35362:0:0:0:0:
64,192,35362,1,0,0:0:0:0:
192,192,35439,1,0,0:0:0:0:
448,192,35516,1,2,0:0:0:0:
320,192,35593,1,0,0:0:0:0:
64,192,35670,1,4,0:0:0:0:
192,192,35670,1,2,0:0:0:0:
320,192,35824,1,0,0:0:0:0:
64,192,35978,1,2,0:0:0:0:
448,192,35978,1,0,0:0:0:100:clap.wav
192,192,36132,1,0,0:0:0:0:
320,192,36286,1,2,0:0:0:0:
448,192,36286,1,0,0:0:0:0:
192,192,36439,1,0,0:0:0:0:
64,192,36593,1,2,0:0:0:0:
448,192,36593,1,0,0:0:0:100:clap.wav
320,192,36747,1,0,0:0:0:0:
64,192,36901,1,2,0:0:0:0:
192,192,36901,1,0,0:0:0:0:
320,192,37055,1,0,0:0:0:0:
64,192,37209,1,2,0:0:0:0:
448,192,37209,1,0,0:0:0:0:
192,192,37362,1,0,0:0:0:0:
320,192,37516,1,2,0:0:0:0:
448,192,37516,1,8,0:0:0:0:
192,192,37670,1,0,0:0:0:0:
320,192,37824,1,2,0:0:0:0:
448,192,37824,1,0,0:0:0:0:
192,192,37978,1,0,0:0:0:0:
64,192,38132,1,2,0:0:0:0:
448,192,38132,1,8,0:0:0:0:
320,192,38286,128,0,38439:0:0:0:0:
64,192,38439,1,2,0:0:0:0:
192,192,38439,1,0,0:0:0:0:
320,192,38593,1,0,0:0:0:0:
64,192,38747,1,2,0:0:0:0:
448,192,38747,1,0,0:0:0:0:
192,192,38901,1,0,0:0:0:0:
320,192,39055,1,8,0:0:0:0:
448,192,39055,1,2,0:0:0:0:
192,192,39209,1,0,0:0:0:0:
320,192,39362,1,2,0:0:0:0:
448,192,39362,1,0,0:0:0:0:
192,192,39516,1,0,0:0:0:0:
64,192,39670,1,2,0:0:0:0:
448,192,39670,1,0,0:0:0:0:
320,192,39824,1,0,0:0:0:0:
64,192,39978,1,2,0:0:0:0:
192,192,39978,1,8,0:0:0:0:
448,192,40132,1,0,0:0:0:0:
64,192,40286,1,2,0:0:0:0:
192,192,40286,1,0,0:0:0:0:
320,192,40439,128,0,40593:0:0:0:0:
64,192,40593,1,2,0:0:0:0:
448,192,40593,1,8,0:0:0:0:
192,192,40747,128,0,40901:0:0:0:0:
320,192,40901,1,2,0:0:0:0:
448,192,40901,1,0,0:0:0:0:
192,192,41055,1,0,0:0:0:0:
64,192,41209,1,8,0:0:0:0:
448,192,41209,1,2,0:0:0:0:
320,192,41362,1,0,0:0:0:0:
64,192,41516,1,2,0:0:0:0:
192,192,41516,1,0,0:0:0:0:
320,192,41670,1,0,0:0:0:0:
64,192,41824,1,2,0:0:0:0:
192,192,41824,1,0,0:0:0:0:
320,192,41978,1,0,0:0:0:0:
64,192,42132,1,8,0:0:0:0:
448,192,42132,1,2,0:0:0:0:
192,192,42286,1,0,0:0:0:0:
320,192,42439,1,2,0:0:0:0:
448,192,42439,1,0,0:0:0:0:
192,192,42593,1,0,0:0:0:0:
64,192,42747,1,2,0:0:0:0:
320,192,42747,1,0,0:0:0:0:
448,192,42901,128,0,43055:0:0:0:0:
64,192,43055,128,2,43209:0:0:0:0:
192,192,43055,1,8,0:0:0:0:
320,192,43209,128,0,43362:0:0:0:0:
64,192,43362,1,2,0:0:0:0:
448,192,43362,1,0,0:0:0:0:
192,192,43516,1,0,0:0:0:0:
320,192,43670,1,2,0:0:0:0:
448,192,43670,1,0,0:0:0:0:
192,192,43824,1,0,0:0:0:0:
320,192,43978,1,2,0:0:0:0:
448,192,43978,1,0,0:0:0:0:
192,192,44132,1,0,0:0:0:0:
320,192,44286,1,2,0:0:0:0:
448,192,44286,1,0,0:0:0:0:
64,192,44439,1,0,0:0:0:0:
192,192,44516,1,0,0:0:0:0:
320,192,44593,1,2,0:0:0:0:
448,192,44593,1,0,0:0:0:0:
192,192,44747,1,0,0:0:0:0:
64,192,44901,1,2,0:0:0:0:
448,192,44901,1,0,0:0:0:0:
320,192,45055,1,0,0:0:0:0:
64,192,45209,1,2,0:0:0:0:
192,192,45209,1,0,0:0:0:0:
320,192,45362,1,0,0:0:0:0:
64,192,45516,1,2,0:0:0:0:
192,192,45516,1,4,0:0:0:0:
320,192,45670,1,0,0:0:0:0:
64,192,45824,1,2,0:0:0:0:
192,192,45824,1,0,0:0:0:0:
448,192,45978,1,0,0:0:0:0:
320,192,46055,1,0,0:0:0:0:
64,192,46132,1,2,0:0:0:0:
192,192,46132,1,0,0:0:0:0:
320,192,46286,1,0,0:0:0:0:
64,192,46439,1,10,0:0:0:0:
448,192,46439,1,4,0:0:0:0:
192,192,46516,1,8,0:0:0:0:
320,192,46593,1,8,0:0:0:0:
448,192,46670,1,8,0:0:0:0:
192,192,46747,1,10,0:0:0:0:
64,192,46824,1,8,0:0:0:0:
320,192,46901,128,8,47055:0:0:0:0:
64,192,47055,1,8,0:0:0:0:
448,192,47055,1,2,0:0:0:0:
320,192,47132,1,8,0:0:0:0:
192,192,47209,1,8,0:0:0:0:
64,192,47286,1,8,0:0:0:0:
320,192,47362,1,14,0:0:0:0:
448,192,47439,1,8,0:0:0:0:
192,192,47516,128,8,47670:0:0:0:0:
64,192,47670,1,8,0:0:0:0:
448,192,47670,1,2,0:0:0:0:
192,192,47747,1,8,0:0:0:0:
320,192,47824,1,8,0:0:0:0:
448,192,47901,1,8,0:0:0:0:
64,192,47978,1,12,0:0:0:0:
192,192,47978,1,2,0:0:0:0:
320,192,48055,1,8,0:0:0:0:
64,192,48132,1,10,0:0:0:0:
192,192,48209,1,8,0:0:0:0:
320,192,48286,1,8,0:0:0:0:
448,192,48286,1,2,0:0:0:0:
192,192,48362,1,8,0:0:0:0:
448,192,48439,1,8,0:0:0:0:
320,192,48516,1,10,0:0:0:0:
64,192,48593,1,12,0:0:0:0:
192,192,48593,1,2,0:0:0:0:
320,192,48670,1,8,0:0:0:0:
448,192,48747,1,8,0:0:0:0:
192,192,48824,1,10,0:0:0:0:
320,192,48901,1,8,0:0:0:0:
448,192,48901,1,2,0:0:0:0:
192,192,48978,1,10,0:0:0:0:
64,192,49055,1,10,0:0:0:0:
320,192,49132,1,10,0:0:0:0:
192,192,49209,1,8,0:0:0:0:
320,192,49286,1,8,0:0:0:0:
64,192,49362,1,8,0:0:0:0:
448,192,49362,1,2,0:0:0:0:
192,192,49439,1,10,0:0:0:0:
320,192,49517,1,2,0:0:0:0:
448,192,49517,128,4,49678:0:0:0:0:
192,192,49678,1,0,0:0:0:0:
64,192,49839,1,2,0:0:0:0:
448,192,49839,1,0,0:0:0:0:
320,192,50000,1,0,0:0:0:0:
448,192,50081,1,0,0:0:0:0:
64,192,50162,1,2,0:0:0:0:
192,192,50162,1,0,0:0:0:0:
320,192,50323,1,0,0:0:0:0:
64,192,50484,1,2,0:0:0:0:
448,192,50484,1,0,0:0:0:0:
192,192,50646,1,0,0:0:0:0:
320,192,50807,128,2,50968:0:0:0:0:
448,192,50807,1,0,0:0:0:0:
192,192,50968,1,0,0:0:0:0:
320,192,51129,1,2,0:0:0:0:
448,192,51129,1,0,0:0:0:0:
192,192,51291,1,0,0:0:0:0:
64,192,51452,1,2,0:0:0:0:
448,192,51452,1,0,0:0:0:0:
320,192,51533,1,0,0:0:0:0:
192,192,51613,1,0,0:0:0:0:
64,192,51775,1,2,0:0:0:0:
448,192,51775,1,0,0:0:0:0:
320,192,51936,1,0,0:0:0:0:
64,192,52097,128,2,52258:0:0:0:0:
192,192,52097,1,0,0:0:0:0:
320,192,52258,1,0,0:0:0:0:
64,192,52420,1,2,0:0:0:0:
448,192,52420,1,0,0:0:0:0:
192,192,52581,1,0,0:0:0:0:
320,192,52742,1,2,0:0:0:0:
448,192,52742,1,0,0:0:0:0:
192,192,52904,1,0,0:0:0:0:
64,192,53065,1,2,0:0:0:0:
448,192,53065,1,0,0:0:0:0:
320,192,53226,1,0,0:0:0:0:
64,192,53387,1,2,0:0:0:0:
192,192,53387,128,0,53549:0:0:0:0:
320,192,53549,1,0,0:0:0:0:
64,192,53710,1,2,0:0:0:0:
192,192,53710,1,0,0:0:0:0:
320,192,53871,1,0,0:0:0:0:
64,192,54033,1,2,0:0:0:0:
448,192,54033,1,0,0:0:0:0:
192,192,54194,1,0,0:0:0:0:
320,192,54275,1,0,0:0:0:0:
64,192,54355,1,2,0:0:0:0:
448,192,54355,1,0,0:0:0:0:
320,192,54516,1,0,0:0:0:0:
64,192,54678,128,2,54839:0:0:0:0:
192,192,54678,1,0,0:0:0:0:
320,192,54839,1,0,0:0:0:0:
64,192,55000,1,2,0:0:0:0:
448,192,55000,1,0,0:0:0:0:
64,192,55162,1,0,0:0:0:0:
320,192,55323,128,0,55484:0:0:0:0:
192,192,55484,1,0,0:0:0:0:
64,192,55646,1,2,0:0:0:0:
448,192,55646,128,4,55807:0:0:0:0:
192,192,55807,128,0,55968:0:0:0:0:
320,192,55968,1,2,0:0:0:0:
448,192,55968,128,4,56129:0:0:0:0:
192,192,56129,1,0,0:0:0:0:
320,192,56210,1,0,0:0:0:0:
64,192,56291,1,2,0:0:0:0:
448,192,56291,1,8,0:0:0:0:
192,192,56452,1,0,0:0:0:0:
64,192,56613,1,2,0:0:0:0:
448,192,56613,1,0,0:0:0:0:
320,192,56694,1,0,0:0:0:0:
192,192,56775,1,0,0:0:0:0:
64,192,56936,128,2,57097:0:0:0:0:
448,192,56936,1,8,0:0:0:0:
320,192,57097,128,0,57258:0:0:0:0:
64,192,57258,128,2,57420:0:0:0:0:
192,192,57258,1,0,0:0:0:0:
320,192,57420,1,0,0:0:0:0:
192,192,57500,1,0,0:0:0:0:
64,192,57581,1,8,0:0:0:0:
448,192,57581,1,2,0:0:0:0:
320,192,57742,1,0,0:0:0:0:
64,192,57904,1,2,0:0:0:0:
192,192,57904,1,0,0:0:0:0:
320,192,58065,1,0,0:0:0:0:
64,192,58146,1,0,0:0:0:0:
192,192,58226,1,8,0:0:0:0:
448,192,58226,1,2,0:0:0:0:
320,192,58387,1,0,0:0:0:0:
64,192,58549,1,2,0:0:0:0:
448,192,58549,1,8,0:0:0:0:
64,192,58710,1,8,0:0:0:0:
192,192,58710,1,0,0:0:0:0:
192,192,58871,1,8,0:0:0:0:
448,192,58871,1,2,0:0:0:0:
320,192,59033,1,8,0:0:0:0:
448,192,59033,1,0,0:0:0:0:
64,192,59194,1,2,0:0:0:0:
320,192,59194,1,8,0:0:0:0:
64,192,59355,1,8,0:0:0:0:
192,192,59355,1,0,0:0:0:0:
320,192,59436,1,0,0:0:0:0:
192,192,59516,1,10,0:0:0:0:
448,192,59597,1,0,0:0:0:0:
320,192,59678,1,8,0:0:0:0:
192,192,59758,1,0,0:0:0:0:
64,192,59839,128,8,60000:0:0:0:0:
448,192,59839,1,0,0:0:0:100:B_B_Fill6.wav
320,192,60000,1,8,0:0:0:0:
192,192,60081,1,8,0:0:0:0:
320,192,60162,128,8,60323:0:0:0:0:
192,192,60323,1,8,0:0:0:0:
64,192,60404,1,8,0:0:0:0:
320,192,60484,1,8,0:0:0:0:
448,192,60484,128,0,60646:0:0:0:100:B_B_Fill10.wav
192,192,60646,1,8,0:0:0:0:
320,192,60726,1,8,0:0:0:0:
192,192,60807,128,8,60968:0:0:0:0:
320,192,60968,1,8,0:0:0:0:
192,192,61049,1,8,0:0:0:0:
64,192,61129,1,2,0:0:0:0:
448,192,61129,1,4,0:0:0:0:
320,192,61210,1,0,0:0:0:0:
192,192,61291,1,0,0:0:0:0:
64,192,61371,1,0,0:0:0:0:
320,192,61452,1,2,0:0:0:0:
448,192,61452,1,8,0:0:0:0:
192,192,61533,1,0,0:0:0:0:
64,192,61613,1,0,0:0:0:0:
320,192,61775,1,2,0:0:0:0:
448,192,61775,1,0,0:0:0:0:
192,192,61936,1,0,0:0:0:0:
320,192,62016,1,0,0:0:0:0:
64,192,62097,1,2,0:0:0:0:
448,192,62097,1,8,0:0:0:0:
192,192,62178,1,0,0:0:0:0:
448,192,62258,1,0,0:0:0:0:
320,192,62339,1,0,0:0:0:0:
64,192,62420,1,2,0:0:0:0:
192,192,62420,1,0,0:0:0:0:
320,192,62581,1,0,0:0:0:0:
192,192,62662,1,0,0:0:0:0:
64,192,62742,1,2,0:0:0:0:
448,192,62742,1,8,0:0:0:0:
320,192,62904,1,0,0:0:0:0:
64,192,63065,1,2,0:0:0:0:
192,192,63065,1,0,0:0:0:0:
320,192,63226,1,0,0:0:0:0:
192,192,63307,1,0,0:0:0:0:
64,192,63387,1,2,0:0:0:0:
448,192,63387,1,8,0:0:0:0:
192,192,63549,1,0,0:0:0:0:
320,192,63710,1,2,0:0:0:0:
448,192,63710,1,0,0:0:0:0:
192,192,63871,1,0,0:0:0:0:
320,192,63952,1,0,0:0:0:0:
64,192,64033,1,2,0:0:0:0:
448,192,64033,1,8,0:0:0:0:
320,192,64194,1,0,0:0:0:0:
64,192,64355,1,2,0:0:0:0:
192,192,64355,1,0,0:0:0:0:
320,192,64463,1,0,0:0:0:0:
192,192,64570,1,0,0:0:0:0:
320,192,64678,1,2,0:0:0:0:
448,192,64678,1,8,0:0:0:0:
192,192,64785,1,0,0:0:0:0:
320,192,64893,1,0,0:0:0:0:
64,192,65000,1,2,0:0:0:0:
448,192,65000,1,0,0:0:0:0:
192,192,65108,1,0,0:0:0:0:
320,192,65215,1,0,0:0:0:0:
64,192,65323,1,8,0:0:0:0:
448,192,65323,1,2,0:0:0:0:
192,192,65430,1,0,0:0:0:0:
320,192,65538,1,0,0:0:0:0:
64,192,65646,1,2,0:0:0:0:
192,192,65646,1,0,0:0:0:0:
448,192,65726,1,0,0:0:0:0:
320,192,65807,1,0,0:0:0:0:
192,192,65887,1,0,0:0:0:0:
64,192,65968,1,10,0:0:0:0:
448,192,65968,1,4,0:0:0:0:
320,192,66129,1,0,0:0:0:0:
64,192,66291,1,2,0:0:0:0:
192,192,66291,1,0,0:0:0:0:
320,192,66371,1,0,0:0:0:0:
448,192,66452,1,0,0:0:0:0:
192,192,66533,1,0,0:0:0:0:
320,192,66613,1,2,0:0:0:0:
448,192,66613,1,8,0:0:0:0:
192,192,66775,1,0,0:0:0:0:
64,192,66936,1,2,0:0:0:0:
448,192,66936,1,0,0:0:0:0:
192,192,67016,1,0,0:0:0:0:
320,192,67097,1,0,0:0:0:0:
64,192,67258,1,2,0:0:0:0:
192,192,67258,1,8,0:0:0:0:
320,192,67339,1,0,0:0:0:0:
192,192,67420,1,0,0:0:0:0:
64,192,67581,1,2,0:0:0:0:
448,192,67581,1,0,0:0:0:0:
320,192,67742,1,0,0:0:0:0:
64,192,67904,1,8,0:0:0:0:
192,192,67904,1,2,0:0:0:0:
320,192,68065,1,0,0:0:0:0:
64,192,68226,1,2,0:0:0:0:
192,192,68226,1,0,0:0:0:0:
320,192,68387,1,0,0:0:0:0:
64,192,68549,1,8,0:0:0:0:
192,192,68549,1,2,0:0:0:0:
320,192,68710,1,0,0:0:0:0:
64,192,68871,1,2,0:0:0:0:
448,192,68871,1,0,0:0:0:0:
192,192,69033,1,0,0:0:0:0:
320,192,69194,1,8,0:0:0:0:
448,192,69194,1,2,0:0:0:0:
192,192,69355,1,0,0:0:0:0:
320,192,69516,1,2,0:0:0:0:
448,192,69516,1,0,0:0:0:0:
192,192,69678,1,0,0:0:0:0:
320,192,69839,1,8,0:0:0:0:
448,192,69839,1,2,0:0:0:0:
192,192,70000,1,0,0:0:0:0:
64,192,70162,1,4,0:0:0:0:
448,192,70162,1,0,0:0:0:100:p-001.wav
320,192,70484,1,0,0:0:0:100:p-006.wav
192,192,70646,1,0,0:0:0:100:p-008.wav
448,192,70807,1,0,0:0:0:100:p-010.wav
320,192,70887,1,0,0:0:0:100:p-011.wav
192,192,70968,1,0,0:0:0:100:p-012.wav
64,192,71049,1,0,0:0:0:100:p-013.wav
320,192,71129,1,0,0:0:0:100:p-014.wav
192,192,71291,1,0,0:0:0:100:p-016.wav
448,192,71452,1,0,0:0:0:100:p-018.wav
320,192,71533,1,0,0:0:0:100:p-019.wav
64,192,71613,1,0,0:0:0:100:p-020.wav
192,192,71694,1,0,0:0:0:100:p-021.wav
320,192,71775,1,0,0:0:0:100:p-022.wav
448,192,72016,1,0,0:0:0:100:p-025.wav
320,192,72097,1,0,0:0:0:100:p-026.wav
192,192,72178,1,0,0:0:0:100:p-027.wav
64,192,72339,1,0,0:0:0:100:p-029.wav
320,192,72500,1,0,0:0:0:100:p-031.wav
192,192,72581,1,0,0:0:0:100:p-032.wav
448,192,72662,1,0,0:0:0:100:p-033.wav
64,192,72742,1,0,0:0:0:100:p-034.wav
320,192,72904,1,0,0:0:0:100:p-036.wav
192,192,72984,1,0,0:0:0:100:p-037.wav
64,192,73065,1,0,0:0:0:100:p-038.wav
448,192,73226,1,0,0:0:0:100:p-040.wav
320,192,73307,1,0,0:0:0:100:p-041.wav
192,192,73387,1,0,0:0:0:100:p-042.wav
64,192,73549,1,0,0:0:0:100:p-044.wav
192,192,73629,1,0,0:0:0:100:p-045.wav
320,192,73710,1,0,0:0:0:100:p-046.wav
448,192,73871,1,0,0:0:0:100:p-050.wav
64,192,74033,1,0,0:0:0:100:p-052.wav
192,192,74113,1,0,0:0:0:100:p-054.wav
320,192,74194,1,0,0:0:0:100:p-056.wav
448,192,74275,1,0,0:0:0:100:p-058.wav
192,192,74355,1,0,0:0:0:100:p-060.wav
64,192,74516,1,0,0:0:0:100:p-062.wav
320,192,74678,1,0,0:0:0:100:p-064.wav
192,192,74839,1,0,0:0:0:100:p-066.wav
448,192,74920,1,0,0:0:0:100:p-067.wav
64,192,75081,1,0,0:0:0:100:p-070.wav
320,192,75242,1,0,0:0:0:100:p-073.wav
448,192,75323,1,0,0:0:0:100:p-074.wav
192,192,75484,1,0,0:0:0:100:p-076.wav
320,192,75565,1,0,0:0:0:100:p-077.wav
448,192,75646,1,0,0:0:0:100:p-078.wav
64,192,75807,1,0,0:0:0:100:p-080.wav
192,192,75887,1,0,0:0:0:100:p-081.wav
320,192,75968,1,0,0:0:0:100:p-082.wav
448,192,76129,1,0,0:0:0:100:p-084.wav
320,192,76210,1,0,0:0:0:100:p-085.wav
192,192,76291,1,0,0:0:0:100:p-086.wav
64,192,76452,1,0,0:0:0:100:p-088.wav
448,192,76613,1,0,0:0:0:100:p-090.wav
320,192,76694,1,0,0:0:0:100:p-092.wav
192,192,76775,1,0,0:0:0:100:p-094.wav
64,192,76855,1,0,0:0:0:100:p-096.wav
320,192,76936,1,0,0:0:0:100:p-098.wav
448,192,77097,1,0,0:0:0:100:p-100.wav
320,192,77178,1,0,0:0:0:100:p-101.wav
192,192,77258,1,0,0:0:0:100:p-102.wav
320,192,77420,1,0,0:0:0:100:p-104.wav
64,192,77581,1,0,0:0:0:100:p-106.wav
448,192,77742,1,0,0:0:0:100:p-108.wav
192,192,77904,1,0,0:0:0:100:p-110.wav
320,192,77984,1,0,0:0:0:100:p-111.wav
448,192,78065,1,0,0:0:0:100:p-112.wav
64,192,78226,1,0,0:0:0:100:p-114.wav
192,192,78307,1,0,0:0:0:100:p-115.wav
320,192,78387,1,0,0:0:0:100:p-116.wav
448,192,78549,1,0,0:0:0:100:p-118.wav
320,192,78629,1,0,0:0:0:100:p-119.wav
192,192,78710,1,0,0:0:0:100:p-120.wav
320,192,78871,1,0,0:0:0:100:p-122.wav
192,192,78952,1,0,0:0:0:100:p-123.wav
64,192,79033,1,0,0:0:0:100:p-124.wav
448,192,79194,1,0,0:0:0:100:p-126b.wav
320,192,79315,1,0,0:0:0:100:p-127b.wav
64,192,79557,1,0,0:0:0:100:p-126b.wav
192,192,79678,1,0,0:0:0:100:p-127b.wav
448,192,79920,1,0,0:0:0:100:p-126b.wav
64,192,80162,1,0,0:0:0:100:p-129b.wav
192,192,80323,1,0,0:0:0:100:p-130b.wav
320,192,80646,128,0,81049:0:0:0:100:p-131a.wav
64,192,81049,128,0,81452:0:0:0:100:p-132a.wav
192,192,81452,128,0,81775:0:0:0:100:p-133b.wav
320,192,81775,1,2,0:0:0:0:
448,192,81775,1,4,0:0:0:0:
320,192,81936,1,2,0:0:0:0:
64,192,82097,1,0,0:0:0:100:adsnare-tuyoi.wav
448,192,82097,1,0,0:0:0:0:
192,192,82258,1,0,0:0:0:0:
320,192,82420,1,0,0:0:0:0:
64,192,82500,1,0,0:0:0:100:adsnare-yowao.wav
192,192,82500,1,0,0:0:0:0:
64,192,82742,1,0,0:0:0:100:adsnare-tuyoi.wav
448,192,82742,1,0,0:0:0:0:
320,192,83065,1,0,0:0:0:0:
64,192,83226,1,2,0:0:0:0:
192,192,83226,1,0,0:0:0:0:
64,192,83387,1,0,0:0:0:100:adsnare-tuyoi.wav
448,192,83387,1,0,0:0:0:0:
320,192,83549,1,2,0:0:0:0:
192,192,83710,1,0,0:0:0:0:
320,192,83791,1,0,0:0:0:100:adsnare-yowao.wav
448,192,83791,1,0,0:0:0:0:
64,192,84033,1,2,0:0:0:0:
448,192,84033,1,0,0:0:0:100:adsnare-yowao2.wav
320,192,84113,1,2,0:0:0:0:
192,192,84194,1,2,0:0:0:0:
320,192,84275,1,2,0:0:0:0:
64,192,84355,1,2,0:0:0:0:
192,192,84355,1,0,0:0:0:0:
448,192,84436,1,0,0:0:0:0:
320,192,84516,1,0,0:0:0:0:
192,192,84597,1,0,0:0:0:0:
64,192,84678,1,0,0:0:0:100:adsnare-yowao.wav
448,192,84678,1,0,0:0:0:0:
320,192,84839,1,0,0:0:0:100:adsnare-yowao.wav
64,192,84920,1,0,0:0:0:100:adsnare-yowao2.wav
192,192,84920,1,0,0:0:0:0:
320,192,85081,1,0,0:0:0:100:adsnare-yowao.wav
64,192,85162,1,2,0:0:0:0:
192,192,85162,1,0,0:0:0:0:
64,192,85323,1,0,0:0:0:100:adsnare-hutuu.wav
448,192,85323,1,0,0:0:0:0:
192,192,85484,1,0,0:0:0:0:
320,192,85565,1,0,0:0:0:100:adsnare-yowao.wav
448,192,85646,1,0,0:0:0:0:
64,192,85807,1,2,0:0:0:0:
192,192,85807,1,0,0:0:0:0:
64,192,85968,1,0,0:0:0:100:adsnare-hutuu.wav
448,192,85968,1,0,0:0:0:0:
320,192,86129,1,0,0:0:0:0:
192,192,86210,1,0,0:0:0:0:
320,192,86291,1,2,0:0:0:0:
448,192,86291,1,0,0:0:0:100:adsnare-tuyoi.wav
64,192,86452,1,0,0:0:0:0:
192,192,86533,1,2,0:0:0:0:
448,192,86533,1,0,0:0:0:100:adsnare-tuyoi.wav
320,192,86694,1,0,0:0:0:0:
64,192,86775,1,2,0:0:0:0:
448,192,86775,1,0,0:0:0:100:adsnare-tuyoi.wav
64,192,86936,1,4,0:0:0:0:
192,192,86936,1,2,0:0:0:0:
320,192,87097,1,0,0:0:0:0:
64,192,87258,1,2,0:0:0:0:
448,192,87258,1,0,0:0:0:100:clap.wav
448,192,87420,1,0,0:0:0:0:
320,192,87500,1,0,0:0:0:0:
64,192,87581,1,2,0:0:0:0:
192,192,87581,1,0,0:0:0:0:
320,192,87742,1,0,0:0:0:0:
192,192,87823,1,0,0:0:0:0:
64,192,87904,1,2,0:0:0:0:
448,192,87904,1,0,0:0:0:100:clap.wav
320,192,87984,1,0,0:0:0:0:
192,192,88065,1,0,0:0:0:0:
320,192,88226,1,2,0:0:0:0:
448,192,88226,1,0,0:0:0:0:
192,192,88387,1,0,0:0:0:0:
64,192,88549,1,2,0:0:0:0:
448,192,88549,1,0,0:0:0:100:clap.wav
64,192,88710,1,0,0:0:0:0:
320,192,88871,1,2,0:0:0:0:
448,192,88871,1,0,0:0:0:0:
320,192,89033,1,0,0:0:0:0:
64,192,89194,1,2,0:0:0:0:
448,192,89194,1,0,0:0:0:100:clap.wav
320,192,89355,1,0,0:0:0:0:
192,192,89436,1,0,0:0:0:0:
64,192,89516,1,2,0:0:0:0:
448,192,89516,1,0,0:0:0:0:
320,192,89597,1,0,0:0:0:0:
192,192,89758,1,0,0:0:0:0:
320,192,89839,1,2,0:0:0:0:
448,192,89839,1,0,0:0:0:100:clap.wav
192,192,90000,1,0,0:0:0:0:
64,192,90162,1,2,0:0:0:0:
448,192,90162,1,0,0:0:0:0:
320,192,90242,1,0,0:0:0:0:
192,192,90323,1,0,0:0:0:0:
64,192,90404,1,0,0:0:0:0:
320,192,90484,1,2,0:0:0:0:
448,192,90484,1,0,0:0:0:100:clap.wav
192,192,90646,1,0,0:0:0:0:
64,192,90807,1,2,0:0:0:0:
448,192,90807,1,0,0:0:0:0:
320,192,90914,1,0,0:0:0:0:
192,192,91022,1,0,0:0:0:0:
64,192,91129,1,2,0:0:0:0:
448,192,91129,1,0,0:0:0:100:clap.wav
320,192,91237,1,0,0:0:0:0:
192,192,91344,1,0,0:0:0:0:
64,192,91452,1,2,0:0:0:0:
448,192,91452,1,0,0:0:0:0:
320,192,91560,1,0,0:0:0:0:
64,192,91667,1,0,0:0:0:0:
320,192,91775,1,2,0:0:0:0:
448,192,91775,1,0,0:0:0:100:clap.wav
192,192,91882,1,0,0:0:0:0:
320,192,91990,1,0,0:0:0:0:
64,192,92097,1,2,0:0:0:0:
448,192,92097,1,0,0:0:0:0:
192,192,92258,1,0,0:0:0:0:
320,192,92420,1,2,0:0:0:0:
448,192,92420,1,0,0:0:0:100:clap.wav
192,192,92500,1,0,0:0:0:0:
320,192,92662,1,0,0:0:0:0:
64,192,92742,1,2,0:0:0:0:
192,192,92742,1,0,0:0:0:0:
320,192,92904,1,0,0:0:0:0:
64,192,93065,1,2,0:0:0:0:
448,192,93065,1,0,0:0:0:100:clap.wav
192,192,93146,1,0,0:0:0:0:
320,192,93226,1,0,0:0:0:0:
448,192,93307,1,0,0:0:0:0:
64,192,93387,1,2,0:0:0:0:
192,192,93387,1,0,0:0:0:0:
192,192,93549,1,0,0:0:0:0:
64,192,93710,1,2,0:0:0:0:
448,192,93710,1,0,0:0:0:100:clap.wav
320,192,93791,1,0,0:0:0:0:
64,192,93871,1,0,0:0:0:0:
192,192,93952,1,0,0:0:0:0:
320,192,94033,1,2,0:0:0:0:
448,192,94033,1,0,0:0:0:0:
192,192,94194,1,0,0:0:0:0:
320,192,94275,1,0,0:0:0:0:
64,192,94355,1,2,0:0:0:0:
448,192,94355,1,0,0:0:0:100:clap.wav
192,192,94436,1,0,0:0:0:0:
448,192,94516,1,0,0:0:0:0:
320,192,94597,1,0,0:0:0:0:
64,192,94678,1,2,0:0:0:0:
192,192,94678,1,0,0:0:0:0:
320,192,94839,1,0,0:0:0:0:
320,192,95000,1,2,0:0:0:0:
448,192,95000,1,0,0:0:0:100:clap.wav
192,192,95162,1,0,0:0:0:0:
64,192,95323,1,2,0:0:0:0:
448,192,95323,1,0,0:0:0:0:
320,192,95484,1,0,0:0:0:0:
64,192,95646,1,2,0:0:0:0:
192,192,95646,1,0,0:0:0:100:clap.wav
320,192,95807,1,0,0:0:0:0:
64,192,95968,1,2,0:0:0:0:
448,192,95968,1,0,0:0:0:0:
192,192,96129,1,0,0:0:0:0:
320,192,96291,1,2,0:0:0:0:
448,192,96291,1,0,0:0:0:100:clap.wav
192,192,96452,1,0,0:0:0:0:
64,192,96613,1,2,0:0:0:0:
448,192,96613,1,0,0:0:0:0:
320,192,96775,1,0,0:0:0:0:
64,192,96936,1,2,0:0:0:0:
448,192,96936,1,0,0:0:0:100:clap.wav
192,192,97097,1,0,0:0:0:0:
320,192,97258,1,2,0:0:0:0:
448,192,97258,1,4,0:0:0:0:
192,192,97420,1,0,0:0:0:0:
64,192,97581,1,2,0:0:0:0:
448,192,97581,1,8,0:0:0:0:
64,192,97742,1,0,0:0:0:0:
192,192,97823,1,0,0:0:0:0:
320,192,97904,1,2,0:0:0:0:
448,192,97904,1,0,0:0:0:0:
192,192,98065,1,0,0:0:0:0:
320,192,98146,1,0,0:0:0:0:
64,192,98226,1,2,0:0:0:0:
448,192,98226,1,8,0:0:0:0:
192,192,98307,1,0,0:0:0:0:
320,192,98387,1,0,0:0:0:0:
64,192,98549,1,2,0:0:0:0:
192,192,98549,1,0,0:0:0:0:
320,192,98710,1,0,0:0:0:0:
64,192,98871,1,2,0:0:0:0:
448,192,98871,1,8,0:0:0:0:
448,192,99033,1,0,0:0:0:0:
320,192,99113,1,0,0:0:0:0:
64,192,99194,1,2,0:0:0:0:
192,192,99194,1,0,0:0:0:0:
320,192,99355,1,0,0:0:0:0:
192,192,99436,1,0,0:0:0:0:
64,192,99516,1,2,0:0:0:0:
448,192,99516,1,8,0:0:0:0:
192,192,99678,1,0,0:0:0:0:
320,192,99758,1,0,0:0:0:0:
64,192,99839,1,2,0:0:0:0:
448,192,99839,1,0,0:0:0:0:
448,192,100000,1,0,0:0:0:0:
320,192,100081,1,0,0:0:0:0:
64,192,100162,1,8,0:0:0:0:
192,192,100162,1,2,0:0:0:0:
320,192,100323,1,0,0:0:0:0:
192,192,100404,1,0,0:0:0:0:
64,192,100484,1,2,0:0:0:0:
448,192,100484,1,0,0:0:0:0:
64,192,100646,1,0,0:0:0:0:
192,192,100726,1,0,0:0:0:0:
320,192,100807,1,8,0:0:0:0:
448,192,100807,1,2,0:0:0:0:
192,192,100968,1,0,0:0:0:0:
64,192,101129,1,2,0:0:0:0:
448,192,101129,1,0,0:0:0:0:
320,192,101291,1,0,0:0:0:0:
448,192,101371,1,0,0:0:0:0:
64,192,101452,1,2,0:0:0:0:
192,192,101452,1,8,0:0:0:0:
320,192,101613,1,0,0:0:0:0:
64,192,101775,1,2,0:0:0:0:
448,192,101775,1,0,0:0:0:0:
192,192,101855,1,0,0:0:0:0:
320,192,101936,1,0,0:0:0:0:
448,192,102016,1,0,0:0:0:0:
64,192,102097,1,2,0:0:0:0:
192,192,102097,1,8,0:0:0:0:
320,192,102178,1,0,0:0:0:0:
448,192,102258,1,0,0:0:0:0:
192,192,102339,1,0,0:0:0:0:
64,192,102420,1,8,0:0:0:0:
448,192,102420,1,2,0:0:0:0:
320,192,102581,1,8,0:0:0:0:
192,192,102662,1,8,0:0:0:0:
64,192,102742,1,8,0:0:0:0:
448,192,102742,1,2,0:0:0:0:
192,192,102904,1,8,0:0:0:0:
320,192,102984,1,8,0:0:0:0:
64,192,103065,1,8,0:0:0:0:
448,192,103065,1,2,0:0:0:0:
320,192,103226,1,8,0:0:0:0:
192,192,103307,1,8,0:0:0:0:
64,192,103387,1,2,0:0:0:0:
448,192,103387,1,8,0:0:0:0:
320,192,103468,1,8,0:0:0:0:
192,192,103549,1,8,0:0:0:0:
320,192,103629,1,8,0:0:0:0:
64,192,103710,1,8,0:0:0:0:
448,192,103710,1,2,0:0:0:0:
64,192,103871,1,8,0:0:0:0:
192,192,103952,1,8,0:0:0:0:
320,192,104033,1,2,0:0:0:0:
448,192,104033,1,8,0:0:0:0:
448,192,104194,1,8,0:0:0:0:
320,192,104275,1,8,0:0:0:0:
64,192,104355,1,2,0:0:0:0:
192,192,104355,1,8,0:0:0:0:
64,192,104516,1,8,0:0:0:0:
192,192,104597,1,8,0:0:0:0:
320,192,104678,1,8,0:0:0:0:
448,192,104678,1,2,0:0:0:0:
320,192,104839,1,8,0:0:0:0:
192,192,104920,1,8,0:0:0:0:
64,192,105000,1,8,0:0:0:0:
448,192,105000,1,2,0:0:0:0:
320,192,105081,1,8,0:0:0:0:
64,192,105162,1,8,0:0:0:0:
192,192,105242,1,8,0:0:0:0:
320,192,105323,1,8,0:0:0:0:
448,192,105323,1,2,0:0:0:0:
192,192,105484,1,8,0:0:0:0:
320,192,105565,1,8,0:0:0:0:
64,192,105646,1,8,0:0:0:0:
448,192,105646,1,2,0:0:0:0:
192,192,105726,1,8,0:0:0:0:
448,192,105807,1,8,0:0:0:0:
320,192,105887,1,8,0:0:0:0:
64,192,105968,1,8,0:0:0:0:
192,192,105968,1,2,0:0:0:0:
320,192,106129,1,8,0:0:0:0:
192,192,106210,1,8,0:0:0:0:
64,192,106291,1,8,0:0:0:0:
448,192,106291,1,0,0:0:0:0:
320,192,106452,128,0,106613:0:0:0:100:B_C_Fill1.wav
64,192,106613,128,0,106775:0:0:0:100:B_C_Fill2.wav
448,192,106775,128,0,106936:0:0:0:100:B_C_Fill3.wav
192,192,106936,128,0,107097:0:0:0:100:B_C_Fill4.wav
320,192,107097,1,0,0:0:0:100:B_C_Fill5.wav
192,192,107258,1,0,0:0:0:100:B_C_Fill6.wav
448,192,107339,1,0,0:0:0:0:
320,192,107420,1,0,0:0:0:100:B_C_Fill7.wav
192,192,107500,1,0,0:0:0:0:
64,192,107581,1,4,0:0:0:0:
448,192,107581,1,2,0:0:0:0:
320,192,107739,1,0,0:0:0:0:
64,192,107898,1,2,0:0:0:0:
448,192,107898,1,8,0:0:0:0:
192,192,108057,1,0,0:0:0:0:
320,192,108215,1,2,0:0:0:0:
448,192,108215,1,0,0:0:0:0:
192,192,108374,1,0,0:0:0:0:
64,192,108533,1,2,0:0:0:0:
448,192,108533,1,8,0:0:0:0:
320,192,108771,1,8,0:0:0:0:
64,192,108850,1,2,0:0:0:0:
192,192,108850,1,0,0:0:0:0:
320,192,109009,1,0,0:0:0:0:
64,192,109168,1,8,0:0:0:0:
448,192,109168,1,2,0:0:0:0:
192,192,109327,1,0,0:0:0:0:
320,192,109485,1,2,0:0:0:0:
448,192,109485,1,0,0:0:0:0:
192,192,109644,1,0,0:0:0:0:
64,192,109803,1,8,0:0:0:0:
448,192,109803,1,2,0:0:0:0:
192,192,109961,1,2,0:0:0:0:
64,192,110041,1,8,0:0:0:0:
320,192,110120,1,2,0:0:0:0:
448,192,110120,1,0,0:0:0:0:
192,192,110279,1,0,0:0:0:0:
64,192,110438,1,2,0:0:0:0:
448,192,110438,1,8,0:0:0:0:
320,192,110596,1,0,0:0:0:0:
64,192,110755,1,2,0:0:0:0:
192,192,110755,1,0,0:0:0:0:
320,192,110914,1,0,0:0:0:0:
64,192,111073,1,2,0:0:0:0:
448,192,111073,1,8,0:0:0:0:
192,192,111311,1,8,0:0:0:0:
320,192,111390,1,2,0:0:0:0:
448,192,111390,1,0,0:0:0:0:
192,192,111549,1,0,0:0:0:0:
64,192,111707,1,8,0:0:0:0:
448,192,111707,1,2,0:0:0:0:
320,192,111866,1,0,0:0:0:0:
64,192,112025,1,2,0:0:0:0:
192,192,112025,1,0,0:0:0:0:
320,192,112184,1,0,0:0:0:0:
64,192,112342,1,8,0:0:0:0:
448,192,112342,1,2,0:0:0:0:
192,192,112422,1,2,0:0:0:0:
320,192,112501,1,2,0:0:0:0:
448,192,112581,1,10,0:0:0:0:
64,192,112660,1,2,0:0:0:0:
192,192,112660,1,0,0:0:0:0:
320,192,112819,1,0,0:0:0:0:
64,192,112977,1,8,0:0:0:0:
448,192,112977,1,2,0:0:0:0:
192,192,113136,1,0,0:0:0:0:
320,192,113295,1,2,0:0:0:0:
448,192,113295,1,0,0:0:0:0:
192,192,113454,1,0,0:0:0:0:
64,192,113612,1,8,0:0:0:0:
448,192,113612,1,2,0:0:0:0:
320,192,113850,1,8,0:0:0:0:
64,192,113930,1,2,0:0:0:0:
192,192,113930,1,0,0:0:0:0:
320,192,114088,1,0,0:0:0:0:
64,192,114247,1,2,0:0:0:0:
448,192,114247,1,8,0:0:0:0:
192,192,114406,1,0,0:0:0:0:
320,192,114565,1,2,0:0:0:0:
448,192,114565,1,0,0:0:0:0:
192,192,114723,1,0,0:0:0:0:
64,192,114882,1,2,0:0:0:0:
448,192,114882,1,8,0:0:0:0:
192,192,115120,1,8,0:0:0:0:
320,192,115200,1,2,0:0:0:0:
448,192,115200,1,0,0:0:0:0:
64,192,115411,1,2,0:0:0:0:
320,192,115411,1,0,0:0:0:0:
64,192,115623,1,2,0:0:0:0:
192,192,115623,1,0,0:0:0:0:
320,192,115834,1,2,0:0:0:0:
448,192,115834,1,0,0:0:0:0:
64,192,115914,1,2,0:0:0:0:
192,192,115993,1,2,0:0:0:0:
320,192,116073,1,2,0:0:0:0:
64,192,116152,1,8,0:0:0:0:
448,192,116152,1,2,0:0:0:0:
192,192,116311,1,2,0:0:0:0:
64,192,116390,1,8,0:0:0:0:
320,192,116469,1,2,0:0:0:0:
448,192,116469,1,0,0:0:0:0:
192,192,116549,1,2,0:0:0:0:
448,192,116628,1,2,0:0:0:0:
320,192,116707,1,2,0:0:0:0:
64,192,116787,1,8,0:0:0:0:
192,192,116787,1,2,0:0:0:0:
320,192,116946,1,2,0:0:0:0:
64,192,117104,1,2,0:0:0:0:
448,192,117104,1,0,0:0:0:0:
192,192,117263,1,2,0:0:0:0:
320,192,117342,1,2,0:0:0:0:
64,192,117422,1,2,0:0:0:0:
448,192,117422,1,8,0:0:0:0:
192,192,117580,1,2,0:0:0:0:
320,192,117739,1,4,0:0:0:0:
448,192,117739,1,2,0:0:0:0:
192,192,117819,1,2,0:0:0:0:
320,192,117898,1,2,0:0:0:0:
192,192,117977,1,2,0:0:0:0:
64,192,118057,1,2,0:0:0:0:
448,192,118057,1,0,0:0:0:0:
320,192,118136,1,2,0:0:0:0:
192,192,118215,1,2,0:0:0:0:
448,192,118295,1,2,0:0:0:0:
64,192,118374,1,2,0:0:0:0:
192,192,118374,1,0,0:0:0:0:
320,192,118454,1,2,0:0:0:0:
64,192,118533,1,2,0:0:0:0:
320,192,118612,1,2,0:0:0:0:
64,192,118692,1,0,0:0:0:100:inpactclap.wav
448,192,118692,1,0,0:0:0:0:
320,192,119009,1,6,0:0:0:0:
448,192,119009,1,8,0:0:0:0:
192,192,119168,1,0,0:0:0:0:
64,192,119327,1,2,0:0:0:0:
448,192,119327,1,8,0:0:0:0:
448,192,119485,1,0,0:0:0:0:
64,192,119644,1,2,0:0:0:0:
192,192,119644,1,8,0:0:0:0:
320,192,119803,1,0,0:0:0:0:
64,192,119961,1,2,0:0:0:0:
448,192,119961,1,8,0:0:0:0:
64,192,120120,1,0,0:0:0:0:
320,192,120279,1,8,0:0:0:0:
448,192,120279,1,2,0:0:0:0:
192,192,120438,1,0,0:0:0:0:
64,192,120596,1,8,0:0:0:0:
448,192,120596,1,2,0:0:0:0:
448,192,120755,1,0,0:0:0:0:
64,192,120914,1,8,0:0:0:0:
192,192,120914,1,2,0:0:0:0:
320,192,121073,1,0,0:0:0:0:
64,192,121231,1,8,0:0:0:0:
448,192,121231,1,2,0:0:0:0:
64,192,121390,1,0,0:0:0:0:
320,192,121549,1,2,0:0:0:0:
448,192,121549,1,8,0:0:0:0:
192,192,121707,1,0,0:0:0:0:
64,192,121866,1,2,0:0:0:0:
448,192,121866,1,8,0:0:0:0:
448,192,122025,1,0,0:0:0:0:
64,192,122184,1,2,0:0:0:0:
192,192,122184,1,8,0:0:0:0:
320,192,122342,1,0,0:0:0:0:
64,192,122501,1,2,0:0:0:0:
448,192,122501,1,8,0:0:0:0:
64,192,122660,1,0,0:0:0:0:
320,192,122819,1,10,0:0:0:0:
448,192,122819,1,4,0:0:0:0:
64,192,122977,1,2,0:0:0:0:
192,192,122977,1,8,0:0:0:0:
320,192,123136,1,8,0:0:0:0:
448,192,123136,1,2,0:0:0:0:
64,192,123295,1,2,0:0:0:0:
192,192,123295,1,8,0:0:0:0:
320,192,123454,1,8,0:0:0:0:
448,192,123454,1,2,0:0:0:0:
192,192,123612,1,2,0:0:0:0:
448,192,123612,1,8,0:0:0:0:
64,192,123771,1,8,0:0:0:0:
192,192,123771,1,2,0:0:0:0:
64,192,123930,1,2,0:0:0:0:
320,192,123930,1,8,0:0:0:0:
320,192,124088,1,10,0:0:0:0:
448,192,124088,1,4,0:0:0:0:
64,192,124247,1,8,0:0:0:0:
192,192,124247,1,2,0:0:0:0:
320,192,124406,1,8,0:0:0:0:
448,192,124406,1,2,0:0:0:0:
64,192,124565,1,2,0:0:0:0:
192,192,124565,1,8,0:0:0:0:
320,192,124723,1,8,0:0:0:0:
448,192,124723,1,2,0:0:0:0:
192,192,124882,1,2,0:0:0:0:
448,192,124882,1,8,0:0:0:0:
64,192,125041,1,8,0:0:0:0:
192,192,125041,1,2,0:0:0:0:
64,192,125200,1,2,0:0:0:0:
320,192,125200,1,8,0:0:0:0:
320,192,125358,1,10,0:0:0:0:
448,192,125358,1,4,0:0:0:0:
192,192,125438,1,10,0:0:0:0:
64,192,125517,1,10,0:0:0:0:
320,192,125596,1,10,0:0:0:0:
192,192,125676,1,10,0:0:0:0:
64,192,125755,1,10,0:0:0:0:
448,192,125834,1,10,0:0:0:0:
320,192,125914,1,10,0:0:0:0:
64,192,125993,1,8,0:0:0:0:
192,192,125993,1,2,0:0:0:0:
320,192,126073,1,10,0:0:0:0:
448,192,126152,1,10,0:0:0:0:
192,192,126231,1,10,0:0:0:0:
320,192,126311,1,10,0:0:0:0:
448,192,126390,1,10,0:0:0:0:
64,192,126469,1,10,0:0:0:0:
192,192,126549,1,10,0:0:0:0:
320,192,126628,1,14,0:0:0:0:
448,192,126707,1,8,0:0:0:0:
192,192,126787,1,2,0:0:0:0:
64,192,126787,1,8,0:0:0:0:
320,192,126866,1,8,0:0:0:0:
192,192,126946,1,8,0:0:0:0:
64,192,127025,1,8,0:0:0:0:
320,192,127104,1,8,0:0:0:0:
448,192,127104,1,2,0:0:0:0:
192,192,127184,1,8,0:0:0:0:
320,192,127263,1,8,0:0:0:0:
448,192,127342,1,8,0:0:0:0:
192,192,127422,1,2,0:0:0:0:
64,192,127422,1,8,0:0:0:0:
320,192,127501,1,8,0:0:0:0:
192,192,127580,1,8,0:0:0:0:
64,192,127660,1,8,0:0:0:0:
320,192,127739,1,8,0:0:0:0:
448,192,127739,1,2,0:0:0:0:
192,192,127819,1,8,0:0:0:0:
