osu file format v14

[General]
AudioFilename: audio.mp3
AudioLeadIn: 0
PreviewTime: 86855
Countdown: 0
SampleSet: Soft
StackLeniency: 0.7
Mode: 3
LetterboxInBreaks: 0
SpecialStyle: 0
WidescreenStoryboard: 0

[Editor]
Bookmarks: 286,5209,10132,15055,18747,23670,24901,34747,43362,49517,54678,58549,61129,70162,81775,86936,97258,102420,107581,119009,127898
DistanceSpacing: 1.8
BeatDivisor: 1
GridSize: 16
TimelineZoom: 0.8999999

[Metadata]
Title:XIII Charlotte
TitleUnicode:XIII Charlotte
Artist:m108
ArtistUnicode:m108
Creator:FAMoss
Version:Beginner
Source:
Tags:VorticalEx z Flash of Crimson Lily Lisette Crow Solace BOFU2017 FRENZ2017 of fighters 2012 ein neuer heiliger legenda est a myth 13lue cave neo epic trancecore metuya flap instrumental electronic bms
BeatmapID:2865552
BeatmapSetID:1366994

[Difficulty]
HPDrainRate:6.5
CircleSize:4
OverallDifficulty:6.5
ApproachRate:5
SliderMultiplier:1.4
SliderTickRate:1

[Events]
//Background and Video events
0,0,"BG.jpg",0,0
//Break Periods
//Storyboard Layer 0 (Background)
//Storyboard Layer 1 (Fail)
//Storyboard Layer 2 (Pass)
//Storyboard Layer 3 (Foreground)
//Storyboard Layer 4 (Overlay)
//Storyboard Sound Samples
Sample,18747,0,"prt.wav",100
Sample,18824,0,"prt-01.wav",100
Sample,18901,0,"prt-02.wav",100
Sample,18978,0,"prt-03.wav",100
Sample,19055,0,"prt-04.wav",100
Sample,19132,0,"prt-05.wav",100
Sample,19209,0,"prt-06.wav",100
Sample,19286,0,"prt-07.wav",100
Sample,19362,0,"prt-08.wav",100
Sample,19439,0,"prt-09.wav",100
Sample,19516,0,"prt-10.wav",100
Sample,19593,0,"prt-11.wav",100
Sample,19670,0,"prt-12.wav",100
Sample,19747,0,"prt-13.wav",100
Sample,19824,0,"prt-14.wav",100
Sample,19901,0,"prt-15.wav",100
Sample,20055,0,"prt-17.wav",100
Sample,20132,0,"prt-18.wav",100
Sample,20209,0,"prt-19.wav",100
Sample,20286,0,"prt-20.wav",100
Sample,20362,0,"prt-21.wav",100
Sample,20439,0,"prt-22.wav",100
Sample,20516,0,"prt-23.wav",100
Sample,20593,0,"prt-24.wav",100
Sample,20670,0,"prt-25.wav",100
Sample,20747,0,"prt-26.wav",100
Sample,20824,0,"prt-27.wav",100
Sample,20901,0,"prt-28.wav",100
Sample,20978,0,"prt-29.wav",100
Sample,21055,0,"prt-30.wav",100
Sample,21132,0,"prt-31.wav",100
Sample,21286,0,"prt-33.wav",100
Sample,21362,0,"prt-34.wav",100
Sample,21439,0,"prt-35.wav",100
Sample,21516,0,"prt-36.wav",100
Sample,21593,0,"prt-37.wav",100
Sample,21670,0,"prt-38.wav",100
Sample,21747,0,"prt-39.wav",100
Sample,21824,0,"prt-40.wav",100
Sample,21901,0,"prt-41.wav",100
Sample,21978,0,"prt-42.wav",100
Sample,22055,0,"prt-43.wav",100
Sample,22132,0,"prt-44.wav",100
Sample,22209,0,"prt-45.wav",100
Sample,22286,0,"prt-46.wav",100
Sample,22362,0,"prt-47.wav",100
Sample,22516,0,"prt-49.wav",100
Sample,22593,0,"prt-50.wav",100
Sample,22670,0,"prt-51.wav",100
Sample,22747,0,"prt-52.wav",100
Sample,22824,0,"prt-53.wav",100
Sample,22901,0,"prt-54.wav",100
Sample,22978,0,"prt-55.wav",100
Sample,23055,0,"prt-56.wav",100
Sample,23132,0,"prt-57.wav",100
Sample,23209,0,"prt-58.wav",100
Sample,23286,0,"prt-59.wav",100
Sample,23362,0,"prt-60.wav",100
Sample,23439,0,"prt-61.wav",100
Sample,23516,0,"prt-62.wav",100
Sample,23593,0,"prt-63.wav",100
Sample,23747,0,"prt-65.wav",100
Sample,23824,0,"prt-66.wav",100
Sample,23901,0,"prt-67.wav",100
Sample,23978,0,"prt-68.wav",100
Sample,24055,0,"prt-69.wav",100
Sample,24132,0,"prt-70.wav",100
Sample,24209,0,"prt-71.wav",100
Sample,24286,0,"prt-72.wav",100
Sample,24362,0,"prt-73.wav",100
Sample,24439,0,"prt-74.wav",100
Sample,24516,0,"prt-75.wav",100
Sample,24593,0,"prt-76.wav",100
Sample,24670,0,"prt-77.wav",100
Sample,24747,0,"prt-78.wav",100
Sample,24824,0,"prt-79.wav",100
Sample,24901,0,"prt-80.wav",100
Sample,59839,0,"B_B_Fill6.wav",100
Sample,60162,0,"B_B_Fill8.wav",100
Sample,60484,0,"B_B_Fill10.wav",100
Sample,60807,0,"B_B_Fill11.wav",100
Sample,70162,0,"p-001.wav",100
Sample,70202,0,"p-002.wav",100
Sample,70242,0,"p-003.wav",100
Sample,70283,0,"p-004.wav",100
Sample,70484,0,"p-006.wav",100
Sample,70565,0,"p-007.wav",100
Sample,70646,0,"p-008.wav",100
Sample,70726,0,"p-009.wav",100
Sample,70807,0,"p-010.wav",100
Sample,70887,0,"p-011.wav",100
Sample,70968,0,"p-012.wav",100
Sample,71049,0,"p-013.wav",100
Sample,71129,0,"p-014.wav",100
Sample,71210,0,"p-015.wav",100
Sample,71291,0,"p-016.wav",100
Sample,71371,0,"p-017.wav",100
Sample,71533,0,"p-019.wav",100
Sample,71613,0,"p-020.wav",100
Sample,71694,0,"p-021.wav",100
Sample,71775,0,"p-022.wav",100
Sample,71855,0,"p-023.wav",100
Sample,71936,0,"p-024.wav",100
Sample,72016,0,"p-025.wav",100
Sample,72097,0,"p-026.wav",100
Sample,72178,0,"p-027.wav",100
Sample,72258,0,"p-028.wav",100
Sample,72339,0,"p-029.wav",100
Sample,72420,0,"p-030.wav",100
Sample,72500,0,"p-031.wav",100
Sample,72581,0,"p-032.wav",100
Sample,72662,0,"p-033.wav",100
Sample,72823,0,"p-035.wav",100
Sample,72904,0,"p-036.wav",100
Sample,72984,0,"p-037.wav",100
Sample,73065,0,"p-038.wav",100
Sample,73146,0,"p-039.wav",100
Sample,73226,0,"p-040.wav",100
Sample,73307,0,"p-041.wav",100
Sample,73387,0,"p-042.wav",100
Sample,73468,0,"p-043.wav",100
Sample,73549,0,"p-044.wav",100
Sample,73629,0,"p-045.wav",100
Sample,73710,0,"p-046.wav",100
Sample,73791,0,"p-048.wav",100
Sample,73871,0,"p-050.wav",100
Sample,73952,0,"p-051.wav",100
Sample,74073,0,"p-053.wav",100
Sample,74113,0,"p-054.wav",100
Sample,74154,0,"p-055.wav",100
Sample,74194,0,"p-056.wav",100
Sample,74234,0,"p-057.wav",100
Sample,74275,0,"p-058.wav",100
Sample,74315,0,"p-059.wav",100
Sample,74355,0,"p-060.wav",100
Sample,74436,0,"p-061.wav",100
Sample,74516,0,"p-062.wav",100
Sample,74597,0,"p-063.wav",100
Sample,74678,0,"p-064.wav",100
Sample,74758,0,"p-065.wav",100
Sample,74839,0,"p-066.wav",100
Sample,74920,0,"p-067.wav",100
Sample,75000,0,"p-068.wav",100
Sample,75081,0,"p-070.wav",100
Sample,75162,0,"p-072.wav",100
Sample,75242,0,"p-073.wav",100
Sample,75404,0,"p-075.wav",100
Sample,75484,0,"p-076.wav",100
Sample,75565,0,"p-077.wav",100
Sample,75646,0,"p-078.wav",100
Sample,75726,0,"p-079.wav",100
Sample,75807,0,"p-080.wav",100
Sample,75887,0,"p-081.wav",100
Sample,75968,0,"p-082.wav",100
Sample,76049,0,"p-083.wav",100
Sample,76129,0,"p-084.wav",100
Sample,76210,0,"p-085.wav",100
Sample,76291,0,"p-086.wav",100
Sample,76371,0,"p-087.wav",100
Sample,76452,0,"p-088.wav",100
Sample,76533,0,"p-089.wav",100
Sample,76654,0,"p-091.wav",100
Sample,76694,0,"p-092.wav",100
Sample,76734,0,"p-093.wav",100
Sample,76775,0,"p-094.wav",100
Sample,76815,0,"p-095.wav",100
Sample,76855,0,"p-096.wav",100
Sample,76896,0,"p-097.wav",100
Sample,76936,0,"p-098.wav",100
Sample,77016,0,"p-099.wav",100
Sample,77097,0,"p-100.wav",100
Sample,77178,0,"p-101.wav",100
Sample,77258,0,"p-102.wav",100
Sample,77339,0,"p-103.wav",100
Sample,77420,0,"p-104.wav",100
Sample,77500,0,"p-105.wav",100
Sample,77581,0,"p-106.wav",100
Sample,77662,0,"p-107.wav",100
Sample,77742,0,"p-108.wav",100
Sample,77823,0,"p-109.wav",100
Sample,77984,0,"p-111.wav",100
Sample,78065,0,"p-112.wav",100
Sample,78146,0,"p-113.wav",100
Sample,78226,0,"p-114.wav",100
Sample,78307,0,"p-115.wav",100
Sample,78387,0,"p-116.wav",100
Sample,78468,0,"p-117.wav",100
Sample,78549,0,"p-118.wav",100
Sample,78629,0,"p-119.wav",100
Sample,78710,0,"p-120.wav",100
Sample,78791,0,"p-121.wav",100
Sample,78871,0,"p-122.wav",100
Sample,78952,0,"p-123.wav",100
Sample,79033,0,"p-124.wav",100
Sample,79113,0,"p-125.wav",100
Sample,79194,0,"p-126a.wav",100
Sample,79315,0,"p-127a.wav",100
Sample,79315,0,"p-127b.wav",100
Sample,79436,0,"p-128b.wav",100
Sample,79436,0,"p-128a.wav",100
Sample,79557,0,"p-126b.wav",100
Sample,79557,0,"p-126a.wav",100
Sample,79678,0,"p-127b.wav",100
Sample,79678,0,"p-127a.wav",100
Sample,79799,0,"p-128b.wav",100
Sample,79799,0,"p-128a.wav",100
Sample,79920,0,"p-126a.wav",100
Sample,79920,0,"p-126b.wav",100
Sample,80041,0,"p-128b.wav",100
Sample,80041,0,"p-128a.wav",100
Sample,80162,0,"p-129a.wav",100
Sample,80162,0,"p-129b.wav",100
Sample,80323,0,"p-130b.wav",100
Sample,80323,0,"p-130a.wav",100
Sample,80646,0,"p-131b.wav",100
Sample,81049,0,"p-132b.wav",100
Sample,81049,0,"p-132a.wav",100
Sample,81452,0,"p-133a.wav",100
Sample,81452,0,"p-133b.wav",100
Sample,106452,0,"B_C_Fill1.wav",100
Sample,106613,0,"B_C_Fill2.wav",100
Sample,106775,0,"B_C_Fill3.wav",100
Sample,107097,0,"B_C_Fill5.wav",100
Sample,107258,0,"B_C_Fill6.wav",100
Sample,107420,0,"B_C_Fill7.wav",100

[TimingPoints]
286,307.692307692308,5,2,1,70,1,0
286,-104.839,5,2,1,70,0,0
18747,-104.839,5,2,1,50,0,0
34747,-104.839,5,2,1,60,0,0
35670,-104.839,5,2,1,70,0,0
49517,322.58064516129,4,2,1,70,1,0
70162,-100,4,2,1,50,0,0
81775,-100,4,2,1,60,0,0
86936,-100,4,2,1,70,0,1
94678,-100,4,2,1,70,0,0
97258,-100,4,2,1,70,0,1
102420,-100,4,2,1,70,0,0
107581,317.460317460317,4,2,1,70,1,0
107581,-101.613,4,2,1,70,0,1
116469,-101.613,4,2,1,70,0,0
119009,-101.613,4,2,1,70,0,1
122819,-101.613,4,2,1,70,0,0

[HitObjects]
320,192,286,128,10,901:0:0:0:0:
192,192,901,128,8,1516:0:0:0:0:
448,192,1516,1,8,0:0:0:0:
320,192,1824,1,6,0:0:0:0:
64,192,2439,1,2,0:0:0:0:
448,192,3055,1,2,0:0:0:0:
192,192,3670,1,2,0:0:0:0:
448,192,4286,1,2,0:0:0:0:
320,192,4593,1,2,0:0:0:0:
64,192,5209,1,2,0:0:0:0:
192,192,5516,1,2,0:0:0:0:
320,192,6132,1,2,0:0:0:0:
64,192,6747,1,2,0:0:0:0:
448,192,7362,1,2,0:0:0:0:
192,192,7978,1,2,0:0:0:0:
320,192,8593,1,2,0:0:0:0:
64,192,9209,1,2,0:0:0:0:
192,192,9516,128,0,10132:0:0:0:0:
448,192,10132,1,6,0:0:0:0:
320,192,10439,1,2,0:0:0:0:
64,192,11055,128,2,11978:0:0:0:0:
320,192,11978,128,2,12593:0:0:0:0:
192,192,12593,128,2,13516:0:0:0:0:
448,192,13516,1,2,0:0:0:0:
320,192,13824,1,10,0:0:0:0:
192,192,15055,1,6,0:0:0:0:
320,192,15362,128,10,15978:0:0:0:0:
64,192,15978,128,10,16593:0:0:0:0:
320,192,16593,1,10,0:0:0:0:
448,192,16901,128,10,17516:0:0:0:0:
192,192,17516,128,8,18132:0:0:0:0:
320,192,18132,128,8,18747:0:0:0:0:
64,192,18747,128,4,19978:0:0:0:0:
448,192,19978,128,0,21209:0:0:0:100:prt-16.wav
64,192,21209,128,0,22439:0:0:0:100:prt-32.wav
320,192,22439,128,0,23670:0:0:0:100:prt-48.wav
192,192,23670,128,0,24901:0:0:0:100:prt-64.wav
448,192,24901,1,2,0:0:0:0:
320,192,25516,1,0,0:0:0:0:
64,192,26132,1,0,0:0:0:0:
192,192,26747,1,0,0:0:0:0:
448,192,27362,1,0,0:0:0:0:
64,192,27978,1,0,0:0:0:0:
192,192,28593,1,0,0:0:0:0:
448,192,29209,1,0,0:0:0:0:
320,192,29824,1,0,0:0:0:0:
64,192,30439,1,0,0:0:0:0:
448,192,31055,1,0,0:0:0:0:
320,192,31670,1,0,0:0:0:0:
64,192,32286,1,0,0:0:0:0:
192,192,32901,1,0,0:0:0:0:
448,192,33516,1,0,0:0:0:0:
320,192,34132,1,0,0:0:0:0:
64,192,34747,128,0,35670:0:0:0:0:
320,192,35670,1,6,0:0:0:0:
192,192,36286,128,2,36901:0:0:0:0:
448,192,36901,1,2,0:0:0:0:
320,192,37209,1,2,0:0:0:0:
64,192,37516,1,10,0:0:0:0:
192,192,38132,128,10,39055:0:0:0:0:
448,192,39055,1,10,0:0:0:0:
192,192,39670,1,2,0:0:0:0:
448,192,39978,1,10,0:0:0:0:
64,192,40593,1,10,0:0:0:0:
320,192,41209,128,10,42132:0:0:0:0:
64,192,42132,1,10,0:0:0:0:
192,192,42747,128,2,43362:0:0:0:0:
448,192,43362,1,2,0:0:0:0:
320,192,43978,1,2,0:0:0:0:
64,192,44593,1,2,0:0:0:0:
192,192,45209,1,2,0:0:0:0:
448,192,45824,1,2,0:0:0:0:
320,192,46439,128,14,47055:0:0:0:0:
64,192,47055,128,10,47670:0:0:0:0:
448,192,47670,128,10,48593:0:0:0:0:
192,192,48593,128,14,49517:0:0:0:0:
448,192,49517,1,6,0:0:0:0:
320,192,50162,1,2,0:0:0:0:
64,192,50484,1,2,0:0:0:0:
192,192,50807,1,2,0:0:0:0:
448,192,51452,1,2,0:0:0:0:
64,192,52097,1,2,0:0:0:0:
192,192,52742,1,2,0:0:0:0:
448,192,53065,1,2,0:0:0:0:
320,192,53387,1,2,0:0:0:0:
64,192,54033,1,2,0:0:0:0:
320,192,54355,1,2,0:0:0:0:
448,192,54678,1,2,0:0:0:0:
320,192,55323,1,0,0:0:0:0:
192,192,55646,1,6,0:0:0:0:
64,192,55968,1,6,0:0:0:0:
320,192,56613,1,2,0:0:0:0:
448,192,56936,1,10,0:0:0:0:
192,192,57258,1,2,0:0:0:0:
64,192,57904,1,2,0:0:0:0:
320,192,58226,1,10,0:0:0:0:
448,192,58549,128,10,59194:0:0:0:0:
192,192,59194,128,10,59839:0:0:0:0:
320,192,59839,128,8,60484:0:0:0:0:
64,192,60484,128,8,61129:0:0:0:0:
448,192,61129,1,6,0:0:0:0:
320,192,61452,128,10,62097:0:0:0:0:
192,192,62097,1,10,0:0:0:0:
64,192,62420,1,2,0:0:0:0:
448,192,62742,1,10,0:0:0:0:
320,192,63387,1,10,0:0:0:0:
64,192,63710,1,2,0:0:0:0:
192,192,64033,128,10,64678:0:0:0:0:
320,192,64678,1,10,0:0:0:0:
448,192,65000,1,2,0:0:0:0:
64,192,65323,128,10,65968:0:0:0:0:
320,192,65968,1,14,0:0:0:0:
192,192,66291,1,2,0:0:0:0:
192,192,66936,128,2,67581:0:0:0:0:
448,192,67581,1,2,0:0:0:0:
320,192,67904,1,10,0:0:0:0:
320,192,68549,1,10,0:0:0:0:
64,192,68871,1,2,0:0:0:0:
192,192,69194,1,10,0:0:0:0:
192,192,69839,1,10,0:0:0:0:
448,192,70162,128,4,71452:0:0:0:0:
320,192,71452,128,0,72742:0:0:0:100:p-018.wav
64,192,72742,128,0,74033:0:0:0:100:p-034.wav
320,192,74033,128,0,75323:0:0:0:100:p-052.wav
192,192,75323,128,0,76613:0:0:0:100:p-074.wav
448,192,76613,128,0,77904:0:0:0:100:p-090.wav
64,192,77904,128,0,79194:0:0:0:100:p-110.wav
320,192,79194,128,0,80646:0:0:0:100:p-126b.wav
192,192,80646,128,0,81775:0:0:0:100:p-131a.wav
448,192,81775,1,6,0:0:0:0:
320,192,82097,1,0,0:0:0:100:adsnare-tuyoi.wav
320,192,82742,1,0,0:0:0:100:adsnare-tuyoi.wav
64,192,83065,1,0,0:0:0:0:
192,192,83387,1,0,0:0:0:100:adsnare-tuyoi.wav
192,192,84033,1,2,0:0:0:0:
448,192,84355,1,2,0:0:0:0:
320,192,84678,1,0,0:0:0:100:adsnare-yowao.wav
320,192,85323,1,0,0:0:0:100:adsnare-hutuu.wav
64,192,85646,1,0,0:0:0:0:
192,192,85968,1,0,0:0:0:100:adsnare-hutuu.wav
320,192,86291,128,2,86936:0:0:0:0:
192,192,86936,1,6,0:0:0:0:
448,192,87258,128,2,87904:0:0:0:0:
64,192,87904,1,2,0:0:0:0:
320,192,88226,1,2,0:0:0:0:
64,192,88549,128,2,89194:0:0:0:0:
448,192,89194,1,2,0:0:0:0:
192,192,89516,1,2,0:0:0:0:
320,192,90162,128,2,90807:0:0:0:0:
64,192,90807,128,2,91452:0:0:0:0:
448,192,91452,128,2,92097:0:0:0:0:
192,192,92097,1,2,0:0:0:0:
320,192,92742,1,2,0:0:0:0:
64,192,93387,1,2,0:0:0:0:
448,192,94033,1,2,0:0:0:0:
192,192,94678,128,2,95323:0:0:0:0:
320,192,95323,128,2,95968:0:0:0:0:
64,192,95968,128,2,96613:0:0:0:0:
448,192,96613,128,2,97258:0:0:0:0:
320,192,97258,1,6,0:0:0:0:
64,192,97581,128,10,98226:0:0:0:0:
448,192,98226,1,10,0:0:0:0:
192,192,98549,1,2,0:0:0:0:
448,192,98871,128,10,99516:0:0:0:0:
64,192,99516,1,10,0:0:0:0:
320,192,99839,1,2,0:0:0:0:
192,192,100162,128,10,100807:0:0:0:0:
448,192,100807,1,10,0:0:0:0:
320,192,101129,1,2,0:0:0:0:
64,192,101452,128,10,102097:0:0:0:0:
448,192,102097,1,10,0:0:0:0:
192,192,102420,128,10,103065:0:0:0:0:
448,192,103065,128,10,103710:0:0:0:0:
64,192,103710,128,10,104355:0:0:0:0:
320,192,104355,128,10,105000:0:0:0:0:
448,192,105000,128,10,105646:0:0:0:0:
192,192,105646,128,10,106291:0:0:0:0:
320,192,106291,1,8,0:0:0:0:
64,192,106936,1,0,0:0:0:100:B_C_Fill4.wav
448,192,107581,128,6,108850:0:0:0:0:
192,192,108850,1,2,0:0:0:0:
320,192,109485,1,2,0:0:0:0:
64,192,110120,1,2,0:0:0:0:
448,192,110755,1,2,0:0:0:0:
192,192,111390,128,2,112660:0:0:0:0:
448,192,112660,1,2,0:0:0:0:
320,192,113295,1,2,0:0:0:0:
64,192,113930,1,2,0:0:0:0:
320,192,114247,1,10,0:0:0:0:
448,192,114565,1,2,0:0:0:0:
192,192,115200,1,2,0:0:0:0:
320,192,115834,1,2,0:0:0:0:
64,192,116469,128,2,117104:0:0:0:0:
448,192,117104,1,2,0:0:0:0:
320,192,117739,128,6,118374:0:0:0:0:
64,192,118374,1,2,0:0:0:0:
192,192,118692,1,0,0:0:0:100:inpactclap.wav
448,192,119009,1,14,0:0:0:0:
320,192,119644,1,10,0:0:0:0:
64,192,120279,1,10,0:0:0:0:
192,192,120914,1,10,0:0:0:0:
320,192,121549,1,10,0:0:0:0:
320,192,122184,1,10,0:0:0:0:
192,192,122819,128,14,124088:0:0:0:0:
448,192,124088,128,14,125358:0:0:0:0:
64,192,125358,128,14,126628:0:0:0:0:
320,192,126628,128,14,127898:0:0:0:0:
