osu file format v14

[General]
AudioFilename: audio.mp3
AudioLeadIn: 0
PreviewTime:77768
Countdown: 0
SampleSet: Soft
StackLeniency: 0.7
Mode: 0
LetterboxInBreaks: 0
WidescreenStoryboard: 1

[Editor]
DistanceSpacing: 0.8
BeatDivisor: 4
GridSize: 4
TimelineZoom: 1.6

[Metadata]
Title:Sunflower
TitleUnicode:Sunflower
Artist:m108
ArtistUnicode:m108
Creator:Leader
Version:Normal
Source:
Tags:Instrumental Electronic Trance Rhythm Game
BeatmapID:2895678
BeatmapSetID:1403962

[Difficulty]
HPDrainRate:4
CircleSize:3.5
OverallDifficulty:5
ApproachRate:5
SliderMultiplier:1.2
SliderTickRate:1

[Events]
//Background and Video events
0,0,"bg.jpg",0,0
//Break Periods
2,56516,65842
2,99421,100702
//Storyboard Layer 0 (Background)
//Storyboard Layer 1 (Fail)
//Storyboard Layer 2 (Pass)
//Storyboard Layer 3 (Foreground)
//Storyboard Layer 4 (Overlay)
//Storyboard Sound Samples

[TimingPoints]
3,335.195530726257,4,2,1,70,1,0
2014,-100,4,2,1,30,0,0
2181,-100,4,2,1,40,0,0
2349,-100,4,2,1,50,0,0
2516,-100,4,2,1,60,0,0
2684,-100,4,2,1,70,0,0
12740,-100,4,2,1,50,0,0
12908,-100,4,2,1,30,0,0
13075,-100,4,2,1,50,0,0
13410,-100,4,2,1,70,0,0
67042,-133.333333333333,4,2,1,60,0,0
77768,-100,4,2,1,40,0,1
78103,-100,4,2,1,80,0,1
88410,-100,4,2,1,70,0,0
88494,-100,4,2,1,80,0,1
99220,-100,4,2,1,30,0,0
99556,-100,4,2,1,35,0,0
99891,-100,4,2,1,40,0,0
100226,-100,4,2,1,45,0,0
100561,-100,4,2,1,50,0,0
100896,-100,4,2,1,55,0,0
101232,-100,4,2,1,60,0,0
101567,-100,4,2,1,70,0,0
101902,-100,4,2,1,80,0,1
109947,-100,4,2,1,80,0,0
110114,-100,4,2,1,70,0,0
110282,-100,4,2,1,60,0,0
110449,-100,4,2,1,50,0,0
110617,-100,4,2,1,40,0,0
110785,-100,4,2,1,30,0,0
110952,-100,4,2,1,20,0,0
111120,-100,4,2,1,10,0,0
111287,-100,4,2,1,5,0,0

[Colours]
Combo1 : 255,255,40
Combo2 : 245,198,7
Combo3 : 253,228,130
Combo4 : 223,196,0

[HitObjects]
79,366,2685,6,0,P|65:316|80:237,1,120,4|8,0:0|0:0,0:0:0:0:
95,206,3187,1,2,0:0:0:0:
123,166,3355,2,0,L|249:166,1,120,0|8,0:0|0:0,0:0:0:0:
319,107,4025,1,0,0:0:0:0:
367,189,4360,1,8,0:0:0:0:
434,120,4696,2,0,P|452:164|455:193,1,60,0|2,0:0|0:0,0:0:0:0:
461,223,5031,1,8,0:0:0:0:
402,299,5366,6,0,L|282:300,1,120,0|8,0:0|0:0,0:0:0:0:
186,297,6036,1,2,0:0:0:0:
132,377,6372,1,8,0:0:0:0:
80,296,6707,1,4,1:0:0:0:
129,213,7042,2,0,P|123:173|117:146,1,60,8|0,0:0|0:0,0:0:0:0:
103,108,7377,1,2,0:0:0:0:
197,122,7712,2,0,L|264:113,1,60,2|2,0:0|0:0,0:0:0:0:
295,142,8048,6,0,L|423:155,1,120,4|8,1:0|0:0,0:0:0:0:
462,156,8550,1,2,0:0:0:0:
439,198,8718,2,0,P|422:247|409:324,1,120,0|8,0:0|0:0,0:0:0:0:
336,375,9388,1,0,0:0:0:0:
261,314,9724,1,8,0:0:0:0:
186,374,10059,1,0,0:0:0:0:
112,312,10394,2,0,P|106:273|98:236,1,60,8|2,0:0|0:0,0:0:0:0:
86,207,10729,5,4,0:0:0:0:
15,141,11064,1,4,0:0:0:0:
108,118,11400,2,0,L|187:111,1,60,0|4,0:0|0:0,0:0:0:0:
196,151,11735,2,0,L|255:156,1,60,8|2,0:0|0:0,0:0:0:0:
290,122,12070,2,0,P|285:163|291:253,1,120,0|8,0:0|0:0,0:0:0:0:
300,288,12573,1,2,0:0:0:0:
387,248,12908,1,2,0:0:0:0:
430,267,13076,2,0,L|435:188,1,60,8|2,0:0|0:0,0:0:0:0:
439,159,13411,5,4,1:0:0:0:
443,63,13746,2,0,P|402:73|362:76,1,60,8|0,0:0|0:0,0:0:0:0:
336,74,14081,1,2,0:0:0:0:
253,24,14416,2,0,P|244:56|239:96,1,60,8|2,0:0|0:0,0:0:0:0:
248,130,14752,2,0,L|124:146,1,120,2|8,0:0|0:0,0:0:0:0:
81,152,15254,1,2,0:0:0:0:
33,161,15422,2,0,P|22:233|34:285,1,120,2|8,0:0|0:0,0:0:0:0:
104,341,16092,6,0,B|226:341,1,120,2|8,0:0|0:0,0:0:0:0:
272,339,16595,1,2,0:0:0:0:
320,339,16763,2,0,P|330:285|316:220,1,120,2|8,0:0|0:0,0:0:0:0:
238,166,17433,1,0,0:0:0:0:
175,238,17768,1,8,0:0:0:0:
101,176,18103,2,0,L|92:56,1,120,2|8,0:0|0:0,0:0:0:0:
188,61,18774,6,0,P|251:68|312:44,1,120,2|8,0:0|0:0,0:0:0:0:
343,22,19277,1,2,0:0:0:0:
387,0,19444,1,0,0:0:0:0:
378,103,19779,2,0,P|375:142|375:182,1,60,8|2,0:0|0:0,0:0:0:0:
377,211,20115,2,0,L|252:223,1,120,4|8,1:0|0:0,0:0:0:0:
253,318,20785,2,0,L|133:306,1,120,2|8,0:0|0:0,0:0:0:0:
86,297,21288,1,2,0:0:0:0:
38,291,21455,6,0,P|29:241|45:166,1,120,2|8,0:0|0:0,0:0:0:0:
68,133,21958,1,2,0:0:0:0:
95,93,22126,1,2,0:0:0:0:
153,168,22461,2,0,L|213:164,1,60,8|2,0:0|0:0,0:0:0:0:
260,154,22796,1,2,0:0:0:0:
314,232,23131,1,8,0:0:0:0:
385,167,23467,2,0,P|397:216|388:291,1,120,2|8,0:0|0:0,0:0:0:0:
373,329,23969,1,0,0:0:0:0:
350,371,24137,6,0,L|229:371,1,120,4|8,1:0|0:0,0:0:0:0:
184,286,24807,1,2,0:0:0:0:
105,341,25143,2,0,P|99:307|89:272,1,60,8|2,0:0|0:0,0:0:0:0:
64,242,25478,2,0,L|69:121,1,120,2|8,0:0|0:0,0:0:0:0:
75,74,25981,1,0,0:0:0:0:
116,50,26148,2,0,P|179:43|232:64,1,120,2|8,0:0|0:0,0:0:0:0:
281,145,26819,6,0,L|412:160,1,120,2|8,0:0|0:0,0:0:0:0:
447,164,27321,1,2,0:0:0:0:
494,169,27489,1,0,0:0:0:0:
437,246,27824,2,0,P|424:281|419:309,1,60,8|2,0:0|0:0,0:0:0:0:
408,349,28159,1,2,0:0:0:0:
332,289,28495,1,8,0:0:0:0:
262,355,28830,2,0,L|124:363,1,120,8|8,0:0|0:0,0:0:0:0:
65,303,29500,6,0,P|55:247|69:174,1,120,4|8,1:0|0:0,0:0:0:0:
81,140,30003,1,2,0:0:0:0:
106,99,30171,2,0,L|236:89,1,120,2|8,0:0|0:0,0:0:0:0:
313,50,30841,2,0,P|350:34|423:91,1,120,2|8,0:0|0:0,0:0:0:0:
432,114,31344,1,2,0:0:0:0:
424,161,31511,2,0,P|415:219|412:291,1,120,2|8,0:0|0:0,0:0:0:0:
256,192,32182,12,0,33522,3:0:0:0:
94,51,34863,6,0,P|106:98|108:118,1,60,6|2,0:0|0:0,0:0:0:0:
116,156,35198,1,8,0:0:0:0:
203,115,35534,2,0,P|258:102|320:118,1,120,2|10,0:0|0:0,0:0:0:0:
358,142,36036,1,2,0:0:0:0:
397,169,36204,2,0,L|389:292,1,120,2|10,0:0|0:0,0:0:0:0:
301,326,36874,2,0,P|258:332|233:341,1,60,2|2,0:0|0:0,0:0:0:0:
197,356,37210,1,10,0:0:0:0:
133,284,37545,6,0,L|121:158,1,120,2|8,0:0|0:0,0:0:0:0:
105,69,38215,1,8,0:0:0:0:
190,113,38550,1,8,0:0:0:0:
253,40,38886,2,0,P|313:34|368:80,1,120,2|8,1:0|0:0,0:0:0:0:
396,155,39556,2,0,L|403:222,1,60,2|2,0:0|0:0,0:0:0:0:
439,245,39891,2,0,L|432:312,1,60,10|2,0:0|3:0,0:0:0:0:
462,342,40226,6,0,L|326:353,1,120,2|10,0:0|0:0,0:0:0:0:
283,275,40897,1,10,0:0:0:0:
225,351,41232,1,10,0:0:0:0:
161,278,41567,2,0,P|154:211|142:149,1,120,2|10,0:0|0:0,0:0:0:0:
130,113,42070,1,2,0:0:0:0:
112,68,42238,1,2,0:0:0:0:
195,20,42573,1,10,0:0:0:0:
268,81,42908,6,0,P|325:85|391:55,1,120,2|10,0:0|0:0,0:0:0:0:
424,38,43411,1,2,0:0:0:0:
467,18,43578,2,0,L|457:138,1,120,2|10,0:0|0:0,0:0:0:0:
448,233,44249,2,0,P|391:239|344:292,1,120,2|10,0:0|0:0,0:0:0:0:
329,326,44752,1,2,0:0:0:0:
308,369,44919,2,0,L|179:378,1,120,2|8,0:0|0:0,0:0:0:0:
128,302,45590,6,0,P|130:255|115:178,1,120,4|8,1:0|0:0,0:0:0:0:
91,143,46092,2,0,L|221:132,1,120,2|2,0:0|0:0,0:0:0:0:
258,128,46595,1,10,0:0:0:0:
344,86,46930,2,0,L|350:24,2,60,8|2|8,0:0|0:0|0:0,0:0:0:0:
391,169,47601,2,0,L|396:228,2,60,2|0|8,0:0|0:0|0:0,0:0:0:0:
468,113,48271,6,0,P|489:169|480:242,1,120,2|8,0:0|0:0,0:0:0:0:
450,314,48941,2,0,P|408:329|385:343,1,60,2|2,0:0|0:0,0:0:0:0:
356,365,49277,1,8,0:0:0:0:
295,290,49612,1,2,0:0:0:0:
219,349,49947,2,0,L|87:360,2,120,8|2|8,0:0|0:0|0:0,0:0:0:0:
295,290,50953,5,4,1:0:0:0:
353,214,51288,2,0,P|366:165|346:90,1,120,8|0,0:0|0:0,0:0:0:0:
259,70,51958,1,8,0:0:0:0:
160,98,52293,2,0,P|145:156|159:214,1,120,0|8,0:0|0:0,0:0:0:0:
179,257,52796,1,0,0:0:0:0:
196,301,52964,1,2,0:0:0:0:
287,273,53299,2,0,P|307:300|327:341,1,60,10|2,0:0|0:0,0:0:0:0:
349,360,53634,6,0,L|356:231,1,120,2|8,0:0|0:0,0:0:0:0:
439,192,54305,2,0,L|432:72,1,120,0|10,0:0|0:0,0:0:0:0:
256,192,54975,12,4,56316,1:0:0:0:
256,192,67042,5,4,1:0:0:0:
256,192,68383,1,4,1:0:0:0:
256,192,69724,1,4,1:0:0:0:
256,192,71064,1,4,1:0:0:0:
256,192,72405,6,0,L|252:296,1,90.0000034332277,4|8,1:0|0:0,0:0:0:0:
176,344,73076,2,0,L|172:254,1,90.0000034332277,4|8,1:0|0:0,0:0:0:0:
96,176,73746,2,0,L|92:280,1,90.0000034332277,4|8,1:0|0:0,0:0:0:0:
16,348,74417,2,0,L|12:258,1,90.0000034332277,4|8,1:0|0:0,0:0:0:0:
256,192,75087,12,4,76428,0:0:0:0:
98,131,77768,5,0,0:0:0:0:
98,131,78103,2,0,P|107:177|113:267,1,120,4|2,0:0|0:0,0:0:0:0:
120,345,78774,1,8,0:0:0:0:
204,298,79109,2,0,L|326:297,1,120,2|8,0:0|0:0,0:0:0:0:
412,260,79779,2,0,L|417:189,1,60,4|2,0:0|0:0,0:0:0:0:
370,185,80115,2,0,L|365:114,1,60,8|2,0:0|0:0,0:0:0:0:
400,91,80450,6,0,P|359:96|270:74,1,120,4|8,0:0|0:0,0:0:0:0:
238,60,80953,1,2,0:0:0:0:
196,36,81120,2,0,L|181:174,1,120,0|8,0:0|0:0,0:0:0:0:
162,249,81791,1,4,1:0:0:0:
181,292,81958,1,4,0:0:0:0:
253,354,82293,1,4,0:0:0:0:
322,287,82629,1,4,0:0:0:0:
389,355,82964,1,4,0:0:0:0:
414,314,83131,6,0,P|425:269|418:196,1,120,4|8,0:0|0:0,0:0:0:0:
375,109,83802,1,0,0:0:0:0:
319,187,84137,1,8,0:0:0:0:
257,113,84472,2,0,L|125:113,1,120,4|8,0:0|0:0,0:0:0:0:
92,131,84975,1,2,0:0:0:0:
52,159,85143,2,0,P|41:214|54:283,1,120,0|8,0:0|0:0,0:0:0:0:
122,340,85813,6,0,L|249:341,1,120,4|8,0:0|0:0,0:0:0:0:
290,339,86316,1,0,0:0:0:0:
337,339,86483,1,4,0:0:0:0:
429,367,86819,1,8,0:0:0:0:
416,271,87154,2,0,P|415:233|430:142,1,120,0|8,3:0|0:0,0:0:0:0:
436,105,87657,1,2,0:0:0:0:
451,59,87824,1,2,0:0:0:0:
367,12,88159,1,8,0:0:0:0:
310,89,88495,6,0,P|252:92|181:53,1,120,4|8,1:0|0:0,0:0:0:0:
154,44,88997,1,0,0:0:0:0:
110,23,89165,2,0,L|119:149,1,120,2|8,0:0|0:0,0:0:0:0:
124,238,89835,1,2,0:0:0:0:
206,189,90171,1,8,0:0:0:0:
261,267,90506,2,0,L|333:276,1,60,2|2,0:0|0:0,0:0:0:0:
342,317,90841,2,0,L|401:309,1,60,10|2,0:0|0:0,0:0:0:0:
434,274,91176,6,0,P|428:218|439:149,1,120,2|8,0:0|0:0,0:0:0:0:
452,109,91679,1,2,0:0:0:0:
464,62,91847,1,2,0:0:0:0:
380,14,92182,1,8,0:0:0:0:
304,73,92517,2,0,P|245:73|178:31,1,120,2|8,0:0|0:0,0:0:0:0:
104,4,93187,1,2,0:0:0:0:
42,77,93522,1,10,0:0:0:0:
115,138,93858,6,0,L|126:264,1,120,2|8,0:0|0:0,0:0:0:0:
191,327,94528,2,0,L|252:338,1,60,2|2,0:0|0:0,0:0:0:0:
292,315,94863,2,0,L|351:304,1,60,10|2,0:0|0:0,0:0:0:0:
387,335,95198,1,2,0:0:0:0:
443,257,95534,1,8,0:0:0:0:
364,201,95869,2,0,P|352:153|369:68,1,120,2|10,0:0|0:0,0:0:0:0:
376,38,96372,1,2,0:0:0:0:
336,65,96539,6,0,P|287:72|206:44,1,120,2|8,0:0|0:0,0:0:0:0:
137,3,97210,1,2,0:0:0:0:
78,78,97545,1,10,0:0:0:0:
155,134,97880,2,0,P|166:191|158:266,1,120,2|8,0:0|0:0,0:0:0:0:
146,298,98383,1,2,0:0:0:0:
131,343,98550,2,0,L|58:349,2,60,2|2|10,0:0|0:0|0:0,0:0:0:0:
222,373,99221,5,4,1:0:0:0:
67,92,101902,6,0,P|78:137|83:212,1,120,4|8,1:0|0:0,0:0:0:0:
70,305,102573,1,8,0:0:0:0:
159,271,102908,1,8,0:0:0:0:
217,346,103243,6,0,L|349:361,1,120,4|8,1:0|0:0,0:0:0:0:
415,305,103914,2,0,P|424:258|416:177,1,120,8|8,0:0|0:0,0:0:0:0:
363,107,104584,5,4,1:0:0:0:
312,188,104919,1,8,0:0:0:0:
256,109,105254,1,8,0:0:0:0:
206,191,105590,1,8,0:0:0:0:
151,112,105925,6,0,L|142:42,2,60,4|2|8,1:0|0:0|0:0,0:0:0:0:
98,192,106595,2,0,L|90:251,2,60,4|2|8,1:0|0:0|0:0,0:0:0:0:
177,245,107266,6,0,P|234:252|295:312,1,120,4|8,1:0|0:0,0:0:0:0:
311,327,107768,1,2,0:0:0:0:
344,361,107936,2,0,L|477:360,1,120,8|8,0:0|0:0,0:0:0:0:
494,269,108606,6,0,P|486:228|472:192,1,60,4|2,1:0|0:0,0:0:0:0:
457,168,108941,1,8,0:0:0:0:
394,241,109277,2,0,L|317:233,2,60,8|2|8,0:0|0:0|0:0,0:0:0:0:
256,192,109947,12,0,112293,0:0:0:0:
