osu file format v14

[General]
AudioFilename: audio.mp3
AudioLeadIn: 0
PreviewTime:77768
Countdown: 0
SampleSet: Soft
StackLeniency: 0.7
Mode: 0
LetterboxInBreaks: 0
WidescreenStoryboard: 1

[Editor]
DistanceSpacing: 1.1
BeatDivisor: 4
GridSize: 32
TimelineZoom: 2.5

[Metadata]
Title:Sunflower
TitleUnicode:Sunflower
Artist:m108
ArtistUnicode:m108
Creator:Leader
Version:Insane
Source:
Tags:Instrumental Electronic Trance Rhythm Game
BeatmapID:2895677
BeatmapSetID:1403962

[Difficulty]
HPDrainRate:6
CircleSize:4
OverallDifficulty:8
ApproachRate:9
SliderMultiplier:1.6
SliderTickRate:1

[Events]
//Background and Video events
0,0,"bg.jpg",0,0
//Break Periods
2,56516,66442
//Storyboard Layer 0 (Background)
//Storyboard Layer 1 (Fail)
//Storyboard Layer 2 (Pass)
//Storyboard Layer 3 (Foreground)
//Storyboard Layer 4 (Overlay)
//Storyboard Sound Samples

[TimingPoints]
3,335.195530726257,4,2,1,70,1,0
2014,-100,4,2,1,30,0,0
2181,-100,4,2,1,40,0,0
2349,-100,4,2,1,50,0,0
2516,-100,4,2,1,60,0,0
2684,-100,4,2,1,70,0,0
12740,-100,4,2,1,50,0,0
12908,-100,4,2,1,30,0,0
13075,-100,4,2,1,50,0,0
13410,-100,4,2,1,70,0,0
34528,-133.333333333333,4,2,1,70,0,0
34863,-100,4,2,1,70,0,0
67042,-133.333333333333,4,2,1,60,0,0
77768,-100,4,2,1,40,0,1
78103,-100,4,2,1,80,0,1
88411,-100,4,2,1,70,0,0
88495,-100,4,2,1,80,0,1
99221,-100,4,2,1,30,0,0
99556,-100,4,2,1,35,0,0
99891,-100,4,2,1,40,0,0
100226,-100,4,2,1,45,0,0
100561,-100,4,2,1,50,0,0
100896,-100,4,2,1,55,0,0
101232,-100,4,2,1,60,0,0
101902,-83.3333333333333,4,2,1,80,0,1
109947,-83.3333333333333,4,2,1,80,0,0
110114,-83.3333333333333,4,2,1,70,0,0
110282,-83.3333333333333,4,2,1,60,0,0
110449,-83.3333333333333,4,2,1,50,0,0
110617,-83.3333333333333,4,2,1,40,0,0
110785,-83.3333333333333,4,2,1,30,0,0
110952,-83.3333333333333,4,2,1,20,0,0
111120,-83.3333333333333,4,2,1,10,0,0
111287,-83.3333333333333,4,2,1,5,0,0

[Colours]
Combo1 : 255,255,40
Combo2 : 245,198,7
Combo3 : 253,228,130
Combo4 : 223,196,0

[HitObjects]
80,328,2014,6,0,L|129:323,3,40,2|0|2|0,0:0|0:0|0:0|0:0,0:0:0:0:
133,346,2349,2,0,L|172:350,3,40,2|0|2|0,0:0|0:0|0:0|0:0,0:0:0:0:
192,325,2685,6,0,L|198:232,1,80,4|2,0:0|0:0,0:0:0:0:
203,155,3020,1,8,0:0:0:0:
203,155,3188,1,2,0:0:0:0:
282,344,3355,6,0,L|288:251,1,80,0|2,0:0|0:0,0:0:0:0:
293,174,3690,1,8,0:0:0:0:
293,174,3858,1,0,0:0:0:0:
373,361,4025,6,0,L|379:268,1,80
384,191,4360,1,8,0:0:0:0:
384,191,4528,1,2,0:0:0:0:
471,295,4696,1,0,0:0:0:0:
466,272,4780,1,0,0:0:0:0:
462,250,4864,1,2,0:0:0:0:
470,151,5031,1,8,0:0:0:0:
470,151,5199,1,2,0:0:0:0:
360,282,5366,1,0,0:0:0:0:
205,152,5534,5,0,0:0:0:0:
205,152,5617,1,0,0:0:0:0:
205,152,5701,2,0,L|196:68,1,80,8|0,0:0|0:0,0:0:0:0:
307,152,6036,2,0,L|316:68,1,80,2|2,0:0|0:0,0:0:0:0:
131,248,6372,6,0,L|122:164,1,80,8|2,0:0|0:0,0:0:0:0:
381,248,6707,2,0,L|390:164,1,80,4|4,1:0|0:0,0:0:0:0:
255,334,7042,1,8,0:0:0:0:
255,334,7210,2,0,L|256:405,1,40
221,249,7378,5,2,0:0:0:0:
232,248,7545,1,2,0:0:0:0:
243,247,7713,1,2,0:0:0:0:
254,246,7880,1,2,0:0:0:0:
266,244,8048,6,0,L|273:158,1,80,4|2,1:0|0:0,0:0:0:0:
347,200,8383,1,8,0:0:0:0:
200,172,8551,1,2,0:0:0:0:
335,108,8718,1,0,0:0:0:0:
266,244,8886,1,2,0:0:0:0:
246,84,9054,1,8,0:0:0:0:
355,206,9221,5,2,0:0:0:0:
355,206,9305,1,0,0:0:0:0:
355,206,9389,2,0,L|365:288,1,80,0|2,0:0|0:0,0:0:0:0:
442,361,9724,2,0,L|451:281,1,80,8|2,0:0|0:0,0:0:0:0:
411,87,10059,1,0,0:0:0:0:
445,170,10227,1,2,0:0:0:0:
499,96,10394,1,8,0:0:0:0:
340,332,10562,5,2,0:0:0:0:
340,332,10646,1,0,0:0:0:0:
340,332,10730,2,0,L|251:346,1,80,4|2,0:0|0:0,0:0:0:0:
103,223,11064,2,0,L|192:237,1,80,4|2,0:0|0:0,0:0:0:0:
329,51,11400,1,0,0:0:0:0:
296,140,11568,1,4,0:0:0:0:
228,62,11735,1,8,0:0:0:0:
227,71,11818,1,0,0:0:0:0:
226,81,11902,1,2,0:0:0:0:
225,91,11986,1,0,0:0:0:0:
224,101,12070,1,0,0:0:0:0:
167,172,12238,5,2,0:0:0:0:
167,172,12321,1,0,0:0:0:0:
167,172,12405,2,0,L|128:179,3,40,8|0|2|0,0:0|0:0|0:0|0:0,0:0:0:0:
102,188,12740,1,2,0:0:0:0:
102,188,12908,1,2,0:0:0:0:
102,188,13076,2,0,L|91:97,1,80,8|2,0:0|0:0,0:0:0:0:
53,258,13411,6,0,P|117:273|166:247,1,120,4|0,1:0|0:0,0:0:0:0:
196,239,13746,2,0,L|182:357,1,80,8|0,0:0|0:0,0:0:0:0:
284,290,14081,1,2,0:0:0:0:
102,188,14249,1,0,0:0:0:0:
296,170,14416,5,8,0:0:0:0:
296,170,14499,1,0,0:0:0:0:
296,170,14583,1,2,0:0:0:0:
296,170,14667,1,0,0:0:0:0:
296,170,14752,2,0,L|304:91,1,80,2|0,0:0|0:0,0:0:0:0:
250,31,15087,1,8,0:0:0:0:
382,148,15254,1,2,0:0:0:0:
211,272,15422,2,0,L|203:193,1,80,2|0,0:0|0:0,0:0:0:0:
188,107,15757,1,8,0:0:0:0:
312,342,15924,5,2,0:0:0:0:
312,342,16009,1,0,0:0:0:0:
312,342,16093,2,0,L|396:352,1,80,2|0,0:0|0:0,0:0:0:0:
493,275,16428,1,8,0:0:0:0:
418,222,16595,1,2,0:0:0:0:
222,352,16763,2,0,L|169:357,3,40,2|0|2|0,0:0|0:0|0:0|0:0,0:0:0:0:
168,328,17098,2,0,L|128:324,3,40,8|0|2|0,0:0|0:0|0:0|0:0,0:0:0:0:
109,358,17433,6,0,L|96:263,1,80
60,131,17768,1,8,0:0:0:0:
23,224,17936,1,0,0:0:0:0:
140,188,18103,6,0,L|153:93,1,80,2|2,0:0|0:0,0:0:0:0:
86,40,18439,1,8,0:0:0:0:
86,40,18522,1,0,0:0:0:0:
86,40,18606,1,2,0:0:0:0:
255,194,18774,5,2,0:0:0:0:
318,46,18941,1,0,0:0:0:0:
318,46,19025,1,0,0:0:0:0:
318,46,19109,1,8,0:0:0:0:
190,47,19277,1,2,0:0:0:0:
354,216,19444,1,0,0:0:0:0:
147,223,19612,1,2,0:0:0:0:
254,111,19779,1,8,0:0:0:0:
197,340,19947,5,2,0:0:0:0:
197,340,20031,1,0,0:0:0:0:
197,340,20115,2,0,L|112:354,1,80,4|0,1:0|0:0,0:0:0:0:
0,253,20450,2,0,L|85:267,1,80,8|2,0:0|0:0,0:0:0:0:
187,172,20785,1,2,0:0:0:0:
83,78,20953,2,0,L|76:32,2,40,0|0|8,0:0|0:0|0:0,0:0:0:0:
99,169,21288,5,2,0:0:0:0:
99,169,21372,1,0,0:0:0:0:
99,169,21455,1,2,0:0:0:0:
260,38,21623,1,0,0:0:0:0:
260,38,21707,1,0,0:0:0:0:
260,38,21791,2,0,L|253:127,1,80,8|2,0:0|0:0,0:0:0:0:
237,229,22126,1,2,0:0:0:0:
237,229,22293,1,2,0:0:0:0:
318,179,22461,5,8,0:0:0:0:
318,179,22545,1,0,0:0:0:0:
318,179,22629,1,2,0:0:0:0:
318,179,22712,1,0,0:0:0:0:
318,179,22796,2,0,P|325:215|326:269,1,80,2|0,0:0|0:0,0:0:0:0:
325,289,23048,1,0,0:0:0:0:
314,318,23131,2,0,L|213:330,1,80,8|0,0:0|0:0,0:0:0:0:
71,231,23467,2,0,L|172:243,1,80,2|0,0:0|0:0,0:0:0:0:
321,18,23802,5,8,0:0:0:0:
260,88,23969,1,0,0:0:0:0:
260,88,24053,1,2,0:0:0:0:
260,88,24137,2,0,P|251:133|246:182,1,80,4|0,1:0|0:0,0:0:0:0:
249,261,24472,1,8,0:0:0:0:
338,142,24640,1,2,0:0:0:0:
252,277,24807,1,2,0:0:0:0:
159,143,24975,1,0,0:0:0:0:
341,341,25143,2,0,L|396:349,3,40,8|0|2|0,0:0|0:0|0:0|0:0,0:0:0:0:
413,377,25478,6,0,L|418:294,1,80,2|0,0:0|0:0,0:0:0:0:
425,204,25813,1,8,0:0:0:0:
425,204,25981,1,0,0:0:0:0:
350,259,26148,2,0,L|298:266,3,40,2|2|2|0,0:0|0:0|0:0|0:0,0:0:0:0:
276,268,26483,1,8,0:0:0:0:
209,180,26651,5,0,0:0:0:0:
209,180,26735,1,0,0:0:0:0:
209,180,26819,2,0,P|203:139|192:87,1,80,2|0,0:0|0:0,0:0:0:0:
120,151,27154,1,8,0:0:0:0:
280,118,27321,1,2,0:0:0:0:
131,46,27489,1,0,0:0:0:0:
230,32,27657,1,2,0:0:0:0:
173,280,27824,5,8,0:0:0:0:
173,280,27908,1,0,0:0:0:0:
173,280,27992,1,2,0:0:0:0:
173,280,28076,1,0,0:0:0:0:
173,280,28159,2,0,L|263:291,1,80,2|0,0:0|0:0,0:0:0:0:
213,199,28495,1,8,0:0:0:0:
260,372,28662,1,2,0:0:0:0:
299,198,28830,1,8,0:0:0:0:
154,362,28997,1,2,0:0:0:0:
355,360,29165,1,8,0:0:0:0:
132,230,29333,5,2,0:0:0:0:
132,230,29416,1,0,0:0:0:0:
132,230,29500,2,0,L|50:242,1,80,4|0,1:0|0:0,0:0:0:0:
75,152,29835,1,8,0:0:0:0:
130,310,30003,1,2,0:0:0:0:
212,166,30171,1,2,0:0:0:0:
212,166,30254,1,0,0:0:0:0:
212,166,30338,1,2,0:0:0:0:
32,309,30506,1,8,0:0:0:0:
233,261,30673,5,0,0:0:0:0:
233,261,30757,1,0,0:0:0:0:
233,261,30841,2,0,L|313:253,1,80,2|0,0:0|0:0,0:0:0:0:
274,176,31176,1,8,0:0:0:0:
318,334,31344,1,2,0:0:0:0:
366,176,31511,1,2,0:0:0:0:
222,350,31679,1,0,0:0:0:0:
401,350,31847,6,0,L|452:358,3,40,8|0|0|0,0:0|0:0|0:0|0:0,0:0:0:0:
441,328,32182,2,0,L|480:321,3,40,2|0|2|0,0:0|0:0|0:0|0:0,0:0:0:0:
503,357,32517,5,10,0:0:0:0:
493,334,32600,1,0,0:0:0:0:
490,310,32684,1,2,0:0:0:0:
493,285,32768,1,0,0:0:0:0:
501,263,32852,5,0,0:0:0:0:
506,239,32935,1,0,0:0:0:0:
505,214,33019,1,2,0:0:0:0:
499,191,33103,1,0,0:0:0:0:
488,169,33187,5,8,0:0:0:0:
415,239,33355,1,2,0:0:0:0:
334,166,33522,2,0,L|326:84,1,80,0|0,3:0|0:0,0:0:0:0:
323,59,33774,1,0,3:0:0:0:
323,59,33858,1,0,3:0:0:0:
412,109,34025,1,0,0:0:0:0:
256,201,34193,6,0,L|248:119,1,80,0|0,3:0|0:0,0:0:0:0:
172,241,34528,6,0,L|163:125,1,90.0000034332277,8|0,0:0|0:0,0:0:0:0:
160,126,34863,5,6,0:0:0:0:
256,201,35031,1,2,0:0:0:0:
91,279,35198,1,8,0:0:0:0:
91,279,35366,1,2,0:0:0:0:
145,348,35534,6,0,L|193:355,3,40,2|0|2|0,0:0|0:0|0:0|0:0,0:0:0:0:
213,334,35869,2,0,L|252:328,3,40,10|0|2|0,0:0|0:0|0:0|0:0,0:0:0:0:
271,352,36204,5,2,0:0:0:0:
289,359,36287,1,0,0:0:0:0:
309,361,36371,1,2,0:0:0:0:
329,358,36455,1,0,0:0:0:0:
350,350,36539,5,10,0:0:0:0:
368,342,36622,1,0,0:0:0:0:
388,340,36706,1,2,0:0:0:0:
408,343,36790,1,0,0:0:0:0:
427,352,36874,6,0,L|434:283,3,40,2|0|2|0,0:0|0:0|0:0|0:0,0:0:0:0:
406,306,37210,2,0,L|399:237,3,40,10|0|2|0,0:0|0:0|0:0|0:0,0:0:0:0:
455,230,37545,6,0,P|412:231|360:211,1,80,2|0,0:0|0:0,0:0:0:0:
422,153,37880,1,8,0:0:0:0:
406,306,38048,1,2,0:0:0:0:
325,155,38215,2,0,L|333:64,1,80,8|2,0:0|0:0,0:0:0:0:
179,75,38550,2,0,L|187:155,1,80,8|2,0:0|0:0,0:0:0:0:
305,280,38886,6,0,P|355:274|428:324,1,120,2|0,1:0|3:0,0:0:0:0:
440,335,39221,2,0,L|447:249,1,80,8|2,0:0|0:0,0:0:0:0:
418,91,39556,1,2,0:0:0:0:
451,175,39724,1,2,0:0:0:0:
504,99,39891,1,10,0:0:0:0:
324,243,40059,6,0,L|320:291,1,40,2|0,3:0|0:0,0:0:0:0:
353,354,40226,2,0,P|316:360|265:335,1,80,2|2,0:0|0:0,0:0:0:0:
173,272,40562,1,10,0:0:0:0:
171,291,40645,1,0,0:0:0:0:
169,311,40729,1,2,0:0:0:0:
167,331,40813,1,0,0:0:0:0:
166,352,40897,2,0,L|106:361,3,40,10|0|2|0,0:0|0:0|0:0|0:0,0:0:0:0:
122,330,41232,2,0,L|82:324,3,40,10|0|2|0,0:0|0:0|0:0|0:0,0:0:0:0:
64,360,41567,6,0,P|58:308|47:258,1,80,2|2,0:0|0:0,0:0:0:0:
30,182,41902,1,10,0:0:0:0:
30,182,41986,1,0,0:0:0:0:
30,182,42070,1,2,0:0:0:0:
150,239,42238,1,2,0:0:0:0:
169,240,42321,1,0,0:0:0:0:
189,241,42405,1,2,0:0:0:0:
209,243,42489,1,0,0:0:0:0:
228,245,42573,2,0,L|282:248,3,40,10|0|2|0,0:0|0:0|0:0|0:0,0:0:0:0:
302,282,42908,6,0,P|307:239|316:198,1,80,2|2,0:0|0:0,0:0:0:0:
391,257,43243,1,10,0:0:0:0:
391,257,43327,1,0,0:0:0:0:
391,257,43411,1,2,0:0:0:0:
280,118,43578,2,0,L|231:109,3,40,2|0|2|0,0:0|0:0|0:0|0:0,0:0:0:0:
235,137,43914,2,0,L|195:144,3,40,10|0|2|0,0:0|0:0|0:0|0:0,0:0:0:0:
176,119,44249,6,0,L|168:35,1,80,2|2,0:0|0:0,0:0:0:0:
84,103,44584,1,10,0:0:0:0:
253,50,44752,1,2,0:0:0:0:
171,221,44919,1,2,0:0:0:0:
170,230,45002,1,0,0:0:0:0:
169,240,45086,1,2,0:0:0:0:
169,250,45170,1,0,0:0:0:0:
168,263,45254,2,0,L|114:272,3,40,8|8|0|0,0:0|0:0|0:0|0:0,0:0:0:0:
98,316,45590,6,0,P|92:273|80:220,1,80,4|0,1:0|0:0,0:0:0:0:
56,154,45925,1,8,0:0:0:0:
17,298,46092,1,2,0:0:0:0:
176,225,46260,2,0,L|187:137,1,80,0|2,0:0|0:0,0:0:0:0:
142,65,46595,6,0,P|183:56|280:138,1,160,10|8,0:0|0:0,0:0:0:0:
484,26,47098,2,0,P|406:24|351:79,1,160,2|2,0:0|0:0,0:0:0:0:
341,222,47601,1,2,0:0:0:0:
341,222,47685,1,0,0:0:0:0:
341,222,47768,1,0,0:0:0:0:
430,112,47936,1,8,0:0:0:0:
430,112,48103,1,2,0:0:0:0:
393,298,48271,6,0,L|308:308,1,80,2|2,0:0|0:0,0:0:0:0:
129,229,48606,2,0,L|214:239,1,80,8|2,0:0|0:0,0:0:0:0:
320,106,48941,1,2,0:0:0:0:
296,193,49109,1,2,0:0:0:0:
233,127,49277,1,8,0:0:0:0:
233,127,49444,1,2,0:0:0:0:
413,260,49612,6,0,B|348:241|343:303|248:272,1,160,2|8,0:0|0:0,0:0:0:0:
155,236,50115,1,0,0:0:0:0:
155,236,50198,1,0,0:0:0:0:
155,236,50282,2,0,L|147:156,1,80,2|2,0:0|0:0,0:0:0:0:
138,67,50617,1,8,0:0:0:0:
246,152,50785,6,0,L|302:156,1,40,0|0,3:0|0:0,0:0:0:0:
326,194,50953,2,0,L|334:114,1,80,4|2,1:0|0:0,0:0:0:0:
345,33,51288,1,8,0:0:0:0:
345,33,51455,1,2,0:0:0:0:
367,268,51623,2,0,P|315:278|239:200,1,160,0|8,0:0|0:0,0:0:0:0:
333,114,52126,5,2,0:0:0:0:
333,114,52210,1,0,0:0:0:0:
333,114,52293,2,0,L|325:204,1,80
208,361,52629,2,0,L|200:281,1,80,8|0,0:0|0:0,0:0:0:0:
73,137,52964,2,0,L|121:129,3,40,2|0|2|0,0:0|0:0|0:0|0:0,0:0:0:0:
132,150,53299,2,0,L|171:156,3,40,10|0|2|0,0:0|0:0|0:0|0:0,0:0:0:0:
200,139,53634,6,0,L|205:58,1,80,2|2,0:0|0:0,0:0:0:0:
127,34,53969,1,8,0:0:0:0:
191,223,54137,1,2,0:0:0:0:
288,121,54305,2,0,L|336:113,3,40,0|0|2|0,0:0|0:0|0:0|0:0,0:0:0:0:
347,134,54640,2,0,L|386:140,3,40,10|0|2|0,0:0|0:0|0:0|0:0,0:0:0:0:
415,123,54975,6,0,L|420:42,1,80,2|2,0:0|0:0,0:0:0:0:
464,216,55310,2,0,L|468:255,3,40,10|0|2|0,0:0|0:0|0:0|0:0,0:0:0:0:
475,334,55645,1,2,0:0:0:0:
455,336,55728,1,0,0:0:0:0:
435,338,55812,1,2,0:0:0:0:
415,340,55896,1,0,0:0:0:0:
393,342,55981,2,0,L|353:347,3,40,10|0|2|0,0:0|0:0|0:0|0:0,0:0:0:0:
278,354,56316,5,4,1:0:0:0:
39,348,67042,5,4,1:0:0:0:
121,314,67377,1,8,0:0:0:0:
214,316,67712,1,0,0:0:0:0:
214,316,67880,1,0,0:0:0:0:
307,339,68048,1,8,0:0:0:0:
307,339,68215,1,0,0:0:0:0:
393,340,68383,5,4,1:0:0:0:
449,270,68718,1,8,0:0:0:0:
430,184,69053,1,0,0:0:0:0:
430,184,69221,1,0,0:0:0:0:
344,168,69388,1,8,0:0:0:0:
344,168,69556,1,0,0:0:0:0:
259,213,69724,6,0,P|254:183|251:142,1,60.0000022888184,4|0,1:0|0:0,0:0:0:0:
192,43,70059,2,0,P|189:72|184:102,1,60.0000022888184,8|0,0:0|0:0,0:0:0:0:
127,210,70394,2,0,P|122:180|119:139,1,60.0000022888184
60,40,70729,2,0,P|57:69|52:99,1,60.0000022888184,8|0,0:0|0:0,0:0:0:0:
26,182,71064,5,4,1:0:0:0:
127,210,71232,1,0,0:0:0:0:
206,156,71400,1,8,0:0:0:0:
304,123,71567,1,0,0:0:0:0:
304,123,71651,1,0,0:0:0:0:
304,123,71735,1,0,0:0:0:0:
395,131,71902,1,0,0:0:0:0:
478,181,72070,1,8,0:0:0:0:
478,181,72238,1,0,0:0:0:0:
388,354,72405,6,0,L|381:280,1,60.0000022888184,4|0,1:0|0:0,0:0:0:0:
377,212,72740,1,8,0:0:0:0:
377,212,72908,1,0,0:0:0:0:
295,339,73076,6,0,L|288:265,1,60.0000022888184,4|0,1:0|0:0,0:0:0:0:
284,197,73411,1,8,0:0:0:0:
284,197,73579,1,0,0:0:0:0:
347,123,73746,6,0,L|354:45,1,60.0000022888184,4|0,1:0|0:0,0:0:0:0:
257,32,74081,1,8,0:0:0:0:
165,123,74249,1,0,0:0:0:0:
165,123,74333,1,0,0:0:0:0:
165,123,74416,2,0,L|158:45,1,60.0000022888184,4|0,1:0|0:0,0:0:0:0:
84,167,74752,1,8,0:0:0:0:
69,89,74919,1,0,0:0:0:0:
55,250,75087,5,2,0:0:0:0:
56,266,75170,1,2,0:0:0:0:
58,283,75254,1,0,0:0:0:0:
60,300,75338,1,0,0:0:0:0:
62,315,75422,2,0,L|109:323,3,30.0000011444092,10|0|10|0,0:0|0:0|0:0|0:0,0:0:0:0:
117,351,75757,2,0,L|146:345,3,30.0000011444092,2|0|2|0,0:0|0:0|0:0|0:0,0:0:0:0:
169,317,76092,2,0,L|216:325,3,30.0000011444092,10|0|2|0,0:0|0:0|0:0|0:0,0:0:0:0:
256,192,76428,12,0,77768,0:0:0:0:
461,322,78103,6,0,L|468:231,1,80,4|0,0:0|0:0,0:0:0:0:
372,278,78439,1,2,0:0:0:0:
402,184,78606,1,2,0:0:0:0:
397,161,78690,1,0,0:0:0:0:
393,139,78774,1,8,0:0:0:0:
467,74,78941,1,2,0:0:0:0:
295,191,79109,6,0,L|302:104,1,80,2|2,0:0|0:0,0:0:0:0:
310,18,79444,1,8,0:0:0:0:
310,18,79612,1,2,0:0:0:0:
397,161,79779,1,4,0:0:0:0:
215,104,79947,1,2,0:0:0:0:
215,104,80031,1,0,0:0:0:0:
215,104,80115,2,0,L|132:115,1,80,8|2,0:0|0:0,0:0:0:0:
46,51,80450,6,0,P|31:102|53:183,1,120,4|0,0:0|0:0,0:0:0:0:
67,191,80785,2,0,L|146:203,1,80,8|2,0:0|0:0,0:0:0:0:
176,211,81036,1,0,0:0:0:0:
176,211,81120,1,0,0:0:0:0:
135,114,81288,1,2,0:0:0:0:
114,288,81455,1,8,0:0:0:0:
235,130,81623,1,2,0:0:0:0:
219,311,81791,5,4,1:0:0:0:
219,311,81958,2,0,L|302:320,1,80,4|0,0:0|0:0,0:0:0:0:
378,238,82293,2,0,L|295:229,1,80,4|0,0:0|0:0,0:0:0:0:
235,130,82629,2,0,L|318:139,1,80,4|0,0:0|0:0,0:0:0:0:
411,69,82964,1,4,0:0:0:0:
321,23,83131,5,4,0:0:0:0:
321,23,83215,1,0,0:0:0:0:
321,23,83299,1,2,0:0:0:0:
429,154,83467,1,8,0:0:0:0:
236,70,83634,2,0,L|186:73,2,40,2|0|0,0:0|0:0|0:0,0:0:0:0:
206,160,83969,2,0,L|109:167,2,80,2|8|2,0:0|0:0|0:0,0:0:0:0:
253,251,84472,5,4,0:0:0:0:
272,253,84555,1,0,0:0:0:0:
292,255,84639,1,2,0:0:0:0:
312,257,84723,1,0,0:0:0:0:
335,259,84807,2,0,L|378:265,3,40,8|0|2|0,0:0|0:0|0:0|0:0,0:0:0:0:
369,299,85143,2,0,L|408:293,3,40,0|0|2|0,0:0|0:0|0:0|0:0,0:0:0:0:
422,260,85478,2,0,L|465:266,3,40,8|0|2|0,0:0|0:0|0:0|0:0,0:0:0:0:
482,294,85813,6,0,L|489:209,1,80,4|0,0:0|0:0,0:0:0:0:
493,126,86148,1,8,0:0:0:0:
392,192,86316,1,0,0:0:0:0:
392,192,86400,1,0,0:0:0:0:
392,192,86483,2,0,L|399:107,1,80,4|0,0:0|0:0,0:0:0:0:
407,29,86819,1,8,0:0:0:0:
295,201,86986,6,0,L|291:167,3,26.6666666666667,0|0|0|0,3:0|3:0|3:0|3:0,0:0:0:0:
310,296,87321,1,2,0:0:0:0:
310,296,87489,1,8,0:0:0:0:
310,296,87657,1,2,0:0:0:0:
230,358,87824,1,2,0:0:0:0:
210,359,87907,1,0,0:0:0:0:
190,361,87991,1,2,0:0:0:0:
170,363,88075,1,0,0:0:0:0:
150,365,88159,1,8,0:0:0:0:
71,308,88327,5,0,0:0:0:0:
71,308,88495,2,0,P|69:266|65:228,1,80,4|0,1:0|0:0,0:0:0:0:
157,72,88830,2,0,P|140:136|156:198,1,120,8|0,0:0|0:0,0:0:0:0:
160,214,89165,2,0,L|258:220,1,80,2|2,0:0|0:0,0:0:0:0:
218,138,89500,1,8,0:0:0:0:
216,298,89668,1,2,0:0:0:0:
302,163,89835,6,0,P|315:203|320:256,1,80,2|0,0:0|0:0,0:0:0:0:
319,338,90171,1,8,0:0:0:0:
319,338,90338,1,0,0:0:0:0:
383,276,90506,2,0,L|430:267,3,40,2|0|2|0,0:0|0:0|0:0|0:0,0:0:0:0:
426,299,90841,2,0,L|465:306,3,40,10|0|2|0,0:0|0:0|0:0|0:0,0:0:0:0:
498,289,91176,5,2,0:0:0:0:
463,213,91344,1,2,0:0:0:0:
395,371,91511,1,8,0:0:0:0:
383,183,91679,1,2,0:0:0:0:
296,350,91847,2,0,P|271:354|232:356,2,40,2|0|2,0:0|0:0|0:0,0:0:0:0:
463,213,92182,2,0,L|471:124,1,80,8|2,0:0|0:0,0:0:0:0:
276,32,92517,6,0,P|266:98|295:170,1,120,2|0,0:0|0:0,0:0:0:0:
289,176,92852,2,0,L|371:185,1,80,8|0,0:0|0:0,0:0:0:0:
471,313,93187,2,0,L|425:319,3,40,2|0|2|0,0:0|0:0|0:0|0:0,0:0:0:0:
414,352,93522,2,0,L|374:346,3,40,10|0|2|0,0:0|0:0|0:0|0:0,0:0:0:0:
341,349,93858,6,0,L|332:270,1,80,2|2,0:0|0:0,0:0:0:0:
327,187,94193,1,8,0:0:0:0:
417,263,94360,1,2,0:0:0:0:
254,346,94528,1,2,0:0:0:0:
234,347,94611,1,0,0:0:0:0:
214,349,94695,1,2,0:0:0:0:
194,351,94779,1,0,0:0:0:0:
174,352,94863,1,10,0:0:0:0:
86,362,95031,1,2,0:0:0:0:
119,275,95198,6,0,P|111:232|98:181,1,80,2|0,0:0|0:0,0:0:0:0:
72,118,95534,1,8,0:0:0:0:
72,118,95701,1,2,0:0:0:0:
197,158,95869,2,0,L|242:165,3,40,2|0|2|0,0:0|0:0|0:0|0:0,0:0:0:0:
257,189,96204,2,0,L|296:182,3,40,10|0|2|0,0:0|0:0|0:0|0:0,0:0:0:0:
319,170,96539,6,0,L|327:90,1,80,2|0,0:0|0:0,0:0:0:0:
247,108,96874,1,8,0:0:0:0:
240,368,97042,1,2,0:0:0:0:
418,221,97210,2,0,L|415:266,3,40,2|0|2|0,0:0|0:0|0:0|0:0,0:0:0:0:
446,271,97545,2,0,L|448:310,3,40,10|0|2|0,0:0|0:0|0:0|0:0,0:0:0:0:
431,342,97880,5,2,0:0:0:0:
356,291,98048,1,2,0:0:0:0:
414,147,98215,1,8,0:0:0:0:
291,355,98383,1,2,0:0:0:0:
216,267,98550,2,0,L|210:210,3,40,2|0|2|0,0:0|0:0|0:0|0:0,0:0:0:0:
247,180,98886,1,10,0:0:0:0:
228,187,98969,1,0,0:0:0:0:
209,192,99053,1,2,0:0:0:0:
189,194,99137,1,0,0:0:0:0:
169,192,99221,1,4,1:0:0:0:
256,192,99304,12,0,100477,0:0:0:0:
256,192,100561,12,0,101232,0:0:0:0:
108,129,101902,6,0,L|112:67,3,47.9999985351563,4|0|2|0,1:0|0:0|0:0|0:0,0:0:0:0:
197,37,102238,2,0,L|193:99,3,47.9999985351563,8|0|2|0,0:0|0:0|0:0|0:0,0:0:0:0:
267,157,102573,2,0,L|271:95,3,47.9999985351563,8|0|2|0,0:0|0:0|0:0|0:0,0:0:0:0:
356,65,102909,2,0,L|352:127,3,47.9999985351563,8|0|2|0,0:0|0:0|0:0|0:0,0:0:0:0:
447,71,103243,6,0,P|456:118|452:182,1,95.9999970703126,4|2,1:0|0:0,0:0:0:0:
452,196,103495,1,0,0:0:0:0:
452,196,103578,6,0,L|352:208,1,95.9999970703126,8|2,0:0|0:0,0:0:0:0:
318,212,103830,1,0,0:0:0:0:
318,212,103914,6,0,P|309:259|313:323,1,95.9999970703126,8|2,0:0|0:0,0:0:0:0:
313,337,104166,1,0,0:0:0:0:
313,337,104249,6,0,L|413:349,1,95.9999970703126,8|2,0:0|0:0,0:0:0:0:
440,351,104500,1,0,0:0:0:0:
440,351,104584,6,0,L|446:254,1,95.9999970703126,4|2,1:0|0:0,0:0:0:0:
453,168,104919,1,8,0:0:0:0:
453,168,105087,1,2,0:0:0:0:
350,251,105254,6,0,L|356:154,1,95.9999970703126,8|0,0:0|0:0,0:0:0:0:
363,68,105589,1,8,0:0:0:0:
363,68,105757,2,0,L|303:80,1,47.9999985351563,2|0,0:0|0:0,0:0:0:0:
238,91,105925,5,4,1:0:0:0:
282,10,106092,1,2,0:0:0:0:
355,155,106260,1,8,0:0:0:0:
194,22,106428,1,2,0:0:0:0:
305,224,106595,2,0,L|356:230,3,47.9999985351563,4|0|2|0,1:0|0:0|0:0|0:0,0:0:0:0:
366,262,106930,2,0,L|413:256,3,47.9999985351563,8|0|2|0,0:0|0:0|0:0|0:0,0:0:0:0:
455,231,107266,6,0,L|462:128,1,95.9999970703126,4|2,1:0|0:0,0:0:0:0:
467,50,107601,1,8,0:0:0:0:
467,50,107768,1,2,0:0:0:0:
334,135,107936,2,0,L|283:141,3,47.9999985351563,8|0|2|0,0:0|0:0|0:0|0:0,0:0:0:0:
273,173,108271,2,0,L|225:167,3,47.9999985351563,8|0|2|0,0:0|0:0|0:0|0:0,0:0:0:0:
194,161,108606,5,4,1:0:0:0:
249,54,108774,1,2,0:0:0:0:
249,54,108858,1,0,0:0:0:0:
249,54,108941,1,8,0:0:0:0:
334,135,109109,1,2,0:0:0:0:
219,247,109277,2,0,L|154:259,3,47.9999985351563,8|0|2|0,0:0|0:0|0:0|0:0,0:0:0:0:
155,243,109612,2,0,L|107:234,3,47.9999985351563,8|0|2|0,0:0|0:0|0:0|0:0,0:0:0:0:
79,257,109947,5,4,0:0:0:0:
256,192,110031,12,0,112293,0:0:0:0:
