osu file format v14

[General]
AudioFilename: audio.mp3
AudioLeadIn: 0
PreviewTime:77768
Countdown: 0
SampleSet: Soft
StackLeniency: 0.7
Mode: 0
LetterboxInBreaks: 0
WidescreenStoryboard: 1

[Editor]
DistanceSpacing: 1.1
BeatDivisor: 4
GridSize: 4
TimelineZoom: 1.6

[Metadata]
Title:Sunflower
TitleUnicode:Sunflower
Artist:m108
ArtistUnicode:m108
Creator:Leader
Version:Hard
Source:
Tags:Instrumental Electronic Trance Rhythm Game
BeatmapID:2895676
BeatmapSetID:1403962

[Difficulty]
HPDrainRate:5
CircleSize:3.8
OverallDifficulty:7
ApproachRate:8
SliderMultiplier:1.4
SliderTickRate:1

[Events]
//Background and Video events
0,0,"bg.jpg",0,0
//Break Periods
2,56516,66292
2,99421,101152
//Storyboard Layer 0 (Background)
//Storyboard Layer 1 (Fail)
//Storyboard Layer 2 (Pass)
//Storyboard Layer 3 (Foreground)
//Storyboard Layer 4 (Overlay)
//Storyboard Sound Samples

[TimingPoints]
3,335.195530726257,4,2,1,70,1,0
2014,-100,4,2,1,30,0,0
2181,-100,4,2,1,40,0,0
2349,-100,4,2,1,50,0,0
2516,-100,4,2,1,60,0,0
2684,-100,4,2,1,70,0,0
12740,-100,4,2,1,50,0,0
12908,-100,4,2,1,30,0,0
13075,-100,4,2,1,50,0,0
13410,-100,4,2,1,70,0,0
67042,-133.333333333333,4,2,1,60,0,0
77768,-100,4,2,1,40,0,1
78103,-100,4,2,1,80,0,1
88410,-100,4,2,1,70,0,0
88494,-100,4,2,1,80,0,1
99220,-100,4,2,1,30,0,0
101902,-83.3333333333333,4,2,1,80,0,1
109947,-83.3333333333333,4,2,1,80,0,0
110114,-83.3333333333333,4,2,1,70,0,0
110282,-83.3333333333333,4,2,1,60,0,0
110449,-83.3333333333333,4,2,1,50,0,0
110617,-83.3333333333333,4,2,1,40,0,0
110785,-83.3333333333333,4,2,1,30,0,0
110952,-83.3333333333333,4,2,1,20,0,0
111120,-83.3333333333333,4,2,1,10,0,0
111287,-83.3333333333333,4,2,1,5,0,0

[Colours]
Combo1 : 255,255,40
Combo2 : 245,198,7
Combo3 : 253,228,130
Combo4 : 223,196,0

[HitObjects]
34,331,2014,6,0,L|71:327,3,35,2|0|2|0,0:0|0:0|0:0|0:0,0:0:0:0:
98,351,2349,2,0,L|134:355,3,35,2|0|2|0,0:0|0:0|0:0|0:0,0:0:0:0:
162,329,2685,6,0,L|168:252,1,70,4|2,0:0|0:0,0:0:0:0:
177,182,3020,1,8,0:0:0:0:
177,182,3188,1,2,0:0:0:0:
245,216,3355,6,0,L|252:132,1,70,0|2,0:0|0:0,0:0:0:0:
258,72,3690,1,8,0:0:0:0:
258,72,3858,1,0,0:0:0:0:
322,112,4025,6,0,P|363:108|399:99,1,70
397,178,4360,2,0,P|438:182|474:191,1,70,8|2,0:0|0:0,0:0:0:0:
499,258,4696,2,0,L|512:301,2,35,0|0|2,0:0|0:0|0:0,0:0:0:0:
422,267,5031,2,0,P|416:302|412:347,1,70,8|2,0:0|0:0,0:0:0:0:
347,377,5366,5,0,0:0:0:0:
287,327,5534,2,0,L|228:318,1,35
228,352,5701,2,0,P|222:308|213:279,1,70,8|0,0:0|0:0,0:0:0:0:
176,216,6036,2,0,L|101:209,1,70,2|2,0:0|0:0,0:0:0:0:
39,169,6372,2,0,P|45:125|54:96,1,70,8|2,0:0|0:0,0:0:0:0:
91,33,6707,2,0,L|166:26,1,70,4|4,1:0|0:0,0:0:0:0:
236,10,7042,1,8,0:0:0:0:
236,10,7210,1,0,0:0:0:0:
285,68,7377,6,0,L|372:84,1,70,2|2,0:0|0:0,0:0:0:0:
424,50,7712,1,2,0:0:0:0:
424,50,7880,1,2,0:0:0:0:
426,127,8048,6,0,P|419:167|417:202,1,70,4|2,1:0|0:0,0:0:0:0:
428,272,8383,1,8,0:0:0:0:
357,240,8551,1,2,0:0:0:0:
356,316,8718,2,0,L|282:327,1,70,0|2,0:0|0:0,0:0:0:0:
217,292,9053,1,8,0:0:0:0:
161,345,9221,2,0,L|105:353,1,35,2|0,0:0|0:0,0:0:0:0:
99,378,9388,6,0,P|93:338|84:303,1,70,0|2,0:0|0:0,0:0:0:0:
70,233,9724,2,0,L|76:151,1,70,8|2,0:0|0:0,0:0:0:0:
87,87,10059,2,0,P|47:77|10:57,2,70,0|2|8,0:0|0:0|0:0,0:0:0:0:
153,134,10562,5,2,0:0:0:0:
153,134,10729,2,0,L|235:122,1,70,4|2,0:0|0:0,0:0:0:0:
228,200,11064,2,0,L|297:210,1,70,4|2,0:0|0:0,0:0:0:0:
360,164,11400,1,0,0:0:0:0:
420,211,11568,1,4,0:0:0:0:
471,153,11735,2,0,P|456:206|469:274,1,105,8|0,0:0|0:0,0:0:0:0:
475,290,12070,6,0,L|402:304,1,70,0|2,0:0|0:0,0:0:0:0:
335,271,12405,1,8,0:0:0:0:
302,341,12573,1,2,0:0:0:0:
253,281,12740,2,0,P|243:240|224:191,1,70,2|2,0:0|0:0,0:0:0:0:
168,255,13076,2,0,L|74:244,1,70,8|2,0:0|0:0,0:0:0:0:
48,187,13411,6,0,P|33:130|56:67,1,105,4|0,1:0|0:0,0:0:0:0:
65,54,13746,2,0,L|168:44,1,70,8|0,0:0|0:0,0:0:0:0:
206,18,14081,1,2,0:0:0:0:
237,88,14249,1,0,0:0:0:0:
300,44,14416,6,0,L|340:40,1,35,8|0,0:0|0:0,0:0:0:0:
355,73,14584,2,0,L|397:79,1,35,2|0,0:0|0:0,0:0:0:0:
415,49,14752,2,0,P|411:89|411:149,1,70,2|0,0:0|0:0,0:0:0:0:
435,191,15087,1,8,0:0:0:0:
360,174,15254,1,2,0:0:0:0:
384,247,15422,2,0,L|373:338,1,70,2|0,0:0|0:0,0:0:0:0:
314,363,15757,1,8,0:0:0:0:
256,313,15924,5,2,0:0:0:0:
256,313,16093,2,0,P|216:315|166:325,1,70,2|0,0:0|0:0,0:0:0:0:
123,364,16428,1,8,0:0:0:0:
64,314,16595,1,2,0:0:0:0:
125,266,16763,2,0,L|128:227,3,35,2|0|2|0,0:0|0:0|0:0|0:0,0:0:0:0:
107,198,17098,2,0,L|104:159,3,35,8|0|2|0,0:0|0:0|0:0|0:0,0:0:0:0:
142,157,17433,6,0,L|65:145,1,70
188,90,17768,2,0,L|111:78,1,70,8|0,0:0|0:0,0:0:0:0:
226,21,18103,2,0,L|149:9,1,70,2|2,0:0|0:0,0:0:0:0:
280,94,18439,2,0,P|323:102|391:63,1,105,8|0,0:0|0:0,0:0:0:0:
405,51,18774,5,2,0:0:0:0:
450,112,18941,2,0,L|503:119,2,35,0|0|8,0:0|0:0|0:0,0:0:0:0:
399,171,19277,1,2,0:0:0:0:
331,207,19444,2,0,L|247:214,2,70,0|2|8,0:0|0:0|0:0,0:0:0:0:
395,258,19947,5,2,0:0:0:0:
395,258,20115,2,0,P|370:308|363:330,1,70,4|0,1:0|0:0,0:0:0:0:
305,370,20450,2,0,L|216:376,1,70,8|2,0:0|0:0,0:0:0:0:
178,322,20785,1,2,0:0:0:0:
114,278,20953,2,0,L|73:270,2,35,0|0|8,0:0|0:0|0:0,0:0:0:0:
176,232,21288,1,2,0:0:0:0:
235,183,21455,6,0,L|228:97,1,70,2|0,0:0|0:0,0:0:0:0:
288,62,21791,2,0,L|292:15,2,35,8|0|2,0:0|0:0|0:0,0:0:0:0:
348,110,22126,1,2,0:0:0:0:
419,81,22293,1,2,0:0:0:0:
456,148,22461,2,0,L|465:194,1,35,8|0,0:0|0:0,0:0:0:0:
440,214,22629,2,0,L|431:260,1,35,2|0,0:0|0:0,0:0:0:0:
462,273,22796,6,0,L|373:285,1,70,2|0,0:0|0:0,0:0:0:0:
375,357,23131,2,0,L|305:366,1,70,8|0,0:0|0:0,0:0:0:0:
262,301,23467,2,0,L|173:313,1,70,2|0,0:0|0:0,0:0:0:0:
141,368,23802,1,8,0:0:0:0:
100,302,23969,5,0,0:0:0:0:
100,302,24137,2,0,P|92:258|83:221,1,70,4|0,1:0|0:0,0:0:0:0:
50,164,24472,1,8,0:0:0:0:
60,87,24640,2,0,L|68:8,2,70,2|2|0,0:0|0:0|0:0,0:0:0:0:
123,130,25143,2,0,L|170:141,3,35,8|0|2|0,0:0|0:0|0:0|0:0,0:0:0:0:
194,149,25478,6,0,P|204:185|212:232,1,70,2|0,0:0|0:0,0:0:0:0:
238,294,25813,2,0,L|327:306,1,70,8|0,0:0|0:0,0:0:0:0:
344,370,26148,2,0,P|346:324|369:254,1,105,2|0,0:0|0:0,0:0:0:0:
383,235,26483,1,8,0:0:0:0:
449,274,26651,1,0,0:0:0:0:
453,196,26819,6,0,L|460:102,1,70,2|0,0:0|0:0,0:0:0:0:
382,140,27154,2,0,L|376:70,2,70,8|2|0,0:0|0:0|0:0,0:0:0:0:
343,206,27657,1,2,0:0:0:0:
276,167,27824,2,0,P|235:163|176:203,1,105,8|0,0:0|0:0,0:0:0:0:
152,219,28159,6,0,L|145:143,1,70,2|0,0:0|0:0,0:0:0:0:
68,158,28495,2,0,L|75:234,1,70,8|2,0:0|0:0,0:0:0:0:
86,304,28830,1,8,0:0:0:0:
229,240,29165,1,8,0:0:0:0:
289,287,29333,1,2,0:0:0:0:
346,236,29500,6,0,L|352:158,1,70,4|0,1:0|0:0,0:0:0:0:
358,89,29835,1,8,0:0:0:0:
290,125,30003,1,2,0:0:0:0:
225,82,30171,2,0,L|218:41,2,35,2|0|2,0:0|0:0|0:0,0:0:0:0:
189,157,30506,1,8,0:0:0:0:
122,118,30673,1,0,0:0:0:0:
120,195,30841,6,0,P|129:256|127:339,1,140,2|8,0:0|0:0,0:0:0:0:
196,365,31344,1,2,0:0:0:0:
196,365,31511,2,0,L|268:357,1,70,2|0,0:0|0:0,0:0:0:0:
316,298,31847,1,8,0:0:0:0:
343,226,32014,1,0,0:0:0:0:
393,284,32182,6,0,L|409:368,1,70,2|2,0:0|0:0,0:0:0:0:
415,207,32517,2,0,L|461:198,3,35,10|0|2|0,0:0|0:0|0:0|0:0,0:0:0:0:
454,238,32852,2,0,L|500:247,3,35,0|0|2|0,0:0|0:0|0:0|0:0,0:0:0:0:
508,211,33187,6,0,L|513:119,1,70,8|2,0:0|0:0,0:0:0:0:
435,133,33522,2,0,L|427:61,1,70,0|0,3:0|0:0,0:0:0:0:
424,28,33774,1,0,3:0:0:0:
424,28,33858,1,0,3:0:0:0:
351,1,34025,1,0,0:0:0:0:
333,76,34193,2,0,P|294:75|241:62,1,70,0|0,3:0|0:0,0:0:0:0:
219,132,34528,2,0,L|105:148,1,105,8|0,0:0|0:0,0:0:0:0:
76,150,34863,6,0,L|68:234,1,70,6|2,0:0|0:0,0:0:0:0:
64,300,35198,1,8,0:0:0:0:
64,300,35366,1,2,0:0:0:0:
141,301,35534,2,0,P|149:326|157:384,1,70,2|2,0:0|0:0,0:0:0:0:
232,382,35869,2,0,P|237:347|247:313,1,70,10|2,0:0|0:0,0:0:0:0:
310,356,36204,6,0,L|385:348,1,70,2|2,0:0|0:0,0:0:0:0:
396,273,36539,2,0,L|321:265,1,70,10|2,0:0|0:0,0:0:0:0:
262,218,36874,2,0,L|220:226,2,35,2|0|2,0:0|0:0|0:0,0:0:0:0:
321,168,37210,5,10,0:0:0:0:
321,168,37377,1,2,0:0:0:0:
321,168,37545,2,0,P|330:119|300:42,1,105,2|0,0:0|0:0,0:0:0:0:
295,34,37880,1,8,0:0:0:0:
225,1,38048,1,2,0:0:0:0:
192,70,38215,2,0,L|113:85,1,70,8|2,0:0|0:0,0:0:0:0:
59,30,38550,1,8,0:0:0:0:
35,103,38718,1,2,0:0:0:0:
99,146,38886,6,0,P|109:195|99:267,1,105,2|0,1:0|3:0,0:0:0:0:
97,287,39221,2,0,L|14:295,1,70,8|2,0:0|0:0,0:0:0:0:
156,349,39556,2,0,L|225:355,2,70,2|2|10,0:0|0:0|0:0,0:0:0:0:
187,278,40059,5,2,3:0:0:0:
187,278,40226,2,0,P|182:228|173:190,1,70,2|2,0:0|0:0,0:0:0:0:
164,132,40562,1,10,0:0:0:0:
164,132,40729,1,2,0:0:0:0:
238,152,40897,2,0,P|285:160|374:115,1,140,10|10,0:0|0:0,0:0:0:0:
416,64,41400,1,2,0:0:0:0:
416,64,41567,5,2,0:0:0:0:
456,212,41902,2,0,L|502:218,2,35,10|0|2,0:0|0:0|0:0,0:0:0:0:
396,261,42238,2,0,L|354:267,3,35,2|0|2|0,0:0|0:0|0:0|0:0,0:0:0:0:
343,299,42573,2,0,L|308:294,3,35,10|0|2|0,0:0|0:0|0:0|0:0,0:0:0:0:
278,269,42908,6,0,L|271:190,1,70,2|2,0:0|0:0,0:0:0:0:
210,152,43243,2,0,L|214:101,2,35,10|0|2,0:0|0:0|0:0,0:0:0:0:
186,225,43578,2,0,P|129:231|53:182,1,140,2|10,0:0|0:0,0:0:0:0:
41,115,44081,5,2,0:0:0:0:
41,115,44249,2,0,L|52:286,1,140,2|10,0:0|0:0,0:0:0:0:
89,321,44752,2,0,B|158:303|157:356|245:333,1,140,2|2,0:0|0:0,0:0:0:0:
296,308,45254,1,8,0:0:0:0:
441,360,45590,6,0,P|448:312|455:280,1,70,4|0,1:0|0:0,0:0:0:0:
467,215,45925,1,8,0:0:0:0:
467,215,46092,1,2,0:0:0:0:
390,206,46260,2,0,L|380:119,1,70,0|2,0:0|0:0,0:0:0:0:
398,61,46595,6,0,P|361:60|306:148,1,140,10|8,0:0|0:0,0:0:0:0:
296,212,47098,2,0,L|146:229,1,140,2|2,0:0|0:0,0:0:0:0:
93,184,47601,2,0,L|53:179,2,35,2|0|0,0:0|0:0|0:0,0:0:0:0:
159,142,47936,1,8,0:0:0:0:
159,142,48103,1,2,0:0:0:0:
222,97,48271,6,0,L|229:16,1,70,2|2,0:0|0:0,0:0:0:0:
301,124,48606,2,0,L|308:43,1,70,8|2,0:0|0:0,0:0:0:0:
382,153,48941,2,0,L|389:72,1,70,2|2,0:0|0:0,0:0:0:0:
465,185,49277,1,8,0:0:0:0:
465,185,49444,1,2,0:0:0:0:
405,233,49612,5,2,0:0:0:0:
320,362,49947,1,8,0:0:0:0:
269,303,50115,1,0,0:0:0:0:
269,303,50282,2,0,P|224:311|188:323,1,70,2|2,0:0|0:0,0:0:0:0:
133,356,50617,1,8,0:0:0:0:
90,291,50785,6,0,L|82:238,1,35,0|0,3:0|0:0,0:0:0:0:
49,239,50953,2,0,P|89:235|131:222,1,70,4|2,1:0|0:0,0:0:0:0:
166,166,51288,2,0,L|174:75,1,70,8|2,0:0|0:0,0:0:0:0:
124,35,51623,2,0,P|179:19|246:66,1,140,0|8,0:0|0:0,0:0:0:0:
290,123,52126,5,2,0:0:0:0:
290,123,52293,2,0,L|407:137,1,105,0|2,0:0|0:0,0:0:0:0:
433,139,52629,1,8,0:0:0:0:
389,202,52796,1,0,0:0:0:0:
454,243,52964,2,0,L|458:290,3,35,2|0|2|0,0:0|0:0|0:0|0:0,0:0:0:0:
421,293,53299,2,0,L|417:340,3,35,10|0|2|0,0:0|0:0|0:0|0:0,0:0:0:0:
447,352,53634,6,0,L|368:359,1,70,2|2,0:0|0:0,0:0:0:0:
304,369,53969,1,8,0:0:0:0:
304,369,54137,1,2,0:0:0:0:
277,296,54305,2,0,P|268:244|256:204,1,70,0|2,0:0|0:0,0:0:0:0:
207,174,54640,2,0,L|167:166,3,35,10|0|2|0,0:0|0:0|0:0|0:0,0:0:0:0:
135,157,54975,6,0,L|129:84,1,70,2|2,0:0|0:0,0:0:0:0:
202,62,55310,2,0,L|204:17,2,35,10|0|2,0:0|0:0|0:0,0:0:0:0:
264,107,55645,2,0,L|265:141,2,35,2|0|2,0:0|0:0|0:0,0:0:0:0:
323,57,55981,1,10,0:0:0:0:
323,57,56148,1,2,0:0:0:0:
323,57,56316,5,4,1:0:0:0:
63,62,67042,5,4,1:0:0:0:
106,135,67377,1,8,0:0:0:0:
174,78,67712,1,0,0:0:0:0:
174,78,67880,1,0,0:0:0:0:
257,59,68048,1,8,0:0:0:0:
257,59,68215,1,0,0:0:0:0:
330,83,68383,5,4,1:0:0:0:
257,273,68718,1,8,0:0:0:0:
336,245,69053,1,0,0:0:0:0:
336,245,69221,1,0,0:0:0:0:
407,298,69388,1,8,0:0:0:0:
407,298,69556,1,0,0:0:0:0:
454,227,69724,6,0,L|457:158,1,52.5000020027161,4|0,1:0|0:0,0:0:0:0:
384,91,70059,2,0,L|381:160,1,52.5000020027161,8|0,0:0|0:0,0:0:0:0:
310,224,70394,2,0,L|313:155,1,52.5000020027161
240,88,70729,2,0,L|237:157,1,52.5000020027161,8|0,0:0|0:0,0:0:0:0:
170,192,71064,6,0,P|140:197|99:198,2,52.5000020027161,4|0|8,1:0|0:0|0:0,0:0:0:0:
219,251,71567,2,0,L|214:282,2,26.2500010013581
278,339,71902,2,0,P|308:344|349:345,2,52.5000020027161,0|8|0,0:0|0:0|0:0,0:0:0:0:
191,356,72405,6,0,L|130:364,1,52.5000020027161,4|0,1:0|0:0,0:0:0:0:
59,372,72740,1,8,0:0:0:0:
210,269,73076,6,0,L|149:277,1,52.5000020027161,4|0,1:0|0:0,0:0:0:0:
78,285,73411,1,8,0:0:0:0:
225,183,73746,6,0,L|164:191,1,52.5000020027161,4|0,1:0|0:0,0:0:0:0:
93,199,74081,1,8,0:0:0:0:
123,127,74249,1,0,0:0:0:0:
123,127,74416,2,0,L|118:64,1,52.5000020027161,4|0,1:0|0:0,0:0:0:0:
113,0,74752,1,8,0:0:0:0:
113,0,74919,1,0,0:0:0:0:
196,39,75087,6,0,L|232:33,3,26.2500010013581,2|2|0|0,0:0|0:0|0:0|0:0,0:0:0:0:
240,56,75422,2,0,L|265:60,3,26.2500010013581,10|0|10|0,0:0|0:0|0:0|0:0,0:0:0:0:
270,36,75757,2,0,L|306:30,3,26.2500010013581,2|0|2|0,0:0|0:0|0:0|0:0,0:0:0:0:
314,53,76092,2,0,L|339:57,3,26.2500010013581,10|0|2|0,0:0|0:0|0:0|0:0,0:0:0:0:
256,192,76428,12,0,77768,0:0:0:0:
67,368,78103,6,0,L|60:291,1,70,4|0,0:0|0:0,0:0:0:0:
51,221,78439,1,2,0:0:0:0:
126,233,78606,2,0,L|171:238,2,35,2|0|8,0:0|0:0|0:0,0:0:0:0:
51,221,78941,1,2,0:0:0:0:
95,158,79109,6,0,P|89:122|82:85,1,70,2|2,0:0|0:0,0:0:0:0:
68,13,79444,1,8,0:0:0:0:
141,37,79612,1,2,0:0:0:0:
220,71,79779,1,4,0:0:0:0:
220,71,79947,1,2,0:0:0:0:
220,71,80115,2,0,L|227:142,1,70,8|2,0:0|0:0,0:0:0:0:
183,204,80450,6,0,P|225:216|293:183,1,105,4|0,0:0|0:0,0:0:0:0:
304,165,80785,2,0,L|296:246,1,70,8|2,0:0|0:0,0:0:0:0:
289,311,81120,1,0,0:0:0:0:
224,268,81288,1,2,0:0:0:0:
194,338,81455,2,0,L|113:348,1,70,8|2,0:0|0:0,0:0:0:0:
71,289,81791,5,4,1:0:0:0:
71,289,81958,2,0,L|59:200,1,70,4|0,0:0|0:0,0:0:0:0:
132,188,82293,2,0,L|144:277,1,70,4|0,0:0|0:0,0:0:0:0:
218,268,82629,2,0,L|206:179,1,70,4|0,0:0|0:0,0:0:0:0:
278,166,82964,5,4,0:0:0:0:
278,166,83131,2,0,L|271:109,2,35,4|0|2,0:0|0:0|0:0,0:0:0:0:
335,217,83467,2,0,L|412:224,2,70,8|2|0,0:0|0:0|0:0,0:0:0:0:
278,268,83969,2,0,L|201:275,2,70,2|8|2,0:0|0:0|0:0,0:0:0:0:
333,321,84472,5,4,0:0:0:0:
251,190,84807,2,0,L|212:195,3,35,8|0|2|0,0:0|0:0|0:0|0:0,0:0:0:0:
185,170,85143,2,0,L|150:165,3,35,0|0|2|0,0:0|0:0|0:0|0:0,0:0:0:0:
125,195,85478,2,0,L|86:200,3,35,8|0|2|0,0:0|0:0|0:0|0:0,0:0:0:0:
54,185,85813,6,0,L|46:107,1,70,4|0,0:0|0:0,0:0:0:0:
37,38,86148,1,8,0:0:0:0:
111,72,86316,1,0,0:0:0:0:
111,72,86483,2,0,P|152:67|190:58,1,70,4|0,0:0|0:0,0:0:0:0:
251,31,86819,1,8,0:0:0:0:
297,92,86986,2,0,L|292:141,1,35,0|0,3:0|0:0,0:0:0:0:
290,165,87154,5,0,3:0:0:0:
217,139,87321,1,2,0:0:0:0:
230,214,87489,2,0,L|157:226,1,70,8|2,0:0|0:0,0:0:0:0:
100,177,87824,2,0,P|127:227|117:314,1,140,2|8,0:0|0:0,0:0:0:0:
65,361,88327,5,0,0:0:0:0:
65,361,88495,2,0,L|139:368,1,70,4|0,1:0|0:0,0:0:0:0:
208,335,88830,2,0,P|257:326|319:371,1,105,8|0,0:0|0:0,0:0:0:0:
338,368,89165,2,0,L|348:290,1,70,2|2,0:0|0:0,0:0:0:0:
360,222,89500,1,8,0:0:0:0:
207,246,89835,6,0,L|200:163,1,70,2|0,0:0|0:0,0:0:0:0:
192,99,90171,1,8,0:0:0:0:
260,133,90338,1,0,0:0:0:0:
318,82,90506,2,0,L|361:75,3,35,2|0|2|0,0:0|0:0|0:0|0:0,0:0:0:0:
378,105,90841,2,0,L|412:110,3,35,10|0|2|0,0:0|0:0|0:0|0:0,0:0:0:0:
440,83,91176,6,0,P|431:125|427:166,1,70,2|2,0:0|0:0,0:0:0:0:
436,228,91511,2,0,L|366:243,1,70,8|2,0:0|0:0,0:0:0:0:
296,212,91847,2,0,L|298:174,2,35,2|0|2,0:0|0:0|0:0,0:0:0:0:
307,288,92182,1,8,0:0:0:0:
261,349,92349,1,2,0:0:0:0:
203,297,92517,6,0,P|150:290|92:338,1,105,2|0,0:0|0:0,0:0:0:0:
79,341,92852,2,0,L|68:263,1,70,8|0,0:0|0:0,0:0:0:0:
63,194,93187,2,0,B|132:181|131:224|218:210,1,140,2|10,0:0|0:0,0:0:0:0:
280,206,93690,5,2,0:0:0:0:
280,206,93858,2,0,L|296:350,1,140,2|8,0:0|0:0,0:0:0:0:
295,345,94360,1,2,0:0:0:0:
368,320,94528,2,0,L|374:281,2,35,2|0|2,0:0|0:0|0:0,0:0:0:0:
437,364,94863,1,10,0:0:0:0:
437,364,95031,1,2,0:0:0:0:
472,295,95198,6,0,P|478:249|485:211,1,70,2|0,0:0|0:0,0:0:0:0:
501,153,95534,1,8,0:0:0:0:
501,153,95701,1,2,0:0:0:0:
424,165,95869,2,0,L|389:172,3,35,2|0|2|0,0:0|0:0|0:0|0:0,0:0:0:0:
354,156,96204,2,0,L|319:149,3,35,10|0|2|0,0:0|0:0|0:0|0:0,0:0:0:0:
298,181,96539,6,0,L|292:111,1,70,2|0,0:0|0:0,0:0:0:0:
284,34,96874,1,8,0:0:0:0:
284,34,97042,1,2,0:0:0:0:
221,79,97210,2,0,L|186:86,3,35,2|0|2|0,0:0|0:0|0:0|0:0,0:0:0:0:
150,73,97545,2,0,L|115:66,3,35,10|0|2|0,0:0|0:0|0:0|0:0,0:0:0:0:
89,37,97880,6,0,L|84:113,1,70,2|2,0:0|0:0,0:0:0:0:
85,187,98215,1,8,0:0:0:0:
85,187,98383,1,2,0:0:0:0:
136,244,98550,2,0,B|208:231|206:279|300:263,1,140,2|10,0:0|0:0,0:0:0:0:
346,244,99053,1,2,0:0:0:0:
329,319,99221,5,4,1:0:0:0:
108,129,101902,6,0,L|161:120,3,41.9999987182618,4|0|2|0,1:0|0:0|0:0|0:0,0:0:0:0:
187,149,102238,2,0,L|228:156,3,41.9999987182618,8|0|2|0,0:0|0:0|0:0|0:0,0:0:0:0:
249,114,102573,2,0,L|302:105,3,41.9999987182618,8|0|2|0,0:0|0:0|0:0|0:0,0:0:0:0:
328,134,102909,2,0,L|369:141,3,41.9999987182618,8|0|2|0,0:0|0:0|0:0|0:0,0:0:0:0:
401,108,103243,6,0,L|407:198,1,83.9999974365235,4|2,1:0|0:0,0:0:0:0:
414,284,103578,1,8,0:0:0:0:
335,235,103746,1,2,0:0:0:0:
316,325,103914,2,0,P|258:331|212:340,1,83.9999974365235,8|2,0:0|0:0,0:0:0:0:
143,361,104249,1,8,0:0:0:0:
143,361,104416,1,2,0:0:0:0:
178,275,104584,6,0,L|167:192,1,83.9999974365235,4|2,1:0|0:0,0:0:0:0:
155,99,104919,1,8,0:0:0:0:
155,99,105087,1,2,0:0:0:0:
261,237,105254,6,0,L|250:154,1,83.9999974365235,8|0,0:0|0:0,0:0:0:0:
238,61,105589,1,8,0:0:0:0:
238,61,105757,1,2,0:0:0:0:
314,113,105925,6,0,P|369:128|468:69,1,167.999994873047,4|8,1:0|0:0,0:0:0:0:
462,78,106428,1,2,0:0:0:0:
462,170,106595,2,0,L|468:230,3,41.9999987182618,4|0|2|0,1:0|0:0|0:0|0:0,0:0:0:0:
445,253,106930,2,0,L|439:313,3,41.9999987182618,8|0|2|0,0:0|0:0|0:0|0:0,0:0:0:0:
476,325,107266,6,0,P|436:329|376:340,1,83.9999974365235,4|2,1:0|0:0,0:0:0:0:
307,371,107601,1,8,0:0:0:0:
255,294,107768,1,2,0:0:0:0:
193,363,107936,2,0,L|145:370,3,41.9999987182618,8|0|2|0,0:0|0:0|0:0|0:0,0:0:0:0:
117,337,108271,2,0,L|75:332,3,41.9999987182618,8|0|2|0,0:0|0:0|0:0|0:0,0:0:0:0:
40,362,108606,6,0,P|36:318|28:267,1,83.9999974365235,4|2,1:0|0:0,0:0:0:0:
9,188,108941,1,8,0:0:0:0:
9,188,109109,1,2,0:0:0:0:
95,220,109277,2,0,L|144:229,3,41.9999987182618,8|0|2|0,0:0|0:0|0:0|0:0,0:0:0:0:
179,210,109612,2,0,L|220:202,3,41.9999987182618,8|0|2|0,0:0|0:0|0:0|0:0,0:0:0:0:
262,222,109947,5,4,0:0:0:0:
256,192,110031,12,0,112293,0:0:0:0:
