osu file format v14

[General]
AudioFilename: audio.mp3
AudioLeadIn: 0
PreviewTime: 77768
Countdown: 0
SampleSet: Soft
StackLeniency: 0.7
Mode: 0
LetterboxInBreaks: 0
WidescreenStoryboard: 0

[Editor]
DistanceSpacing: 1.1
BeatDivisor: 4
GridSize: 32
TimelineZoom: 2.4

[Metadata]
Title:Sunflower
TitleUnicode:Sunflower
Artist:m108
ArtistUnicode:m108
Creator:Leader
Version:Expert
Source:
Tags:Instrumental Electronic Trance Rhythm Game
BeatmapID:2895675
BeatmapSetID:1403962

[Difficulty]
HPDrainRate:6
CircleSize:4.2
OverallDifficulty:8
ApproachRate:9.4
SliderMultiplier:1.8
SliderTickRate:1

[Events]
//Background and Video events
0,0,"bg.jpg",0,0
//Break Periods
2,56516,66488
//Storyboard Layer 0 (Background)
//Storyboard Layer 1 (Fail)
//Storyboard Layer 2 (Pass)
//Storyboard Layer 3 (Foreground)
//Storyboard Layer 4 (Overlay)
//Storyboard Sound Samples

[TimingPoints]
3,335.195530726257,4,2,1,70,1,0
2014,-100,4,2,1,30,0,0
2181,-100,4,2,1,40,0,0
2349,-100,4,2,1,50,0,0
2516,-100,4,2,1,60,0,0
2684,-100,4,2,1,70,0,0
12740,-100,4,2,1,50,0,0
12908,-100,4,2,1,30,0,0
13075,-100,4,2,1,50,0,0
13410,-100,4,2,1,70,0,0
67042,-133.333333333333,4,2,1,60,0,0
77768,-100,4,2,1,40,0,1
78103,-100,4,2,1,80,0,1
88410,-100,4,2,1,70,0,0
88494,-100,4,2,1,80,0,1
99220,-100,4,2,1,30,0,0
99556,-100,4,2,1,35,0,0
99891,-100,4,2,1,40,0,0
100226,-100,4,2,1,45,0,0
100561,-100,4,2,1,50,0,0
100896,-100,4,2,1,55,0,0
101232,-100,4,2,1,60,0,0
101567,-100,4,2,1,70,0,0
101902,-83.3333333333333,4,2,1,80,0,1
109947,-83.3333333333333,4,2,1,80,0,0
110114,-100,4,2,1,70,0,0
110282,-100,4,2,1,60,0,0
110449,-100,4,2,1,50,0,0
110617,-100,4,2,1,40,0,0
110785,-100,4,2,1,30,0,0
110952,-100,4,2,1,20,0,0
111120,-100,4,2,1,10,0,0
111287,-100,4,2,1,5,0,0

[Colours]
Combo1 : 255,255,40
Combo2 : 245,198,7
Combo3 : 253,228,130
Combo4 : 223,196,0

[HitObjects]
281,310,2014,5,2,0:0:0:0:
299,305,2098,1,0,0:0:0:0:
319,304,2182,1,2,0:0:0:0:
338,304,2266,1,0,0:0:0:0:
357,307,2350,1,2,0:0:0:0:
375,312,2433,1,0,0:0:0:0:
393,320,2517,1,2,0:0:0:0:
410,329,2601,1,0,0:0:0:0:
425,342,2685,6,0,L|431:248,1,90,4|2,0:0|0:0,0:0:0:0:
319,58,3020,1,8,0:0:0:0:
350,153,3188,1,2,0:0:0:0:
431,93,3355,1,0,0:0:0:0:
431,93,3523,1,2,0:0:0:0:
329,242,3690,1,8,0:0:0:0:
329,242,3858,1,0,0:0:0:0:
210,38,4026,6,0,P|218:75|228:144,1,90
257,379,4361,1,8,0:0:0:0:
422,224,4528,1,2,0:0:0:0:
151,295,4696,1,0,0:0:0:0:
146,272,4780,1,0,0:0:0:0:
142,250,4864,1,2,0:0:0:0:
120,135,5031,1,8,0:0:0:0:
54,321,5199,1,2,0:0:0:0:
223,179,5366,6,0,P|226:128|209:63,1,90
203,61,5618,1,0,0:0:0:0:
186,40,5702,2,0,L|69:29,1,90,8|0,0:0|0:0,0:0:0:0:
331,203,6037,2,0,L|448:192,1,90,2|2,0:0|0:0,0:0:0:0:
198,341,6372,2,0,L|81:330,1,90,8|2,0:0|0:0,0:0:0:0:
355,372,6707,5,4,1:0:0:0:
144,249,6875,1,4,0:0:0:0:
419,299,7042,1,8,0:0:0:0:
439,296,7126,1,0,0:0:0:0:
463,294,7210,2,0,L|468:245,1,45
471,163,7378,5,2,0:0:0:0:
460,162,7545,1,2,0:0:0:0:
449,161,7713,1,2,0:0:0:0:
438,160,7880,1,2,0:0:0:0:
426,158,8048,6,0,L|413:59,1,90,4|2,1:0|0:0,0:0:0:0:
365,249,8383,1,8,0:0:0:0:
256,65,8551,1,2,0:0:0:0:
323,345,8718,1,0,0:0:0:0:
341,27,8886,1,2,0:0:0:0:
235,312,9054,1,8,0:0:0:0:
456,192,9221,5,2,0:0:0:0:
456,192,9305,1,0,0:0:0:0:
456,192,9389,2,0,L|359:202,1,90,0|2,0:0|0:0,0:0:0:0:
95,135,9724,1,8,0:0:0:0:
406,294,9892,1,2,0:0:0:0:
210,189,10059,1,0,0:0:0:0:
297,177,10227,1,2,0:0:0:0:
268,263,10394,1,8,0:0:0:0:
230,21,10562,5,2,0:0:0:0:
230,21,10646,1,0,0:0:0:0:
230,21,10730,2,0,P|238:60|245:111,1,90,4|2,0:0|0:0,0:0:0:0:
346,368,11065,2,0,P|351:323|360:279,1,90,4|2,0:0|0:0,0:0:0:0:
463,92,11400,1,0,0:0:0:0:
145,284,11568,1,4,0:0:0:0:
265,34,11735,5,8,0:0:0:0:
267,56,11819,1,0,0:0:0:0:
270,78,11903,1,2,0:0:0:0:
273,101,11987,1,0,0:0:0:0:
276,123,12070,2,0,L|282:173,1,45
296,314,12237,5,2,0:0:0:0:
285,324,12321,1,0,0:0:0:0:
273,334,12405,2,0,L|266:282,1,45,8|0,0:0|0:0,0:0:0:0:
190,367,12572,2,0,L|184:312,1,45,2|0,0:0|0:0,0:0:0:0:
94,314,12740,1,2,0:0:0:0:
83,324,12908,1,2,0:0:0:0:
72,334,13076,2,0,L|57:229,1,90,8|2,0:0|0:0,0:0:0:0:
238,10,13411,6,0,P|262:79|258:146,1,135,4|0,1:0|0:0,0:0:0:0:
254,166,13746,2,0,L|150:180,1,90,8|0,0:0|0:0,0:0:0:0:
137,346,14081,1,2,0:0:0:0:
33,146,14249,1,0,0:0:0:0:
321,314,14416,1,8,0:0:0:0:
350,313,14499,1,0,0:0:0:0:
378,318,14583,1,2,0:0:0:0:
406,328,14667,1,0,0:0:0:0:
430,344,14752,6,0,L|434:254,1,90,2|0,0:0|0:0,0:0:0:0:
436,223,15003,1,0,0:0:0:0:
436,223,15087,1,8,0:0:0:0:
258,59,15254,1,2,0:0:0:0:
258,59,15422,2,0,L|262:148,1,90,2|0,0:0|0:0,0:0:0:0:
191,314,15757,1,8,0:0:0:0:
162,313,15840,1,0,0:0:0:0:
134,318,15924,1,2,0:0:0:0:
106,328,16008,1,0,0:0:0:0:
82,344,16093,6,0,L|77:254,1,90,2|0,0:0|0:0,0:0:0:0:
23,130,16428,1,8,0:0:0:0:
198,201,16595,1,2,0:0:0:0:
110,101,16763,5,2,0:0:0:0:
111,89,16846,1,0,0:0:0:0:
112,78,16930,1,2,0:0:0:0:
113,67,17014,1,0,0:0:0:0:
114,55,17098,5,8,0:0:0:0:
139,91,17181,1,0,0:0:0:0:
152,134,17265,1,2,0:0:0:0:
149,179,17349,1,0,0:0:0:0:
132,220,17433,6,0,L|34:229,1,90
106,336,17768,1,8,0:0:0:0:
66,138,17936,1,0,0:0:0:0:
270,297,18103,2,0,L|274:238,1,45,2|0,0:0|0:0,0:0:0:0:
283,177,18271,1,2,0:0:0:0:
179,250,18438,2,0,L|183:191,1,45,8|0,0:0|0:0,0:0:0:0:
192,130,18606,1,2,0:0:0:0:
351,260,18773,5,4,1:0:0:0:
117,346,18941,1,0,0:0:0:0:
117,346,19025,1,0,0:0:0:0:
117,346,19109,1,8,0:0:0:0:
302,94,19277,5,2,0:0:0:0:
219,357,19444,1,0,0:0:0:0:
209,95,19612,5,2,0:0:0:0:
304,355,19779,1,8,0:0:0:0:
386,27,19947,5,2,0:0:0:0:
386,27,20031,1,0,0:0:0:0:
386,27,20115,2,0,P|399:72|396:172,1,135,2|0,0:0|0:0,0:0:0:0:
391,184,20450,2,0,L|292:196,1,90,8|2,0:0|0:0,0:0:0:0:
189,115,20785,1,2,0:0:0:0:
380,284,20953,1,0,0:0:0:0:
380,284,21036,1,0,0:0:0:0:
380,284,21120,1,8,0:0:0:0:
97,31,21288,5,2,0:0:0:0:
97,31,21372,1,0,0:0:0:0:
97,31,21455,2,0,L|110:134,1,90,2|0,0:0|0:0,0:0:0:0:
70,180,21707,1,0,0:0:0:0:
70,180,21791,2,0,P|124:171|166:170,1,90,8|2,0:0|0:0,0:0:0:0:
360,340,22126,1,2,0:0:0:0:
128,251,22293,1,2,0:0:0:0:
355,25,22461,1,8,0:0:0:0:
366,56,22544,1,0,0:0:0:0:
372,89,22628,1,2,0:0:0:0:
371,123,22712,1,0,0:0:0:0:
365,156,22796,6,0,L|268:165,1,90,2|0,0:0|0:0,0:0:0:0:
133,254,23048,1,0,0:0:0:0:
133,254,23131,2,0,L|230:262,1,90,8|0,0:0|0:0,0:0:0:0:
375,356,23383,1,0,0:0:0:0:
375,356,23467,2,0,L|277:364,1,90,2|0,0:0|0:0,0:0:0:0:
49,310,23802,1,8,0:0:0:0:
36,278,23885,1,2,0:0:0:0:
32,245,23969,1,0,0:0:0:0:
35,211,24053,1,2,0:0:0:0:
45,179,24137,6,0,L|146:165,1,90,4|0,1:0|0:0,0:0:0:0:
298,262,24472,1,8,0:0:0:0:
81,66,24640,1,2,0:0:0:0:
370,181,24807,1,2,0:0:0:0:
163,21,24975,2,0,L|170:74,1,45
161,179,25143,1,8,0:0:0:0:
183,179,25226,1,0,0:0:0:0:
205,177,25310,1,2,0:0:0:0:
227,172,25394,1,0,0:0:0:0:
249,165,25478,6,0,L|256:66,1,90,2|0,0:0|0:0,0:0:0:0:
168,65,25813,1,8,0:0:0:0:
339,115,25981,1,0,0:0:0:0:
249,165,26148,2,0,L|253:219,1,45,2|2,0:0|0:0,0:0:0:0:
324,259,26316,2,0,L|320:313,1,45,2|0,0:0|0:0,0:0:0:0:
266,384,26483,1,8,0:0:0:0:
448,263,26651,5,0,0:0:0:0:
448,263,26735,1,0,0:0:0:0:
448,263,26819,2,0,L|458:159,1,90,2|0,0:0|0:0,0:0:0:0:
316,37,27154,1,8,0:0:0:0:
362,228,27321,1,2,0:0:0:0:
442,55,27489,1,0,0:0:0:0:
446,59,27657,1,2,0:0:0:0:
238,178,27824,1,8,0:0:0:0:
204,183,27907,1,0,0:0:0:0:
171,180,27991,1,2,0:0:0:0:
139,169,28075,1,0,0:0:0:0:
111,150,28159,6,0,L|104:55,1,90,2|0,0:0|0:0,0:0:0:0:
204,183,28495,2,0,L|200:132,1,45,8|0,0:0|0:0,0:0:0:0:
193,62,28662,1,2,0:0:0:0:
292,220,28830,2,0,L|288:169,1,45,8|0,0:0|0:0,0:0:0:0:
281,99,28997,1,2,0:0:0:0:
275,15,29165,1,8,0:0:0:0:
167,278,29333,5,2,0:0:0:0:
167,278,29416,1,0,0:0:0:0:
167,278,29500,2,0,L|71:292,1,90,4|0,1:0|0:0,0:0:0:0:
87,181,29835,1,8,0:0:0:0:
200,368,30003,1,2,0:0:0:0:
298,127,30171,2,0,L|292:178,1,45,2|0,0:0|0:0,0:0:0:0:
281,245,30338,1,2,0:0:0:0:
171,88,30506,1,8,0:0:0:0:
395,340,30673,5,0,0:0:0:0:
395,340,30757,1,0,0:0:0:0:
395,340,30841,2,0,P|399:294|408:242,1,90,2|0,0:0|0:0,0:0:0:0:
371,11,31176,1,8,0:0:0:0:
497,193,31344,1,2,0:0:0:0:
289,82,31511,1,2,0:0:0:0:
293,86,31679,1,0,0:0:0:0:
460,71,31847,5,8,0:0:0:0:
459,82,31930,1,0,0:0:0:0:
458,93,32014,1,0,0:0:0:0:
458,104,32098,1,0,0:0:0:0:
456,117,32182,5,2,0:0:0:0:
413,132,32265,1,0,0:0:0:0:
369,132,32349,1,2,0:0:0:0:
327,116,32433,1,0,0:0:0:0:
293,86,32517,5,10,0:0:0:0:
251,70,32600,1,0,0:0:0:0:
206,73,32684,1,2,0:0:0:0:
167,94,32768,1,0,0:0:0:0:
141,131,32852,5,0,0:0:0:0:
132,174,32935,1,0,0:0:0:0:
143,218,33019,1,2,0:0:0:0:
171,252,33103,1,0,0:0:0:0:
211,272,33187,5,8,0:0:0:0:
233,175,33355,1,2,0:0:0:0:
76,349,33522,6,0,L|64:250,1,90,0|0,3:0|0:0,0:0:0:0:
5,215,33774,1,0,3:0:0:0:
5,215,33858,2,0,P|42:215|94:205,1,90,0|0,3:0|0:0,0:0:0:0:
283,127,34193,2,0,P|246:127|194:117,1,90,0|0,3:0|0:0,0:0:0:0:
87,36,34528,6,0,L|93:96,1,45,8|0,0:0|0:0,0:0:0:0:
176,194,34696,2,0,L|170:254,1,45,2|0,0:0|0:0,0:0:0:0:
98,363,34863,5,6,0:0:0:0:
192,323,35031,1,2,0:0:0:0:
295,325,35198,1,8,0:0:0:0:
389,360,35366,1,2,0:0:0:0:
476,306,35534,5,2,0:0:0:0:
476,294,35617,1,0,0:0:0:0:
477,283,35701,1,2,0:0:0:0:
477,272,35785,1,0,0:0:0:0:
477,261,35869,5,10,0:0:0:0:
444,270,35952,1,0,0:0:0:0:
411,270,36036,1,2,0:0:0:0:
378,260,36120,1,0,0:0:0:0:
351,241,36204,1,2,0:0:0:0:
335,211,36287,1,0,0:0:0:0:
330,178,36371,1,2,0:0:0:0:
336,145,36455,1,0,0:0:0:0:
353,116,36539,1,10,0:0:0:0:
379,94,36622,1,0,0:0:0:0:
410,83,36706,1,2,0:0:0:0:
444,84,36790,1,0,0:0:0:0:
475,97,36874,6,0,L|471:159,1,45,2|0,0:0|0:0,0:0:0:0:
408,225,37042,2,0,L|412:286,1,45,2|0,0:0|0:0,0:0:0:0:
491,342,37210,5,10,0:0:0:0:
450,361,37293,1,0,0:0:0:0:
406,363,37377,1,2,0:0:0:0:
364,348,37461,1,0,0:0:0:0:
331,317,37545,5,2,0:0:0:0:
330,306,37628,1,0,0:0:0:0:
328,295,37712,1,0,0:0:0:0:
327,284,37796,1,0,0:0:0:0:
325,274,37880,2,0,L|318:222,1,45,8|0,0:0|0:0,0:0:0:0:
245,352,38048,5,2,0:0:0:0:
243,340,38132,1,0,0:0:0:0:
241,330,38216,2,0,L|234:278,1,45,8|0,0:0|0:0,0:0:0:0:
152,332,38383,5,2,0:0:0:0:
150,320,38467,1,0,0:0:0:0:
148,310,38551,2,0,L|141:258,1,45,8|0,0:0|0:0,0:0:0:0:
67,360,38718,1,2,0:0:0:0:
241,204,38886,6,0,P|247:151|230:52,1,135,2|0,1:0|3:0,0:0:0:0:
219,54,39221,2,0,L|116:44,1,90,8|2,0:0|0:0,0:0:0:0:
371,163,39556,1,2,0:0:0:0:
153,139,39724,1,2,0:0:0:0:
354,55,39891,1,10,0:0:0:0:
152,267,40059,5,2,3:0:0:0:
152,267,40142,1,0,3:0:0:0:
152,267,40226,2,0,L|52:275,1,90,2|2,0:0|0:0,0:0:0:0:
240,212,40562,1,10,0:0:0:0:
251,243,40645,1,0,0:0:0:0:
258,276,40729,1,2,0:0:0:0:
258,310,40813,1,0,0:0:0:0:
252,343,40897,2,0,L|191:350,1,45,10|0,0:0|0:0,0:0:0:0:
51,228,41064,1,2,0:0:0:0:
51,216,41147,1,0,0:0:0:0:
51,203,41232,5,10,0:0:0:0:
95,206,41315,1,0,0:0:0:0:
136,189,41399,1,2,0:0:0:0:
165,156,41483,1,0,0:0:0:0:
176,112,41567,5,2,0:0:0:0:
167,69,41650,1,0,0:0:0:0:
137,33,41734,1,2,0:0:0:0:
97,17,41818,1,0,0:0:0:0:
53,19,41902,5,10,0:0:0:0:
55,41,41985,1,0,0:0:0:0:
58,64,42069,1,2,0:0:0:0:
60,86,42153,1,0,0:0:0:0:
64,109,42238,5,2,0:0:0:0:
102,131,42321,1,0,0:0:0:0:
147,137,42405,1,2,0:0:0:0:
190,127,42489,1,0,0:0:0:0:
231,107,42573,1,10,0:0:0:0:
275,100,42657,1,0,0:0:0:0:
318,111,42741,1,2,0:0:0:0:
355,136,42825,1,0,0:0:0:0:
388,167,42908,6,0,L|398:262,1,90,2|2,0:0|0:0,0:0:0:0:
248,361,43243,1,10,0:0:0:0:
227,334,43326,1,0,0:0:0:0:
218,301,43410,1,2,0:0:0:0:
220,268,43494,1,0,0:0:0:0:
235,237,43578,1,2,0:0:0:0:
246,236,43661,1,0,0:0:0:0:
257,235,43745,1,2,0:0:0:0:
268,234,43829,1,0,0:0:0:0:
279,233,43913,1,10,0:0:0:0:
291,203,43997,1,0,0:0:0:0:
293,170,44081,1,2,0:0:0:0:
287,137,44165,1,0,0:0:0:0:
274,106,44249,5,2,0:0:0:0:
139,164,44416,1,2,0:0:0:0:
382,196,44584,5,10,0:0:0:0:
180,61,44752,1,2,0:0:0:0:
369,21,44919,1,2,0:0:0:0:
370,32,45002,1,0,0:0:0:0:
371,43,45086,1,2,0:0:0:0:
372,54,45170,1,0,0:0:0:0:
374,68,45254,2,0,L|378:117,1,45,8|8,0:0|0:0,0:0:0:0:
382,196,45422,2,0,L|384:224,2,22.5
311,160,45590,6,0,P|268:155|205:150,1,90,4|0,1:0|0:0,0:0:0:0:
254,244,45925,1,8,0:0:0:0:
147,70,46092,1,2,0:0:0:0:
256,254,46260,1,0,0:0:0:0:
305,56,46428,1,2,0:0:0:0:
176,320,46595,6,0,P|168:274|154:217,1,90,10|0,0:0|0:0,0:0:0:0:
126,148,46930,1,8,0:0:0:0:
351,217,47098,2,0,P|359:171|373:114,1,90,2|8,0:0|0:0,0:0:0:0:
412,37,47433,1,2,0:0:0:0:
271,157,47601,1,2,0:0:0:0:
271,157,47685,1,0,0:0:0:0:
271,157,47768,1,0,0:0:0:0:
452,202,47936,1,8,0:0:0:0:
452,202,48103,1,2,0:0:0:0:
331,351,48271,6,0,L|240:361,1,90,2|2,0:0|0:0,0:0:0:0:
150,138,48606,1,8,0:0:0:0:
263,279,48774,1,2,0:0:0:0:
300,114,48941,1,2,0:0:0:0:
152,301,49109,1,2,0:0:0:0:
220,74,49277,1,8,0:0:0:0:
371,243,49444,1,2,0:0:0:0:
105,221,49612,6,0,P|74:172|115:44,1,180,2|8,0:0|0:0,0:0:0:0:
239,129,50115,1,0,0:0:0:0:
239,129,50198,1,0,0:0:0:0:
239,129,50282,2,0,L|143:138,1,90,2|2,0:0|0:0,0:0:0:0:
98,58,50617,1,8,0:0:0:0:
232,233,50785,5,0,3:0:0:0:
232,233,50868,1,0,3:0:0:0:
232,233,50953,2,0,P|243:279|252:335,1,90,4|2,1:0|0:0,0:0:0:0:
151,302,51288,1,8,0:0:0:0:
326,244,51455,1,2,0:0:0:0:
199,135,51623,1,0,0:0:0:0:
199,135,51791,1,2,0:0:0:0:
360,331,51958,1,8,0:0:0:0:
441,82,52126,5,2,0:0:0:0:
441,82,52210,1,0,0:0:0:0:
441,82,52293,2,0,L|431:184,1,90
472,233,52545,1,2,0:0:0:0:
472,233,52629,2,0,P|416:223|368:223,1,90,8|0,0:0|0:0,0:0:0:0:
121,348,52964,1,2,0:0:0:0:
118,326,53047,1,0,0:0:0:0:
115,304,53131,1,2,0:0:0:0:
113,281,53215,1,0,0:0:0:0:
110,258,53299,1,10,0:0:0:0:
139,242,53382,1,0,0:0:0:0:
171,233,53466,1,2,0:0:0:0:
205,233,53550,1,0,0:0:0:0:
238,240,53634,6,0,L|244:148,1,90,2|2,0:0|0:0,0:0:0:0:
252,60,53969,1,8,0:0:0:0:
367,307,54137,1,2,0:0:0:0:
367,295,54220,1,0,0:0:0:0:
367,282,54305,5,0,0:0:0:0:
411,285,54388,1,0,0:0:0:0:
452,268,54472,1,2,0:0:0:0:
481,235,54556,1,0,0:0:0:0:
492,191,54640,5,10,0:0:0:0:
483,148,54723,1,0,0:0:0:0:
453,112,54807,1,2,0:0:0:0:
413,96,54891,1,0,0:0:0:0:
369,98,54975,6,0,L|364:157,3,45,2|0|2|0,0:0|0:0|0:0|0:0,0:0:0:0:
363,237,55310,2,0,L|368:296,3,45,10|0|2|0,0:0|0:0|0:0|0:0,0:0:0:0:
367,358,55645,5,2,0:0:0:0:
344,361,55728,1,0,0:0:0:0:
322,364,55812,1,2,0:0:0:0:
299,369,55896,1,0,0:0:0:0:
277,369,55981,5,10,0:0:0:0:
234,332,56064,1,0,0:0:0:0:
213,280,56148,1,2,0:0:0:0:
218,225,56232,1,0,0:0:0:0:
248,178,56316,5,4,1:0:0:0:
39,36,67042,5,4,1:0:0:0:
121,70,67377,1,8,0:0:0:0:
214,68,67712,1,0,0:0:0:0:
214,68,67880,1,0,0:0:0:0:
307,45,68048,1,8,0:0:0:0:
307,45,68215,1,0,0:0:0:0:
393,44,68383,5,4,1:0:0:0:
449,114,68718,1,8,0:0:0:0:
430,200,69053,1,0,0:0:0:0:
430,200,69221,1,0,0:0:0:0:
344,216,69388,1,8,0:0:0:0:
344,216,69556,1,0,0:0:0:0:
259,171,69724,6,0,P|252:214|250:249,1,67.5000025749208,4|0,1:0|0:0,0:0:0:0:
196,360,70059,2,0,P|193:326|187:293,1,67.5000025749208,8|0,0:0|0:0,0:0:0:0:
127,174,70394,2,0,P|120:217|118:252,1,67.5000025749208
62,367,70729,2,0,P|59:333|53:300,1,67.5000025749208,8|0,0:0|0:0,0:0:0:0:
26,202,71064,5,4,1:0:0:0:
127,174,71232,1,0,0:0:0:0:
206,228,71400,1,8,0:0:0:0:
302,270,71567,1,0,0:0:0:0:
302,270,71651,1,0,0:0:0:0:
302,270,71735,1,0,0:0:0:0:
395,253,71902,1,0,0:0:0:0:
478,203,72070,1,8,0:0:0:0:
478,203,72238,1,0,0:0:0:0:
368,23,72405,6,0,P|357:73|354:115,1,67.5000025749208,4|0,1:0|0:0,0:0:0:0:
395,253,72740,1,8,0:0:0:0:
451,110,72908,1,0,0:0:0:0:
326,356,73076,6,0,P|321:322|313:289,1,67.5000025749208,4|0,1:0|0:0,0:0:0:0:
261,200,73411,1,8,0:0:0:0:
221,355,73578,1,0,0:0:0:0:
358,119,73746,6,0,L|363:43,1,67.5000025749208,4|0,1:0|0:0,0:0:0:0:
259,218,74081,1,8,0:0:0:0:
154,119,74249,1,0,0:0:0:0:
154,119,74333,1,0,0:0:0:0:
154,119,74416,2,0,L|149:43,1,67.5000025749208,4|0,1:0|0:0,0:0:0:0:
258,231,74752,1,8,0:0:0:0:
255,100,74919,1,0,0:0:0:0:
54,249,75087,5,2,0:0:0:0:
56,266,75170,1,2,0:0:0:0:
58,283,75254,1,0,0:0:0:0:
60,300,75338,1,0,0:0:0:0:
63,319,75422,5,10,0:0:0:0:
92,334,75505,1,0,0:0:0:0:
125,340,75589,1,10,0:0:0:0:
158,336,75673,1,0,0:0:0:0:
189,321,75757,1,2,0:0:0:0:
221,311,75840,1,0,0:0:0:0:
254,309,75924,1,2,0:0:0:0:
287,316,76008,1,0,0:0:0:0:
323,333,76092,1,10,0:0:0:0:
353,347,76175,1,0,0:0:0:0:
386,352,76259,1,2,0:0:0:0:
420,347,76343,1,0,0:0:0:0:
450,332,76428,6,0,L|479:325,4,16.8750006437302,4|0|0|0|0,0:0|0:0|0:0|0:0|0:0,0:0:0:0:
384,253,76679,1,0,0:0:0:0:
384,253,76763,2,0,L|354:243,4,16.8750006437302,10|0|0|0|0,0:0|0:0|0:0|0:0|0:0,0:0:0:0:
466,203,77014,5,0,0:0:0:0:
466,203,77098,2,0,L|469:174,2,16.8750006437302,2|0|0,0:0|0:0|0:0,0:0:0:0:
384,158,77266,1,8,0:0:0:0:
384,158,77350,2,0,L|381:129,2,16.8750006437302,2|0|0,0:0|0:0|0:0,0:0:0:0:
466,109,77517,1,0,0:0:0:0:
466,109,77601,2,0,L|469:80,2,16.8750006437302,2|0|0,0:0|0:0|0:0,0:0:0:0:
383,45,77768,5,0,0:0:0:0:
383,45,78103,2,0,L|287:61,1,90,4|0,0:0|0:0,0:0:0:0:
78,174,78439,1,2,0:0:0:0:
225,226,78606,1,2,0:0:0:0:
220,203,78690,1,0,0:0:0:0:
216,181,78774,1,8,0:0:0:0:
186,43,78941,1,2,0:0:0:0:
301,284,79109,6,0,L|312:182,1,90,2|2,0:0|0:0,0:0:0:0:
322,73,79444,1,8,0:0:0:0:
412,309,79612,1,2,0:0:0:0:
392,30,79779,2,0,P|398:55|403:85,1,45,4|0,0:0|0:0,0:0:0:0:
438,148,79947,1,2,0:0:0:0:
438,148,80031,1,0,0:0:0:0:
438,148,80114,2,0,L|382:157,1,45,8|0,0:0|0:0,0:0:0:0:
315,219,80282,2,0,L|270:211,1,45,2|0,0:0|0:0,0:0:0:0:
129,31,80450,6,0,P|114:82|145:185,1,135,4|0,0:0|0:0,0:0:0:0:
151,196,80785,2,0,L|253:210,1,90,8|2,0:0|0:0,0:0:0:0:
271,212,81036,1,0,0:0:0:0:
271,212,81120,1,0,0:0:0:0:
222,108,81288,1,2,0:0:0:0:
316,344,81455,1,8,0:0:0:0:
326,108,81623,1,2,0:0:0:0:
215,342,81791,5,4,1:0:0:0:
215,342,81958,2,0,L|114:349,1,90,4|0,0:0|0:0,0:0:0:0:
40,225,82293,2,0,L|141:218,1,90,4|0,0:0|0:0,0:0:0:0:
211,100,82629,2,0,L|110:107,1,90,4|0,0:0|0:0,0:0:0:0:
41,26,82964,1,4,0:0:0:0:
291,46,83131,6,0,P|300:86|303:117,1,45,4|0,0:0|0:0,0:0:0:0:
319,171,83299,1,2,0:0:0:0:
391,58,83467,1,8,0:0:0:0:
218,107,83634,1,2,0:0:0:0:
218,107,83718,1,0,0:0:0:0:
218,107,83802,1,0,0:0:0:0:
446,221,83969,1,2,0:0:0:0:
291,46,84137,1,8,0:0:0:0:
351,286,84305,1,2,0:0:0:0:
460,61,84472,5,4,0:0:0:0:
458,78,84555,1,0,0:0:0:0:
456,95,84639,1,2,0:0:0:0:
454,112,84723,1,0,0:0:0:0:
451,131,84807,5,8,0:0:0:0:
422,146,84890,1,0,0:0:0:0:
389,152,84974,1,2,0:0:0:0:
356,148,85058,1,0,0:0:0:0:
325,133,85142,1,0,0:0:0:0:
293,123,85225,1,0,0:0:0:0:
260,121,85309,1,2,0:0:0:0:
227,128,85393,1,0,0:0:0:0:
191,145,85477,1,8,0:0:0:0:
161,159,85562,1,0,0:0:0:0:
128,164,85644,1,2,0:0:0:0:
94,159,85728,1,0,0:0:0:0:
62,146,85813,6,0,L|56:51,1,90,4|0,0:0|0:0,0:0:0:0:
34,325,86148,1,8,0:0:0:0:
166,253,86316,1,0,0:0:0:0:
166,253,86400,1,0,0:0:0:0:
166,253,86483,2,0,L|160:348,1,90,4|0,0:0|0:0,0:0:0:0:
132,87,86819,1,8,0:0:0:0:
279,272,86986,5,0,3:0:0:0:
290,273,87042,1,0,3:0:0:0:
301,274,87098,1,0,3:0:0:0:
312,275,87154,1,0,3:0:0:0:
432,284,87321,1,2,0:0:0:0:
305,141,87489,1,8,0:0:0:0:
362,365,87657,1,2,0:0:0:0:
480,177,87824,5,2,0:0:0:0:
482,162,87907,1,0,0:0:0:0:
395,89,88075,5,0,0:0:0:0:
393,74,88158,1,2,0:0:0:0:
319,282,88327,5,0,0:0:0:0:
319,282,88411,1,0,0:0:0:0:
319,282,88495,2,0,L|216:293,1,90,4|0,1:0|0:0,0:0:0:0:
83,24,88830,2,0,P|66:88|93:171,1,135,8|0,0:0|0:0,0:0:0:0:
104,185,89165,2,0,L|207:196,1,90,2|2,0:0|0:0,0:0:0:0:
330,106,89500,1,8,0:0:0:0:
258,285,89668,1,2,0:0:0:0:
179,101,89835,6,0,L|168:0,1,90,2|0,0:0|0:0,0:0:0:0:
120,290,90171,1,8,0:0:0:0:
391,295,90338,1,0,0:0:0:0:
330,106,90506,5,2,0:0:0:0:
329,117,90589,1,0,0:0:0:0:
328,128,90673,1,2,0:0:0:0:
327,139,90757,1,0,0:0:0:0:
326,152,90841,5,10,0:0:0:0:
289,178,90924,1,0,0:0:0:0:
246,187,91008,1,2,0:0:0:0:
202,177,91092,1,0,0:0:0:0:
166,150,91176,5,2,0:0:0:0:
246,83,91344,1,2,0:0:0:0:
187,281,91511,1,8,0:0:0:0:
60,114,91679,1,2,0:0:0:0:
285,337,91847,1,2,0:0:0:0:
286,314,91930,1,0,0:0:0:0:
287,292,92014,1,2,0:0:0:0:
391,334,92182,1,8,0:0:0:0:
454,129,92349,1,2,0:0:0:0:
184,199,92517,6,0,P|169:137|186:55,1,135,2|0,0:0|0:0,0:0:0:0:
196,44,92852,2,0,L|299:38,1,90,8|0,0:0|0:0,0:0:0:0:
474,324,93187,1,2,0:0:0:0:
433,304,93270,1,0,0:0:0:0:
389,300,93354,1,2,0:0:0:0:
345,312,93438,1,0,0:0:0:0:
309,338,93522,1,10,0:0:0:0:
267,354,93605,1,0,0:0:0:0:
223,357,93689,1,2,0:0:0:0:
179,347,93773,1,0,0:0:0:0:
140,325,93858,6,0,L|131:231,1,90,2|2,0:0|0:0,0:0:0:0:
253,40,94193,1,8,0:0:0:0:
220,255,94360,1,2,0:0:0:0:
176,101,94528,1,2,0:0:0:0:
214,123,94611,1,0,0:0:0:0:
259,127,94695,1,2,0:0:0:0:
300,111,94779,1,0,0:0:0:0:
332,80,94863,1,10,0:0:0:0:
253,40,95031,1,2,0:0:0:0:
361,192,95198,6,0,L|468:202,1,90,2|0,0:0|0:0,0:0:0:0:
399,275,95534,1,8,0:0:0:0:
469,111,95701,1,2,0:0:0:0:
468,336,95869,1,2,0:0:0:0:
427,355,95952,1,0,0:0:0:0:
383,357,96036,1,2,0:0:0:0:
341,340,96120,1,0,0:0:0:0:
310,308,96204,1,10,0:0:0:0:
270,288,96287,1,0,0:0:0:0:
225,284,96371,1,2,0:0:0:0:
183,299,96455,1,0,0:0:0:0:
149,328,96539,6,0,L|141:233,1,90,2|0,0:0|0:0,0:0:0:0:
134,138,96874,1,8,0:0:0:0:
240,368,97042,1,2,0:0:0:0:
380,171,97210,1,2,0:0:0:0:
379,182,97293,1,0,0:0:0:0:
378,193,97377,1,2,0:0:0:0:
377,204,97461,1,0,0:0:0:0:
377,215,97545,1,10,0:0:0:0:
337,235,97628,1,0,0:0:0:0:
292,238,97712,1,2,0:0:0:0:
251,222,97796,1,0,0:0:0:0:
218,190,97880,5,2,0:0:0:0:
302,134,98048,1,2,0:0:0:0:
119,316,98215,1,8,0:0:0:0:
119,316,98383,1,2,0:0:0:0:
51,29,98550,1,2,0:0:0:0:
73,25,98633,1,0,0:0:0:0:
95,25,98717,1,2,0:0:0:0:
117,29,98801,1,0,0:0:0:0:
137,40,98886,5,10,0:0:0:0:
133,84,98969,1,0,0:0:0:0:
129,129,99053,1,2,0:0:0:0:
126,174,99137,1,0,0:0:0:0:
121,221,99221,5,4,1:0:0:0:
116,221,99304,1,0,0:0:0:0:
112,222,99388,1,0,0:0:0:0:
107,222,99472,1,0,0:0:0:0:
103,223,99556,1,0,0:0:0:0:
98,224,99639,1,0,0:0:0:0:
94,224,99723,1,0,0:0:0:0:
89,225,99807,1,0,0:0:0:0:
85,225,99891,1,0,0:0:0:0:
80,226,99975,1,0,0:0:0:0:
76,227,100058,1,0,0:0:0:0:
71,227,100142,1,0,0:0:0:0:
67,228,100226,1,0,0:0:0:0:
63,229,100310,1,0,0:0:0:0:
58,229,100394,1,0,0:0:0:0:
54,230,100477,1,0,0:0:0:0:
49,230,100561,5,0,0:0:0:0:
78,225,100645,1,0,0:0:0:0:
109,226,100729,1,0,0:0:0:0:
139,236,100813,1,0,0:0:0:0:
165,254,100897,1,0,0:0:0:0:
193,267,100980,1,0,0:0:0:0:
224,271,101064,1,0,0:0:0:0:
255,268,101148,1,0,0:0:0:0:
284,256,101232,6,0,L|289:221,2,22.5,2|0|0,0:0|0:0|0:0,0:0:0:0:
285,344,101400,1,0,0:0:0:0:
265,348,101483,1,0,0:0:0:0:
244,353,101567,2,0,L|204:361,1,30,2|0,0:0|0:0,0:0:0:0:
199,349,101679,2,0,L|169:343,3,30
99,362,101902,5,4,1:0:0:0:
85,361,101985,1,0,0:0:0:0:
72,360,102069,1,2,0:0:0:0:
58,359,102153,1,0,0:0:0:0:
44,359,102238,2,0,L|39:289,1,53.9999983520508,8|0,0:0|0:0,0:0:0:0:
37,222,102405,1,2,0:0:0:0:
84,197,102488,1,0,0:0:0:0:
138,190,102572,1,8,0:0:0:0:
190,201,102656,1,0,0:0:0:0:
236,229,102740,1,2,0:0:0:0:
270,271,102823,1,0,0:0:0:0:
317,295,102907,1,8,0:0:0:0:
371,302,102991,1,0,0:0:0:0:
423,291,103075,1,2,0:0:0:0:
469,263,103159,1,0,0:0:0:0:
503,221,103243,6,0,L|506:150,1,53.9999983520508,4|0,1:0|0:0,0:0:0:0:
484,22,103411,1,2,0:0:0:0:
463,27,103495,1,0,0:0:0:0:
442,32,103579,2,0,L|439:103,1,53.9999983520508,8|0,0:0|0:0,0:0:0:0:
333,213,103746,1,2,0:0:0:0:
354,208,103830,1,0,0:0:0:0:
375,203,103914,2,0,L|378:132,1,53.9999983520508,8|0,0:0|0:0,0:0:0:0:
309,42,104081,5,2,0:0:0:0:
288,47,104165,1,0,0:0:0:0:
267,52,104249,2,0,L|264:123,1,53.9999983520508,8|0,0:0|0:0,0:0:0:0:
177,145,104416,1,2,0:0:0:0:
177,124,104500,1,0,0:0:0:0:
179,103,104584,5,4,1:0:0:0:
195,150,104668,1,0,0:0:0:0:
199,203,104752,1,2,0:0:0:0:
187,253,104835,1,0,0:0:0:0:
171,303,104919,5,8,0:0:0:0:
222,286,105002,1,0,0:0:0:0:
275,293,105086,1,2,0:0:0:0:
320,321,105170,1,0,0:0:0:0:
365,344,105254,5,8,0:0:0:0:
417,352,105337,1,0,0:0:0:0:
468,334,105421,1,0,0:0:0:0:
504,294,105505,1,2,0:0:0:0:
512,243,105589,5,8,0:0:0:0:
502,191,105672,1,0,0:0:0:0:
466,152,105756,1,2,0:0:0:0:
415,135,105840,1,0,0:0:0:0:
362,145,105925,6,0,L|366:204,1,53.9999983520508,4|0,1:0|0:0,0:0:0:0:
431,274,106092,2,0,L|434:220,1,53.9999983520508,2|0,0:0|0:0,0:0:0:0:
495,73,106260,6,0,L|488:137,1,53.9999983520508,8|0,0:0|0:0,0:0:0:0:
293,224,106428,2,0,L|287:170,1,53.9999983520508,2|0,0:0|0:0,0:0:0:0:
502,332,106595,5,4,1:0:0:0:
457,362,106678,1,0,0:0:0:0:
405,370,106762,1,2,0:0:0:0:
354,353,106846,1,0,0:0:0:0:
306,327,106930,1,8,0:0:0:0:
261,296,107013,1,0,0:0:0:0:
209,288,107097,1,2,0:0:0:0:
158,305,107181,1,0,0:0:0:0:
119,342,107266,6,0,P|109:299|102:274,1,53.9999983520508,4|0,1:0|0:0,0:0:0:0:
71,215,107433,1,2,0:0:0:0:
35,335,107601,1,8,0:0:0:0:
165,203,107768,1,2,0:0:0:0:
44,76,107936,1,8,0:0:0:0:
94,57,108019,1,0,0:0:0:0:
147,57,108103,1,2,0:0:0:0:
198,76,108187,1,0,0:0:0:0:
238,111,108271,1,8,0:0:0:0:
287,132,108354,1,0,0:0:0:0:
341,134,108438,1,2,0:0:0:0:
392,116,108522,1,0,0:0:0:0:
433,81,108606,6,0,L|437:21,1,53.9999983520508,4|0,1:0|0:0,0:0:0:0:
330,36,108774,1,2,0:0:0:0:
299,80,108857,1,0,0:0:0:0:
287,132,108941,5,8,0:0:0:0:
294,185,109025,1,0,0:0:0:0:
319,233,109109,1,2,0:0:0:0:
341,281,109192,1,0,0:0:0:0:
330,332,109276,5,8,0:0:0:0:
290,367,109360,1,0,0:0:0:0:
237,371,109444,1,2,0:0:0:0:
193,341,109527,1,0,0:0:0:0:
142,325,109611,5,8,0:0:0:0:
89,330,109695,1,0,0:0:0:0:
43,358,109779,2,0,P|34:308|29:282,1,53.9999983520508,2|0,0:0|0:0,0:0:0:0:
12,226,109947,5,4,0:0:0:0:
256,192,110031,12,0,112293,0:0:0:0:
