osu file format v14

[General]
AudioFilename: audio.mp3
AudioLeadIn: 0
PreviewTime:77768
Countdown: 0
SampleSet: Soft
StackLeniency: 0.7
Mode: 0
LetterboxInBreaks: 0
WidescreenStoryboard: 1

[Editor]
DistanceSpacing: 1.1
BeatDivisor: 2
GridSize: 32
TimelineZoom: 0.9

[Metadata]
Title:Sunflower
TitleUnicode:Sunflower
Artist:m108
ArtistUnicode:m108
Creator:Leader
Version:Easy
Source:
Tags:Instrumental Electronic Trance Rhythm Game
BeatmapID:2895674
BeatmapSetID:1403962

[Difficulty]
HPDrainRate:3
CircleSize:3
OverallDifficulty:3
ApproachRate:3
SliderMultiplier:0.8
SliderTickRate:1

[Events]
//Background and Video events
0,0,"bg.jpg",0,0
//Break Periods
2,56515,65602
2,99420,100462
//Storyboard Layer 0 (Background)
//Storyboard Layer 1 (Fail)
//Storyboard Layer 2 (Pass)
//Storyboard Layer 3 (Foreground)
//Storyboard Layer 4 (Overlay)
//Storyboard Sound Samples

[TimingPoints]
3,335.195530726257,4,2,1,70,1,0
12740,-100,4,2,1,50,0,0
12908,-100,4,2,1,30,0,0
13075,-100,4,2,1,50,0,0
13410,-100,4,2,1,70,0,0
67042,-133.333333333333,4,2,1,60,0,0
77768,-100,4,2,1,40,0,1
78103,-100,4,2,1,80,0,1
88410,-100,4,2,1,70,0,0
88494,-100,4,2,1,80,0,1
99220,-100,4,2,1,30,0,0
101902,-100,4,2,1,80,0,1
109947,-100,4,2,1,80,0,0
110114,-100,4,2,1,70,0,0
110282,-100,4,2,1,60,0,0
110449,-100,4,2,1,50,0,0
110617,-100,4,2,1,40,0,0
110785,-100,4,2,1,30,0,0
110952,-100,4,2,1,20,0,0
111120,-100,4,2,1,10,0,0
111287,-100,4,2,1,5,0,0

[Colours]
Combo1 : 255,255,40
Combo2 : 245,198,7
Combo3 : 253,228,130
Combo4 : 223,196,0

[HitObjects]
76,45,2684,6,0,P|89:93|94:144,1,80,4|8,0:0|0:0,0:0:0:0:
91,210,3354,1,0,0:0:0:0:
197,350,4025,1,0,0:0:0:0:
274,307,4360,2,0,L|354:314,2,80,8|0|8,0:0|0:0|0:0,0:0:0:0:
204,252,5366,6,0,P|188:179|207:76,1,160,0|2,0:0|0:0,0:0:0:0:
375,99,6706,2,0,P|391:172|372:275,1,160,4|2,1:0|0:0,0:0:0:0:
358,341,7712,1,2,0:0:0:0:
276,308,8047,2,0,B|197:292|196:341|100:319,1,160,4|0,1:0|0:0,0:0:0:0:
34,298,9053,1,8,0:0:0:0:
89,230,9388,2,0,L|103:34,1,160
274,96,10729,6,0,P|328:92|366:80,2,80,4|4|0,0:0|0:0|0:0,0:0:0:0:
187,82,11734,1,8,0:0:0:0:
201,168,12070,2,0,L|209:251,1,80,0|8,0:0|0:0,0:0:0:0:
253,323,12740,2,0,L|353:334,1,80,2|8,0:0|0:0,0:0:0:0:
417,308,13410,6,0,P|436:231|400:143,1,160,4|2,1:0|0:0,0:0:0:0:
365,80,14416,1,8,0:0:0:0:
301,140,14751,1,2,0:0:0:0:
139,71,15421,1,2,0:0:0:0:
41,218,16092,6,0,P|34:266|44:312,1,80,2|8,0:0|0:0,0:0:0:0:
118,332,16762,2,0,P|122:292|115:253,1,80,2|8,0:0|0:0,0:0:0:0:
106,170,17433,1,0,0:0:0:0:
258,81,18103,2,0,L|348:82,1,80,2|8,0:0|0:0,0:0:0:0:
424,95,18773,6,0,P|449:185|428:265,1,160,2|0,0:0|0:0,0:0:0:0:
416,334,19779,1,8,0:0:0:0:
339,291,20114,2,0,P|277:287|179:322,1,160,4|2,1:0|0:0,0:0:0:0:
118,375,21120,1,8,0:0:0:0:
44,325,21455,6,0,L|36:239,1,80,2|8,0:0|0:0,0:0:0:0:
28,157,22125,1,2,0:0:0:0:
111,184,22461,1,8,0:0:0:0:
157,109,22796,2,0,P|225:100|285:161,1,160,2|2,0:0|0:0,0:0:0:0:
329,236,23801,1,8,0:0:0:0:
411,203,24137,6,0,L|420:120,2,80,4|8|2,1:0|0:0|0:0,0:0:0:0:
405,290,25142,1,8,0:0:0:0:
331,338,25477,2,0,B|263:323|262:376|168:346,1,160,2|2,0:0|0:0,0:0:0:0:
42,231,26818,5,2,0:0:0:0:
133,80,27489,1,0,0:0:0:0:
204,240,28159,2,0,L|292:250,1,80,2|8,0:0|0:0,0:0:0:0:
348,308,28829,2,0,L|427:298,1,80,8|8,0:0|0:0,0:0:0:0:
491,238,29500,5,4,1:0:0:0:
423,75,30170,1,2,0:0:0:0:
311,211,30840,2,0,P|241:212|171:147,1,160,2|2,0:0|0:0,0:0:0:0:
122,85,31846,1,8,0:0:0:0:
56,144,32181,6,0,L|69:323,1,160,2|0,0:0|0:0,0:0:0:0:
239,344,33522,2,0,B|323:325|322:384|420:353,1,160,0|0,3:0|3:0,0:0:0:0:
482,344,34528,1,8,0:0:0:0:
446,263,34863,6,0,L|440:180,1,80,6|8,0:0|0:0,0:0:0:0:
432,95,35533,1,2,0:0:0:0:
424,7,35868,1,10,0:0:0:0:
344,44,36204,2,0,B|270:21|265:77|176:48,1,160,2|2,0:0|0:0,0:0:0:0:
104,21,37209,1,10,0:0:0:0:
108,108,37544,6,0,L|115:193,1,80,2|8,0:0|0:0,0:0:0:0:
202,179,38215,2,0,L|195:258,1,80,8|8,0:0|0:0,0:0:0:0:
189,346,38885,1,2,1:0:0:0:
109,309,39220,2,0,P|60:297|4:297,2,80,8|2|10,0:0|0:0|0:0,0:0:0:0:
189,346,40226,5,2,0:0:0:0:
360,305,40896,2,0,L|367:218,1,80,10|10,0:0|0:0,0:0:0:0:
437,173,41567,2,0,P|388:142|289:174,1,160,2|2,0:0|0:0,0:0:0:0:
212,323,42908,6,0,P|163:354|64:322,1,160,2|2,0:0|0:0,0:0:0:0:
20,255,43913,1,10,0:0:0:0:
55,174,44248,2,0,L|63:84,2,80,2|10|2,0:0|0:0|0:0,0:0:0:0:
182,295,45589,5,4,1:0:0:0:
346,356,46259,2,0,L|437:356,1,80,0|10,0:0|0:0,0:0:0:0:
486,291,46930,2,0,P|502:240|477:137,1,160,8|2,0:0|0:0,0:0:0:0:
439,59,47935,1,8,0:0:0:0:
367,111,48271,5,2,0:0:0:0:
219,37,48941,2,0,L|212:123,1,80,2|8,0:0|0:0,0:0:0:0:
265,186,49611,2,0,P|210:202|126:147,1,160,2|2,0:0|0:0,0:0:0:0:
75,79,50617,1,8,0:0:0:0:
39,159,50952,6,0,L|55:333,1,160,4|0,1:0|0:0,0:0:0:0:
120,375,51958,1,8,0:0:0:0:
192,324,52293,2,0,P|272:309|361:318,2,160,0|2|2,0:0|0:0|0:0,0:0:0:0:
256,192,53969,12,4,56315,1:0:0:0:
256,192,67042,5,4,1:0:0:0:
256,192,68382,1,4,1:0:0:0:
256,192,69723,1,4,1:0:0:0:
256,192,71064,1,4,1:0:0:0:
256,192,72405,12,4,76427,0:0:0:0:
63,47,77768,6,0,P|72:89|76:145,1,80,0|4,0:0|0:0,0:0:0:0:
81,213,78438,1,2,0:0:0:0:
152,374,79109,1,2,0:0:0:0:
322,332,79779,2,0,L|420:332,1,80,4|8,0:0|0:0,0:0:0:0:
476,285,80449,6,0,B|496:211|447:211|479:117,1,160,4|0,0:0|0:0,0:0:0:0:
499,42,81455,1,8,0:0:0:0:
412,56,81790,1,4,1:0:0:0:
125,251,83131,6,0,B|204:230|209:291|301:258,1,160,4|0,0:0|0:0,0:0:0:0:
370,260,84137,1,8,0:0:0:0:
333,180,84472,2,0,P|341:133|355:86,1,80,4|8,0:0|0:0,0:0:0:0:
403,31,85142,1,0,0:0:0:0:
487,185,85813,6,0,L|466:350,1,160,4|4,0:0|0:0,0:0:0:0:
298,297,87153,2,0,P|226:290|132:342,1,160,0|2,3:0|0:0,0:0:0:0:
70,366,88159,1,8,0:0:0:0:
44,284,88494,6,0,L|37:120,1,160,4|2,1:0|0:0,0:0:0:0:
168,6,89835,2,0,L|175:170,1,160,2|2,0:0|0:0,0:0:0:0:
314,274,91176,2,0,L|307:110,1,160,2|2,0:0|0:0,0:0:0:0:
449,9,92516,2,0,L|456:168,1,160,2|2,0:0|0:0,0:0:0:0:
377,325,93857,6,0,B|296:309|294:362|208:343,1,160,2|2,0:0|0:0,0:0:0:0:
135,331,94863,1,10,0:0:0:0:
76,266,95198,2,0,L|72:174,1,80,2|8,0:0|0:0,0:0:0:0:
63,98,95868,1,2,0:0:0:0:
129,38,96204,1,10,0:0:0:0:
182,108,96539,6,0,P|260:115|326:72,1,160,2|2,0:0|0:0,0:0:0:0:
396,18,97544,1,10,0:0:0:0:
430,99,97880,2,0,L|439:261,2,160,2|2|4,0:0|0:0|1:0,0:0:0:0:
430,99,101902,6,0,L|328:90,1,80,4|8,1:0|0:0,0:0:0:0:
287,152,102572,2,0,L|208:159,1,80,8|8,0:0|0:0,0:0:0:0:
146,95,103243,2,0,P|118:158|144:246,1,160,4|8,1:0|0:0,0:0:0:0:
182,321,104248,1,8,0:0:0:0:
261,360,104584,6,0,L|444:371,1,160,4|8,1:0|0:0,0:0:0:0:
470,200,105924,2,0,L|287:189,1,160,4|4,1:0|1:0,0:0:0:0:
192,60,107265,6,0,P|177:107|167:159,1,80,4|8,1:0|0:0,0:0:0:0:
108,198,107935,2,0,P|121:235|130:274,1,80,8|8,0:0|0:0,0:0:0:0:
183,345,108606,2,0,L|266:351,1,80,4|8,1:0|0:0,0:0:0:0:
330,293,109276,2,0,L|410:287,1,80,8|8,0:0|0:0,0:0:0:0:
256,192,109947,12,0,112293,0:0:0:0:
