osu file format v14

[General]
AudioFilename: audio.mp3
AudioLeadIn: 0
PreviewTime: 31060
Countdown: 0
SampleSet: None
StackLeniency: 0.7
Mode: 0
LetterboxInBreaks: 0
WidescreenStoryboard: 0

[Editor]
DistanceSpacing: 1.2
BeatDivisor: 4
GridSize: 32
TimelineZoom: 1.1

[Metadata]
Title:Sunflower
TitleUnicode:Sunflower
Artist:m108
ArtistUnicode:m108
Creator:ILYJ
Version:Insane
Source:
Tags:
BeatmapID:4556717
BeatmapSetID:2160819

[Difficulty]
HPDrainRate:4
CircleSize:4
OverallDifficulty:6
ApproachRate:9
SliderMultiplier:1.4
SliderTickRate:1

[Events]
//Background and Video events
//Break Periods
2,30721,33105
//Storyboard Layer 0 (Background)
//Storyboard Layer 1 (Fail)
//Storyboard Layer 2 (Pass)
//Storyboard Layer 3 (Foreground)
//Storyboard Layer 4 (Overlay)
//Storyboard Sound Samples

[TimingPoints]
186,335.195530726257,4,2,0,100,1,0

[HitObjects]
256,192,269,12,0,2532,0:0:0:0:
61,217,2783,5,0,0:0:0:0:
165,95,3118,1,0,0:0:0:0:
257,230,3454,1,0,0:0:0:0:
380,103,3705,1,0,0:0:0:0:
380,103,3873,1,0,0:0:0:0:
257,230,4040,1,0,0:0:0:0:
257,230,4208,2,0,P|188:228|163:196,1,105
154,132,4711,1,0,0:0:0:0:
29,86,4962,1,0,0:0:0:0:
29,86,5130,1,0,0:0:0:0:
90,133,5297,2,0,L|163:162,1,70
299,96,5800,5,0,0:0:0:0:
157,127,6135,1,0,0:0:0:0:
169,206,6470,1,0,0:0:0:0:
211,320,6889,1,0,0:0:0:0:
375,258,7057,1,0,0:0:0:0:
303,133,7225,1,0,0:0:0:0:
155,102,7560,1,0,0:0:0:0:
49,138,7895,1,0,0:0:0:0:
199,185,8230,5,0,0:0:0:0:
259,196,8398,1,0,0:0:0:0:
321,208,8565,1,0,0:0:0:0:
248,308,8901,1,0,0:0:0:0:
189,299,9068,1,0,0:0:0:0:
129,287,9236,1,0,0:0:0:0:
194,68,9571,1,0,0:0:0:0:
191,132,9739,1,0,0:0:0:0:
187,195,9906,1,0,0:0:0:0:
182,294,10158,6,0,L|237:293,3,35
107,215,10577,2,0,L|105:149,3,35
111,73,11079,5,0,0:0:0:0:
111,73,11247,1,0,0:0:0:0:
232,116,11415,1,0,0:0:0:0:
232,116,11582,1,0,0:0:0:0:
294,90,11750,1,0,0:0:0:0:
294,90,11917,1,0,0:0:0:0:
285,156,12085,1,0,0:0:0:0:
281,218,12253,1,0,0:0:0:0:
241,270,12420,1,0,0:0:0:0:
179,270,12588,1,0,0:0:0:0:
119,250,12755,1,0,0:0:0:0:
72,207,12923,1,0,0:0:0:0:
61,152,13091,1,0,0:0:0:0:
76,84,13426,6,0,L|170:83,1,70
78,87,13761,1,0,0:0:0:0:
73,231,13929,1,0,0:0:0:0:
218,152,14096,1,0,0:0:0:0:
228,295,14264,1,0,0:0:0:0:
391,108,14431,1,0,0:0:0:0:
391,108,14599,1,0,0:0:0:0:
388,199,14767,2,0,P|335:200|307:185,1,70
234,187,15102,1,0,0:0:0:0:
232,271,15269,1,0,0:0:0:0:
144,231,15437,1,0,0:0:0:0:
149,123,15604,1,0,0:0:0:0:
285,77,15772,1,0,0:0:0:0:
285,77,15940,1,0,0:0:0:0:
410,168,16107,2,0,L|411:216,3,35
411,237,16526,1,0,0:0:0:0:
291,205,16694,1,0,0:0:0:0:
291,205,16778,2,0,L|204:207,1,70
138,181,17113,1,0,0:0:0:0:
247,131,17616,5,0,0:0:0:0:
91,291,17951,1,0,0:0:0:0:
57,117,18286,1,0,0:0:0:0:
228,119,18621,1,0,0:0:0:0:
357,186,18956,5,0,0:0:0:0:
356,244,19040,1,0,0:0:0:0:
356,295,19124,1,0,0:0:0:0:
356,295,19292,2,0,L|279:294,2,70
210,283,19962,1,0,0:0:0:0:
217,290,20046,1,0,0:0:0:0:
217,290,20130,1,0,0:0:0:0:
217,290,20213,1,0,0:0:0:0:
217,290,20297,2,0,P|134:308|114:301,1,105
117,302,20632,1,0,0:0:0:0:
13,288,20800,1,0,0:0:0:0:
17,151,20968,1,0,0:0:0:0:
178,145,21135,1,0,0:0:0:0:
173,292,21303,1,0,0:0:0:0:
255,292,21387,2,0,L|321:283,4,35
377,281,21973,1,0,0:0:0:0:
377,281,22057,1,0,0:0:0:0:
377,281,22141,1,0,0:0:0:0:
377,281,22225,1,0,0:0:0:0:
299,200,22560,2,0,L|238:240,1,70
195,266,22979,5,0,0:0:0:0:
193,155,23314,1,0,0:0:0:0:
333,146,23649,1,0,0:0:0:0:
330,264,23984,1,0,0:0:0:0:
258,266,24236,6,0,P|187:283|152:259,1,105
162,269,24655,1,0,0:0:0:0:
162,269,24739,1,0,0:0:0:0:
169,277,24822,1,0,0:0:0:0:
280,193,24906,1,0,0:0:0:0:
154,152,25074,1,0,0:0:0:0:
428,153,25241,1,0,0:0:0:0:
280,58,25409,1,0,0:0:0:0:
195,61,25577,5,0,0:0:0:0:
195,61,25660,1,0,0:0:0:0:
195,61,25744,1,0,0:0:0:0:
195,61,25828,1,0,0:0:0:0:
152,61,25912,2,0,B|58:67|24:106|46:129,1,140
50,192,26415,2,0,L|128:214,1,70
123,211,26750,1,0,0:0:0:0:
123,211,26917,1,0,0:0:0:0:
187,228,27001,2,0,P|260:234|272:212,1,105
284,136,27504,1,0,0:0:0:0:
284,136,27588,1,0,0:0:0:0:
284,136,27672,1,0,0:0:0:0:
284,136,27755,1,0,0:0:0:0:
34,60,28007,6,0,L|35:111,2,35
30,199,28426,6,0,L|81:198,1,35
191,197,28761,2,0,L|151:197,1,35
100,101,29180,2,0,L|101:142,1,35
99,287,29599,1,0,0:0:0:0:
99,287,29683,1,0,0:0:0:0:
99,287,29767,1,0,0:0:0:0:
108,193,30018,1,0,0:0:0:0:
236,192,30102,1,0,0:0:0:0:
362,190,30186,1,0,0:0:0:0:
362,190,30269,1,0,0:0:0:0:
362,190,30353,1,0,0:0:0:0:
362,190,30437,1,0,0:0:0:0:
355,185,30521,1,0,0:0:0:0:
114,160,33705,6,0,L|165:160,3,35
175,273,34040,2,0,L|213:274,3,35
293,146,34375,2,0,L|294:188,4,35
73,148,35046,5,0,0:0:0:0:
115,148,35130,1,0,0:0:0:0:
156,148,35213,1,0,0:0:0:0:
198,148,35297,1,0,0:0:0:0:
240,148,35381,1,0,0:0:0:0:
282,150,35465,1,0,0:0:0:0:
322,159,35549,1,0,0:0:0:0:
343,194,35632,1,0,0:0:0:0:
334,235,35716,1,0,0:0:0:0:
300,260,35800,1,0,0:0:0:0:
258,268,35884,1,0,0:0:0:0:
215,269,35968,1,0,0:0:0:0:
173,263,36051,1,0,0:0:0:0:
136,242,36135,1,0,0:0:0:0:
110,208,36219,1,0,0:0:0:0:
100,167,36303,1,0,0:0:0:0:
114,127,36387,1,0,0:0:0:0:
150,106,36470,1,0,0:0:0:0:
192,104,36554,1,0,0:0:0:0:
233,109,36638,1,0,0:0:0:0:
266,134,36722,1,0,0:0:0:0:
302,155,36806,1,0,0:0:0:0:
343,160,36889,1,0,0:0:0:0:
381,141,36973,1,0,0:0:0:0:
403,105,37057,1,0,0:0:0:0:
421,67,37141,6,0,L|338:54,1,70
303,57,37392,1,0,0:0:0:0:
261,64,37476,1,0,0:0:0:0:
225,85,37560,1,0,0:0:0:0:
196,116,37644,1,0,0:0:0:0:
172,150,37727,1,0,0:0:0:0:
179,191,37811,1,0,0:0:0:0:
179,233,37895,1,0,0:0:0:0:
152,265,37979,1,0,0:0:0:0:
111,276,38063,1,0,0:0:0:0:
69,271,38146,1,0,0:0:0:0:
33,247,38230,1,0,0:0:0:0:
23,206,38314,1,0,0:0:0:0:
35,165,38398,1,0,0:0:0:0:
70,142,38482,1,0,0:0:0:0:
107,123,38565,1,0,0:0:0:0:
144,103,38649,1,0,0:0:0:0:
185,93,38733,1,0,0:0:0:0:
227,93,38817,1,0,0:0:0:0:
264,111,38901,1,0,0:0:0:0:
283,147,38984,1,0,0:0:0:0:
324,154,39068,1,0,0:0:0:0:
345,217,39403,6,0,L|345:261,3,35
346,294,39739,1,0,0:0:0:0:
305,302,39822,1,0,0:0:0:0:
262,300,39906,1,0,0:0:0:0:
220,293,39990,1,0,0:0:0:0:
182,274,40074,1,0,0:0:0:0:
163,236,40158,1,0,0:0:0:0:
172,195,40241,1,0,0:0:0:0:
210,178,40325,1,0,0:0:0:0:
251,168,40409,1,0,0:0:0:0:
287,146,40493,1,0,0:0:0:0:
318,117,40577,1,0,0:0:0:0:
337,80,40660,1,0,0:0:0:0:
376,66,40744,1,0,0:0:0:0:
