osu file format v14

[General]
AudioFilename: audio.mp3
AudioLeadIn: 0
PreviewTime:95992
Countdown: 0
SampleSet: Soft
StackLeniency: 0.7
Mode: 0
LetterboxInBreaks: 0
WidescreenStoryboard: 1

[Editor]
DistanceSpacing: 1.2
BeatDivisor: 4
GridSize: 32
TimelineZoom: 1.6

[Metadata]
Title:Shinku no Senkou
TitleUnicode:深紅の閃光
Artist:m108
ArtistUnicode:m108
Creator:Leader
Version:Hard
Source:
Tags:CO21 RO64 NM2 Corsace CHUNITHM Rhythm Game Hardcore EPIC TRANCECORE2 EDM Dance Music 2020 SEGA Story 4 Electronic Instrumental Featured Artist FA Niva Nivalis
BeatmapID:3169486
BeatmapSetID:1551011

[Difficulty]
HPDrainRate:5
CircleSize:4
OverallDifficulty:6
ApproachRate:8
SliderMultiplier:1.4
SliderTickRate:1

[Events]
//Background and Video events
0,0,"bg.jpg",0,0
//Break Periods
2,79326,88593
//Storyboard Layer 0 (Background)
//Storyboard Layer 1 (Fail)
//Storyboard Layer 2 (Pass)
//Storyboard Layer 3 (Foreground)
//Storyboard Layer 4 (Overlay)
//Storyboard Sound Samples

[TimingPoints]
5181,324.324324324324,4,2,1,80,1,0
9072,-100,4,2,1,80,0,0
9397,-100,4,2,1,60,0,0
9721,-100,4,2,1,40,0,0
10045,-100,4,2,1,20,0,0
10126,-100,4,2,1,10,0,0
10208,-100,4,2,1,5,0,0
10370,-100,4,2,1,80,0,0
46695,-200,4,2,1,50,0,0
51883,-133.333333333333,4,2,1,60,0,0
57072,-100,4,2,1,80,0,0
67451,-100,4,3,1,80,0,0
71343,-133.333333333333,4,3,1,80,0,0
72640,-100,4,3,1,80,0,0
77829,-100,4,3,1,80,0,0
78153,-100,4,3,1,70,0,0
78478,-100,4,3,1,60,0,0
78802,-100,4,3,1,50,0,0
79126,-100,4,3,1,40,0,0
89343,-100,4,2,1,20,0,0
89667,-100,4,2,1,30,0,0
89991,-100,4,2,1,40,0,0
90316,-100,4,2,1,50,0,0
90478,-100,4,2,1,60,0,0
90803,-100,4,2,1,80,0,0
95991,-100,4,2,1,80,0,1
106208,-100,4,2,1,80,0,0
106370,-100,4,2,1,80,0,1
116667,-100,4,2,1,80,0,0
116748,-100,4,2,1,80,0,1
127126,-100,4,2,1,80,0,0
128100,-100,4,2,1,80,0,0
137506,-100,4,2,1,80,0,0
139126,-100,4,2,1,80,0,0
139451,-100,4,2,1,70,0,0
139775,-100,4,2,1,60,0,0
140099,-100,4,2,1,50,0,0
140424,-100,4,2,1,40,0,0
140748,-100,4,2,1,30,0,0
141072,-100,4,2,1,20,0,0
141397,-100,4,2,1,5,0,0

[Colours]
Combo1 : 214,44,68
Combo2 : 58,45,80
Combo3 : 123,45,74
Combo4 : 164,44,71

[HitObjects]
256,192,9072,12,0,10045,0:0:0:0:
70,28,10370,6,0,P|79:87|85:169,1,140,6|2,1:2|0:0,0:0:0:0:
81,250,10856,1,0,0:0:0:0:
81,250,11018,2,0,L|175:268,1,70,0|0,1:0|0:0,0:0:0:0:
157,349,11343,2,0,L|88:362,1,70,2|0,0:0|1:0,0:0:0:0:
244,297,11667,5,2,0:0:0:0:
244,297,11829,2,0,P|310:304|391:320,1,140,0|0,1:0|0:0,0:0:0:0:
382,317,12235,1,0,0:0:0:0:
382,317,12316,1,0,1:0:0:0:
456,279,12478,1,2,0:0:0:0:
385,233,12640,1,2,0:0:0:0:
385,233,12802,1,2,0:0:0:0:
425,159,12964,6,0,P|428:107|410:14,1,140,2|0,0:0|0:0,0:0:0:0:
326,27,13451,1,0,0:0:0:0:
326,27,13613,2,0,P|323:79|341:172,1,140,0|2,1:0|0:0,0:0:0:0:
364,244,14099,1,0,0:0:0:0:
338,324,14262,6,0,B|268:316|266:366|183:340,1,140,2|2,1:2|0:0,0:0:0:0:
120,324,14748,1,2,1:2:0:0:
188,276,14910,1,2,1:2:0:0:
188,276,15072,1,0,0:0:0:0:
112,238,15235,1,2,1:2:0:0:
112,238,15397,1,0,0:0:0:0:
179,187,15559,6,0,P|176:158|163:104,1,70,2|0,0:0|0:0,0:0:0:0:
242,80,15883,2,0,P|245:109|258:163,1,70,2|0,0:0|0:0,0:0:0:0:
333,176,16208,2,0,P|330:147|317:93,1,70,2|0,0:0|0:0,0:0:0:0:
396,69,16532,2,0,P|399:98|412:152,1,70,2|0,0:0|0:0,0:0:0:0:
433,217,16856,6,0,L|426:299,1,70,2|0,1:2|0:0,0:0:0:0:
352,326,17180,2,0,L|346:256,1,70,2|0,0:0|0:0,0:0:0:0:
275,210,17505,1,2,0:0:0:0:
275,210,17667,1,0,0:0:0:0:
230,280,17829,1,2,0:0:0:0:
230,280,17991,1,0,0:0:0:0:
161,231,18153,5,2,1:2:0:0:
161,231,18316,1,0,0:0:0:0:
161,231,18478,1,2,1:2:0:0:
149,314,18640,1,0,0:0:0:0:
80,264,18802,2,0,P|75:214|66:176,1,70,2|0,1:2|0:0,0:0:0:0:
74,110,19126,2,0,P|67:144|65:179,1,70,2|0,1:2|0:0,0:0:0:0:
145,204,19451,6,0,L|197:198,7,35,2|0|0|0|2|0|0|0,1:2|0:0|0:0|0:0|1:2|0:0|0:0|0:0,0:0:0:0:
213,225,20099,2,0,L|247:229,7,35,2|0|0|0|2|0|0|0,3:0|3:0|3:0|3:0|3:0|3:0|3:0|3:0,3:0:0:0:
287,213,20748,6,0,L|293:140,1,70,4|0,2:0|0:0,0:0:0:0:
302,59,21072,1,4,2:0:0:0:
302,59,21235,1,4,2:0:0:0:
371,105,21397,1,4,2:0:0:0:
229,14,21721,1,2,0:0:0:0:
145,159,22045,6,0,P|152:195|156:236,1,70,4|0,1:0|0:0,0:0:0:0:
228,271,22370,2,0,P|231:236|238:201,1,70,8|0,0:0|0:0,0:0:0:0:
309,157,22694,2,0,P|316:193|320:234,1,70,0|0,1:0|0:0,0:0:0:0:
392,269,23019,2,0,P|395:234|402:199,1,70,8|0,0:0|0:0,0:0:0:0:
477,162,23343,6,0,P|416:157|377:91,1,140,0|8,1:0|0:0,0:0:0:0:
389,11,23829,1,0,0:0:0:0:
389,11,23991,2,0,P|329:22|248:26,1,140,0|8,1:0|0:0,0:0:0:0:
165,20,24478,1,0,0:0:0:0:
101,74,24640,6,0,L|60:68,2,35,0|0|2,1:0|0:0|1:2,0:0:0:0:
169,122,24964,1,8,0:0:0:0:
169,122,25126,1,2,1:2:0:0:
192,203,25289,2,0,P|200:242|202:281,1,70,0|0,1:0|0:0,0:0:0:0:
199,355,25613,1,8,0:0:0:0:
199,355,25775,1,0,0:0:0:0:
276,321,25937,6,0,L|282:277,2,35,0|0|0,1:0|0:0|0:0,0:0:0:0:
342,372,26262,1,8,0:0:0:0:
342,372,26424,1,0,0:0:0:0:
421,346,26586,2,0,L|507:354,1,70,0|0,1:0|0:0,0:0:0:0:
359,284,26910,1,8,0:0:0:0:
359,284,27072,1,0,0:0:0:0:
423,229,27235,6,0,L|469:222,2,35,4|0|2,1:0|0:0|1:2,0:0:0:0:
345,196,27559,1,8,0:0:0:0:
345,196,27721,1,2,1:2:0:0:
345,196,27883,1,0,1:0:0:0:
402,134,28045,1,0,0:0:0:0:
320,110,28208,2,0,L|310:33,1,70,8|0,0:0|0:0,0:0:0:0:
229,20,28532,6,0,P|228:64|218:179,1,140,0|8,1:0|0:0,0:0:0:0:
261,238,29018,1,2,1:2:0:0:
261,238,29180,2,0,L|185:247,1,70,0|2,1:0|1:2,0:0:0:0:
191,330,29505,2,0,L|260:338,1,70,0|2,0:0|1:2,0:0:0:0:
333,295,29829,6,0,L|377:288,7,35,4|0|0|0|8|0|0|0,1:0|0:0|0:0|0:0|0:0|0:0|0:0|0:0,0:0:0:0:
404,312,30478,2,0,L|438:317,7,35,2|0|0|0|2|0|0|0,3:0|3:0|3:0|3:0|3:0|3:0|3:0|3:0,3:0:0:0:
473,294,31126,6,0,P|474:248|479:204,1,70,4|0,1:0|0:0,0:0:0:0:
403,148,31451,2,0,P|402:194|397:238,1,70,8|0,0:0|0:0,0:0:0:0:
321,295,31775,2,0,P|322:249|327:205,1,70,0|0,1:0|0:0,0:0:0:0:
251,149,32100,2,0,P|250:195|245:239,1,70,8|0,0:0|0:0,0:0:0:0:
185,274,32424,6,0,P|115:280|38:291,1,140,0|8,1:0|0:0,0:0:0:0:
30,211,32910,1,0,0:0:0:0:
30,211,33072,2,0,P|100:205|177:194,1,140,0|8,1:0|0:0,0:0:0:0:
228,135,33559,1,0,0:0:0:0:
228,135,33721,6,0,L|236:51,1,70,0|0,1:0|0:0,0:0:0:0:
307,22,34045,2,0,L|313:91,1,70,8|0,0:0|0:0,0:0:0:0:
386,133,34370,2,0,L|394:49,1,70,0|0,1:0|0:0,0:0:0:0:
465,20,34694,2,0,L|471:89,1,70,8|0,0:0|0:0,0:0:0:0:
492,170,35018,6,0,L|538:176,2,35,0|0|2,1:0|0:0|1:2,0:0:0:0:
418,211,35343,1,8,0:0:0:0:
418,211,35505,1,2,1:2:0:0:
373,282,35667,2,0,L|368:365,1,70,0|2,1:0|1:2,0:0:0:0:
290,381,35991,2,0,L|285:311,1,70,8|2,0:0|1:2,0:0:0:0:
280,226,36316,5,4,1:0:0:0:
280,226,36397,1,0,0:0:0:0:
280,226,36478,1,0,0:0:0:0:
215,279,36640,1,8,0:0:0:0:
215,279,36802,1,0,0:0:0:0:
147,228,36964,2,0,P|140:178|126:84,1,140,0|8,1:0|0:0,0:0:0:0:
109,6,37451,1,0,0:0:0:0:
187,34,37613,6,0,L|239:39,8,35,0|0|0|0|8|0|0|0|0,1:0|0:0|0:0|0:0|0:0|0:0|0:0|0:0|1:0,0:0:0:0:
126,89,38424,2,0,L|52:96,2,70,0|8|0,0:0|0:0|0:0,0:0:0:0:
183,150,38910,6,0,P|194:210|200:319,1,140,0|8,1:0|0:0,0:0:0:0:
201,373,39397,1,0,0:0:0:0:
274,333,39559,1,0,1:0:0:0:
274,333,39721,1,2,1:2:0:0:
350,368,39883,2,0,L|357:297,1,70,0|2,0:0|1:2,0:0:0:0:
398,224,40208,6,0,L|437:218,7,35,0|0|0|0|8|0|0|0,1:0|0:0|0:0|0:0|0:0|0:0|0:0|0:0,0:0:0:0:
461,249,40856,2,0,L|495:254,7,35,0|0|0|0|8|0|0|2,1:0|0:0|0:0|0:0|0:0|0:0|0:0|3:0,0:0:0:0:
256,192,41505,12,0,46370,0:0:0:0:
256,192,46694,5,2,0:0:0:0:
256,192,47667,2,0,L|256:261,1,70,2|2,0:0|0:0,0:0:0:0:
46,274,48478,1,0,0:0:0:0:
46,274,48640,1,2,0:0:0:0:
104,335,48802,1,0,0:0:0:0:
104,335,48964,1,2,0:0:0:0:
129,262,49126,5,0,0:0:0:0:
129,262,49208,1,0,0:0:0:0:
129,262,49289,2,0,P|154:240|189:258,1,70,2|2,0:0|0:0,0:0:0:0:
238,313,49775,2,0,P|263:335|294:323,1,70,2|0,0:0|0:0,0:0:0:0:
346,266,50262,1,2,0:0:0:0:
422,315,50424,1,0,0:0:0:0:
422,315,50505,1,0,0:0:0:0:
422,315,50586,1,2,0:0:0:0:
422,315,51235,6,0,L|463:324,1,35,2|0,0:0|0:0,0:0:0:0:
512,292,51559,2,0,L|471:301,1,35,2|0,0:0|0:0,0:0:0:0:
442,281,51883,6,0,P|438:240|436:168,1,105.000004005432,2|0,0:0|0:0,0:0:0:0:
353,88,52370,2,0,P|357:129|359:201,1,105.000004005432
356,273,52856,1,2,0:0:0:0:
277,240,53018,5,0,0:0:0:0:
277,240,53099,1,0,0:0:0:0:
277,240,53180,2,0,L|271:301,1,52.5000020027161,2|0,0:0|0:0,0:0:0:0:
202,348,53505,2,0,L|196:295,1,52.5000020027161,2|0,0:0|0:0,0:0:0:0:
123,234,53829,2,0,L|117:295,1,52.5000020027161,2|0,0:0|0:0,0:0:0:0:
48,342,54154,2,0,L|42:289,1,52.5000020027161,2|0,0:0|0:0,0:0:0:0:
256,192,54478,12,2,55613,0:0:0:0:
256,192,55775,12,0,56748,3:0:0:0:
91,53,57072,6,0,P|97:89|103:148,1,70,4|0,0:0|0:0,0:0:0:0:
176,160,57397,2,0,P|180:125|185:90,1,70,8|2,0:0|1:2,0:0:0:0:
255,44,57721,2,0,P|261:80|267:139,1,70,0|2,0:0|1:2,0:0:0:0:
340,151,58046,2,0,P|344:116|349:81,1,70,8|2,0:0|1:2,0:0:0:0:
426,48,58370,6,0,L|467:46,2,35,0|0|2,0:0|0:0|1:2,0:0:0:0:
467,120,58694,2,0,L|508:118,2,35,8|0|2,0:0|0:0|1:2,0:0:0:0:
420,189,59018,1,0,0:0:0:0:
420,189,59180,1,2,1:2:0:0:
471,256,59343,1,8,0:0:0:0:
471,256,59505,1,2,1:2:0:0:
390,280,59667,6,0,P|378:335|375:374,1,70,0|2,0:0|1:2,0:0:0:0:
296,373,59991,2,0,P|290:338|282:304,1,70,8|2,0:0|1:2,0:0:0:0:
201,279,60316,2,0,P|189:334|186:373,1,70,0|2,0:0|1:2,0:0:0:0:
107,372,60640,2,0,P|101:337|93:303,1,70,8|2,0:0|1:2,0:0:0:0:
68,223,60964,2,0,L|27:215,4,35,0|0|2|0|8,0:0|0:0|1:2|0:0|0:0,0:0:0:0:
137,175,61451,1,2,1:2:0:0:
197,116,61613,2,0,L|238:108,4,35,0|0|2|0|8,0:0|0:0|1:2|0:0|0:0,0:0:0:0:
131,64,62099,1,2,1:2:0:0:
131,64,62262,5,0,0:0:0:0:
201,216,62586,1,8,0:0:0:0:
255,57,62910,1,0,0:0:0:0:
306,217,63235,1,8,0:0:0:0:
373,63,63559,6,0,P|383:109|396:215,1,140,0|8,0:0|0:0,0:0:0:0:
397,284,64045,1,2,1:2:0:0:
340,346,64208,2,0,B|274:330|271:376|193:363,1,140,0|8,0:0|0:0,0:0:0:0:
128,327,64694,1,2,1:2:0:0:
51,362,64856,6,0,L|0:368,2,35,0|0|0,1:0|0:0|0:0,0:0:0:0:
128,327,65180,1,8,0:0:0:0:
128,327,65343,1,0,0:0:0:0:
120,243,65505,2,0,P|115:168|106:84,1,140,0|8,1:0|0:0,0:0:0:0:
94,22,65991,1,0,0:0:0:0:
94,22,66153,1,0,1:0:0:0:
256,192,66235,12,8,67126,0:0:0:0:
69,277,67451,6,0,P|139:289|187:304,1,93.3333333333333,4|0,0:2|0:0,0:0:0:0:
169,343,67775,2,0,P|175:296|197:245,1,93.3333333333333,2|0,0:0|0:0,0:0:0:0:
213,222,68099,1,2,0:0:0:0:
320,302,68424,2,0,L|431:304,1,93.3333333333333,2|0,0:0|0:0,0:0:0:0:
454,370,68748,2,0,B|495:254|417:252|454:121,1,233.333333333333,2|0,0:0|0:0,0:0:0:0:
468,66,69397,2,0,L|514:57,2,46.6666666666667,2|0|0,0:0|0:0|0:0,0:0:0:0:
389,107,69721,2,0,L|343:98,2,46.6666666666667,2|0|0,0:0|0:0|0:0,0:0:0:0:
458,148,70045,1,2,0:0:0:0:
443,277,70370,6,0,P|373:289|325:304,1,93.3333333333333,2|0,0:0|0:0,0:0:0:0:
343,343,70694,2,0,P|337:296|315:245,1,93.3333333333333,2|2,0:0|0:0,0:0:0:0:
299,222,71018,1,0,0:0:0:0:
184,336,71343,6,0,P|135:349|80:218,1,210.000008010865,4|0,2:0|0:0,0:0:0:0:
129,92,72316,2,0,L|205:91,1,70.0000026702882,2|0,0:0|0:0,0:0:0:0:
239,32,72640,6,0,P|231:82|245:141,1,93.3333333333333,4|0,2:0|0:0,0:0:0:0:
247,152,72964,2,0,L|305:146,2,46.6666666666667,2|0|0,0:0|0:0|0:0,0:0:0:0:
218,183,73289,1,2,0:0:0:0:
139,316,73613,6,0,L|90:312,2,46.6666666666667,2|0|0,0:0|0:0|0:0,0:0:0:0:
189,265,73937,2,0,P|176:320|197:367,1,93.3333333333333,4|0,2:0|0:0,0:0:0:0:
209,373,74262,2,0,L|303:373,1,93.3333333333333,2|0,0:0|0:0,0:0:0:0:
336,374,74586,1,2,0:0:0:0:
445,267,74910,6,0,P|446:216|456:167,1,93.3333333333333,2|0,0:0|0:0,0:0:0:0:
506,131,75235,2,0,P|454:138|396:109,1,93.3333333333333,4|0,2:0|0:0,0:0:0:0:
392,102,75559,2,0,L|386:49,2,46.6666666666667,2|0|0,0:0|0:0|0:0,0:0:0:0:
374,132,75883,2,0,L|368:178,2,46.6666666666667,2|0|0,0:0|0:0|0:0,0:0:0:0:
325,117,76208,2,0,L|319:64,2,46.6666666666667,2|0|0,0:0|0:0|0:0,0:0:0:0:
316,156,76532,2,0,P|268:176|127:27,1,280,4|2,2:0|0:0,0:0:0:0:
256,192,77829,12,2,79126,2:0:0:0:
256,192,89343,12,2,90478,2:0:0:0:
77,76,90802,6,0,P|91:147|94:240,1,140,4|8,1:0|0:0,0:0:0:0:
95,298,91289,1,0,0:0:0:0:
175,273,91451,2,0,P|229:280|334:304,1,140,0|8,1:0|0:0,0:0:0:0:
385,339,91937,1,0,0:0:0:0:
414,260,92099,6,0,P|418:210|426:159,1,70,0|0,1:0|0:0,0:0:0:0:
370,122,92424,2,0,P|320:118|269:110,1,70,8|0,0:0|0:0,0:0:0:0:
245,179,92748,2,0,P|241:229|233:280,1,70,0|0,1:0|0:0,0:0:0:0:
280,321,93073,2,0,P|330:325|381:333,1,70,8|0,0:0|0:0,0:0:0:0:
419,281,93397,6,0,L|423:234,7,35,2|0|0|0|8|0|0|0,1:2|0:0|0:0|0:0|0:0|0:0|0:0|0:0,0:0:0:0:
380,241,94045,2,0,L|376:194,7,35,0|0|2|0|8|0|2|0,1:0|0:0|1:2|0:0|0:0|0:0|1:2|0:0,0:0:0:0:
419,202,94694,2,0,L|423:155,7,35,0|0|0|0|8|0|0|0,1:0|0:0|0:0|0:0|0:0|0:0|0:0|0:0,0:0:0:0:
380,162,95342,2,0,L|376:115,7,35,8|0|0|0|0|0|4|0,0:0|0:0|0:0|0:0|0:0|0:0|0:0|0:0,0:0:0:0:
408,98,95991,6,0,P|348:99|271:61,1,140,6|2,1:2|1:2,0:0:0:0:
214,8,96478,1,0,0:0:0:0:
203,91,96640,2,0,P|209:152|211:235,1,140,2|2,1:2|1:2,0:0:0:0:
207,314,97126,1,0,0:0:0:0:
291,287,97289,5,2,1:2:0:0:
291,287,97370,1,0,0:0:0:0:
291,287,97451,1,0,0:0:0:0:
327,362,97613,2,0,P|403:362|485:369,1,140,2|2,1:2|1:2,0:0:0:0:
511,295,98099,1,0,0:0:0:0:
435,271,98262,1,2,1:2:0:0:
494,212,98424,1,2,1:2:0:0:
435,271,98586,6,0,P|419:217|444:116,1,140,2|2,1:2|1:2,0:0:0:0:
473,62,99072,1,0,0:0:0:0:
389,72,99235,2,0,P|337:75|236:36,1,140,2|2,1:2|1:2,0:0:0:0:
177,14,99721,1,2,1:2:0:0:
144,95,99883,6,0,L|81:87,2,46.6666666666667,2|0|0,1:2|0:0|0:0,0:0:0:0:
183,135,100208,2,0,L|246:127,2,46.6666666666667,2|0|0,1:2|0:0|0:0,0:0:0:0:
143,174,100532,2,0,L|80:166,2,46.6666666666667,2|0|0,1:2|0:0|0:0,0:0:0:0:
182,214,100857,2,0,L|245:206,2,46.6666666666667,2|0|0,1:2|0:0|0:0,0:0:0:0:
139,249,101180,5,6,1:2:0:0:
254,371,101505,1,2,1:2:0:0:
254,371,101586,1,0,0:0:0:0:
254,371,101667,1,0,0:0:0:0:
295,298,101829,1,2,1:2:0:0:
295,298,101991,1,0,0:0:0:0:
211,299,102153,1,2,1:2:0:0:
254,226,102316,1,0,0:0:0:0:
170,226,102478,6,0,P|136:217|99:201,2,70,2|0|2,1:2|0:0|1:2,0:0:0:0:
214,155,102964,1,0,0:0:0:0:
254,226,103126,2,0,L|335:216,1,70,2|0,1:2|0:0,0:0:0:0:
332,307,103451,2,0,L|401:315,1,70,2|0,1:2|0:0,0:0:0:0:
466,262,103775,6,0,P|474:191|471:119,2,140,2|2|2,1:2|1:2|1:2,0:0:0:0:
431,338,104586,1,2,1:2:0:0:
360,293,104748,2,0,L|355:254,2,35,2|0|2,1:2|0:0|1:2,0:0:0:0:
305,357,105072,6,0,P|260:364|223:373,1,70,6|0,1:2|0:0,0:0:0:0:
198,294,105397,2,0,P|232:288|266:281,1,70,2|0,1:2|0:0,0:0:0:0:
269,197,105721,2,0,P|224:204|187:213,1,70,2|0,1:2|0:0,0:0:0:0:
162,134,106046,2,0,P|196:128|230:121,1,70,2|0,1:2|0:0,0:0:0:0:
256,40,106370,6,0,P|184:39|113:21,1,140,4|2,0:0|1:2,0:0:0:0:
35,9,106856,1,2,0:0:0:0:
69,85,107018,2,0,P|78:150|86:240,1,140,2|2,1:2|1:2,0:0:0:0:
87,308,107505,5,2,0:0:0:0:
87,308,107586,1,0,0:0:0:0:
87,308,107667,2,0,L|174:322,1,70,2|2,1:2|0:0,0:0:0:0:
229,360,107991,2,0,L|298:348,1,70,2|2,1:2|0:0,0:0:0:0:
360,291,108316,2,0,L|447:305,1,70,2|2,1:2|0:0,0:0:0:0:
492,357,108640,2,0,L|545:351,2,35,2|0|2,1:2|0:0|0:0,0:0:0:0:
443,288,108964,6,0,P|435:236|447:157,1,105,2|0,1:2|0:0,0:0:0:0:
452,143,109289,2,0,L|499:130,2,35,2|0|0,1:2|0:0|0:0,0:0:0:0:
374,111,109613,2,0,P|367:71|366:32,1,70,2|0,1:2|0:0,0:0:0:0:
282,48,109937,2,0,P|289:88|290:127,1,70,2|0,1:2|0:0,0:0:0:0:
250,191,110262,6,0,B|183:181|177:227|103:203,1,140,2|2,1:2|1:2,0:0:0:0:
31,188,110748,1,2,3:0:0:0:
31,188,110829,1,0,0:0:0:0:
31,188,110910,2,0,P|28:146|22:103,1,70,2|2,1:2|3:0,0:0:0:0:
10,35,111235,1,2,3:0:0:0:
95,72,111397,5,0,0:0:0:0:
95,72,111478,1,0,0:0:0:0:
95,72,111559,1,6,1:2:0:0:
164,24,111721,1,0,0:0:0:0:
215,90,111883,2,0,L|259:84,2,35,2|0|0,1:2|0:0|0:0,0:0:0:0:
165,158,112208,2,0,L|130:153,2,35,2|0|0,1:2|0:0|0:0,0:0:0:0:
224,217,112532,2,0,L|268:211,2,35,2|0|0,1:2|0:0|0:0,0:0:0:0:
163,275,112856,5,2,3:0:0:0:
163,275,113018,1,0,0:0:0:0:
163,275,113180,1,2,3:0:0:0:
208,346,113343,1,0,0:0:0:0:
282,307,113505,2,0,B|350:292|350:332|426:315,1,140,2|2,3:0|3:0,0:0:0:0:
500,293,113991,1,0,0:0:0:0:
452,223,114153,6,0,L|446:180,7,35,2|0|0|0|2|0|0|0,1:2|0:0|0:0|0:0|1:2|0:0|0:0|0:0,0:0:0:0:
485,169,114802,2,0,L|491:126,7,35,2|0|0|0|2|0|0|0,1:2|0:0|0:0|0:0|1:2|0:0|0:0|0:0,0:0:0:0:
447,136,115451,2,0,L|441:93,7,35,2|0|0|0|2|0|0|2,1:2|0:0|0:0|0:0|1:2|0:0|0:0|3:0,0:0:0:0:
480,82,116100,2,0,L|486:39,7,35,0|2|0|2|0|2|0|0,0:0|3:0|0:0|3:0|0:0|3:0|0:0|0:0,0:0:0:0:
454,17,116748,5,6,1:2:0:0:
340,140,117072,2,0,P|271:144|186:105,1,140,8|2,0:0|1:2,0:0:0:0:
139,67,117559,1,0,0:0:0:0:
112,146,117721,2,0,P|121:192|125:228,1,70,8|0,0:0|0:0,0:0:0:0:
123,298,118045,6,0,L|71:309,2,35,2|0|0,1:2|0:0|0:0,0:0:0:0:
205,281,118370,1,8,0:0:0:0:
205,281,118532,1,0,0:0:0:0:
262,342,118694,2,0,B|330:328|331:377|422:355,1,140,2|8,1:2|0:0,0:0:0:0:
474,324,119180,1,0,0:0:0:0:
451,242,119343,6,0,L|406:233,7,35,2|0|0|0|8|0|0|0,1:2|0:0|0:0|0:0|0:0|0:0|0:0|0:0,0:0:0:0:
382,258,119991,2,0,L|347:264,7,35,2|0|0|0|8|0|0|0,1:2|0:0|0:0|0:0|0:0|0:0|0:0|0:0,0:0:0:0:
305,257,120640,6,0,L|295:173,2,46.6666666666667,4|0|0,0:0|0:0|0:0,0:0:0:0:
280,307,120964,2,0,L|274:353,2,46.6666666666667,4|0|0,0:0|0:0|0:0,0:0:0:0:
243,264,121289,2,0,L|233:180,2,46.6666666666667,4|0|0,0:0|0:0|0:0,0:0:0:0:
218,314,121613,2,0,L|212:360,2,46.6666666666667,4|0|0,0:0|0:0|0:0,0:0:0:0:
175,278,121937,5,6,1:2:0:0:
256,130,122262,1,8,0:0:0:0:
256,130,122424,1,0,0:0:0:0:
256,130,122586,1,2,1:2:0:0:
309,194,122748,1,0,0:0:0:0:
368,135,122910,2,0,L|375:58,1,70,8|0,0:0|0:0,0:0:0:0:
301,23,123235,6,0,L|261:16,2,35,2|0|0,1:2|0:0|0:0,0:0:0:0:
374,65,123559,1,8,0:0:0:0:
374,65,123721,1,0,0:0:0:0:
453,37,123883,2,0,P|460:77|462:122,1,70,2|2,1:2|1:2,0:0:0:0:
456,190,124208,1,8,0:0:0:0:
456,190,124370,1,2,1:2:0:0:
379,155,124532,5,2,1:2:0:0:
379,155,124694,2,0,L|367:243,1,70,2|0,1:2|0:0,0:0:0:0:
363,308,125018,1,8,0:0:0:0:
286,273,125180,2,0,P|248:266|189:260,2,70,2|8|2,0:0|0:0|3:0,0:0:0:0:
363,308,125667,1,2,3:0:0:0:
363,308,125829,1,2,3:0:0:0:
256,192,125910,12,2,127126,0:0:0:0:
76,324,128099,5,12,0:0:0:0:
76,324,128424,2,0,B|144:314|144:351|230:337,1,140,4|8,0:0|0:0,0:0:0:0:
292,310,128910,1,0,0:0:0:0:
292,310,129072,2,0,L|297:230,1,70,2|0,1:2|0:0,0:0:0:0:
302,155,129397,1,8,0:0:0:0:
302,155,129559,1,0,0:0:0:0:
245,93,129721,6,0,P|203:88|155:75,2,70,2|0|8,1:2|0:0|0:0,0:0:0:0:
325,66,130208,2,0,P|367:61|415:48,2,70,0|2|0,0:0|1:2|0:0,0:0:0:0:
267,12,130694,1,8,0:0:0:0:
267,12,130856,1,0,0:0:0:0:
244,92,131018,6,0,L|251:161,3,70,2|0|8|0,1:2|0:0|0:0|0:0,0:0:0:0:
293,234,131667,2,0,L|285:303,3,70,2|0|8|0,1:2|0:0|0:0|0:0,0:0:0:0:
235,372,132316,6,0,L|173:377,2,46.6666666666667,4|0|0,0:0|0:0|0:0,0:0:0:0:
281,340,132640,2,0,L|343:345,2,46.6666666666667,4|0|0,0:0|0:0|0:0,0:0:0:0:
235,307,132964,2,0,L|173:312,2,46.6666666666667,4|0|0,0:0|0:0|0:0,0:0:0:0:
281,275,133288,2,0,L|343:280,2,46.6666666666667,4|0|0,0:0|0:0|0:0,0:0:0:0:
232,246,133613,6,0,P|219:174|232:90,1,140,2|8,1:2|0:0,0:0:0:0:
305,73,134099,1,0,0:0:0:0:
305,73,134262,2,0,L|320:155,1,70,2|0,1:2|0:0,0:0:0:0:
383,193,134586,2,0,L|395:124,1,70,8|0,0:0|0:0,0:0:0:0:
418,43,134910,5,2,1:2:0:0:
418,43,135072,1,2,1:2:0:0:
479,100,135235,1,2,1:2:0:0:
479,100,135397,1,2,1:2:0:0:
499,18,135559,1,2,1:2:0:0:
499,18,135721,1,2,1:2:0:0:
479,100,135883,2,0,P|475:147|476:187,1,70,2|2,1:2|1:2,0:0:0:0:
485,253,136208,5,2,1:2:0:0:
485,253,136370,1,2,1:2:0:0:
405,224,136532,1,2,1:2:0:0:
405,224,136694,1,0,0:0:0:0:
414,307,136856,2,0,P|374:315|340:324,2,70,2|2|2,1:2|1:2|1:2,0:0:0:0:
477,363,137343,1,2,1:2:0:0:
316,228,137505,6,0,P|276:214|239:293,1,140,6|2,0:0|0:0,0:0:0:0:
268,366,137991,1,2,0:0:0:0:
268,366,138153,2,0,P|183:370|133:375,1,105,2|0,0:0|0:0,0:0:0:0:
136,361,138478,2,0,L|124:316,3,35,2|0|2|0,0:0|0:0|0:0|0:0,0:0:0:0:
256,192,139126,12,0,141397,0:0:0:0:
