osu file format v14

[General]
AudioFilename: audio.mp3
AudioLeadIn: 0
PreviewTime: 45001
Countdown: 0
SampleSet: Normal
StackLeniency: 0.7
Mode: 1
LetterboxInBreaks: 0
WidescreenStoryboard: 1

[Editor]
DistanceSpacing: 1
BeatDivisor: 4
GridSize: 32
TimelineZoom: 1.7

[Metadata]
Title:Crescent Sakura
TitleUnicode:Crescent Sakura
Artist:m108
ArtistUnicode:m108
Creator:Cynplytholowazy
Version:Futsuu
Source:
Tags:Featured Artist FA Expert Global Taiko Showdown EGTS Round of 96 Ro96 FM2 Forced Mod 2 ForcedMod2 Electronic Instrumental Faputa
BeatmapID:3839059
BeatmapSetID:1828485

[Difficulty]
HPDrainRate:7
CircleSize:10
OverallDifficulty:4
ApproachRate:10
SliderMultiplier:1.4
SliderTickRate:1

[Events]
//Background and Video events
0,0,"sakura-g2cb3b47d9_1920.jpg",0,-80
//Break Periods
//Storyboard Layer 0 (Background)
//Storyboard Layer 1 (Fail)
//Storyboard Layer 2 (Pass)
//Storyboard Layer 3 (Foreground)
//Storyboard Layer 4 (Overlay)
//Storyboard Sound Samples

[TimingPoints]
165,387.096774193548,3,1,0,55,1,0
4616,-100,3,1,0,70,0,0
23342,-100,3,1,0,75,0,0
41923,-100,3,1,0,65,0,0
41971,387.096774193548,4,1,0,65,1,8
41975,387.096774193548,4,1,0,65,1,0
41975,-100,4,1,0,65,0,0
44552,-100,4,1,0,85,0,0
44617,-100,4,1,0,85,0,0
44681,-100,4,1,0,65,0,0
45071,387.096774193548,4,1,0,85,1,1
45071,-100,4,1,0,85,0,1
56683,-100,4,1,0,85,0,0
57458,-100,4,1,0,85,0,1
69797,-100,4,1,0,65,0,1
69845,-100,4,1,0,65,0,0
85329,387.096774193548,4,1,0,72,1,0
85329,-100,4,1,0,72,0,0
97668,-100,4,1,0,68,0,0
102265,-100,4,1,0,55,0,0
102361,387.096774193548,4,1,0,55,1,8
102362,387.096774193548,4,1,0,55,1,0
102362,-100,4,1,0,55,0,0
114555,-100,4,1,0,85,0,0
116297,-100,4,1,0,85,0,1
126361,-100,4,1,0,85,0,0
127136,-100,4,1,0,85,0,1
139523,-100,4,1,0,85,0,0
139620,-100,4,1,0,60,0,0
140394,-100,4,1,0,10,0,0

[HitObjects]
256,192,4810,5,0,0:0:0:0:
256,192,5003,1,0,0:0:0:0:
256,192,5197,1,2,0:0:0:0:
256,192,5584,1,2,0:0:0:0:
256,192,5971,1,2,0:0:0:0:
256,192,6164,1,0,0:0:0:0:
256,192,6358,1,2,0:0:0:0:
256,192,6745,1,2,0:0:0:0:
256,192,7132,1,0,0:0:0:0:
256,192,7326,1,0,0:0:0:0:
256,192,7519,1,2,0:0:0:0:
256,192,7713,1,0,0:0:0:0:
256,192,7906,1,2,0:0:0:0:
256,192,8100,1,2,0:0:0:0:
256,192,8294,1,0,0:0:0:0:
256,192,8681,1,2,0:0:0:0:
256,192,9455,1,0,0:0:0:0:
256,192,9648,1,0,0:0:0:0:
256,192,9842,1,2,0:0:0:0:
256,192,10229,1,2,0:0:0:0:
256,192,10616,1,2,0:0:0:0:
256,192,10810,1,0,0:0:0:0:
256,192,11003,1,2,0:0:0:0:
256,192,11390,1,2,0:0:0:0:
256,192,11777,1,0,0:0:0:0:
256,192,11971,1,0,0:0:0:0:
256,192,12164,1,2,0:0:0:0:
256,192,12358,1,0,0:0:0:0:
256,192,12552,1,2,0:0:0:0:
256,192,12745,1,2,0:0:0:0:
256,192,12939,1,0,0:0:0:0:
256,192,14100,1,0,0:0:0:0:
256,192,14294,1,0,0:0:0:0:
256,192,14487,1,2,0:0:0:0:
256,192,14874,1,2,0:0:0:0:
256,192,15261,1,2,0:0:0:0:
256,192,15455,1,0,0:0:0:0:
256,192,15648,1,2,0:0:0:0:
256,192,16035,1,2,0:0:0:0:
256,192,16423,1,0,0:0:0:0:
256,192,16616,1,0,0:0:0:0:
256,192,16810,1,2,0:0:0:0:
256,192,17003,1,0,0:0:0:0:
256,192,17197,1,2,0:0:0:0:
256,192,17390,1,2,0:0:0:0:
256,192,17584,1,0,0:0:0:0:
256,192,17971,1,2,0:0:0:0:
256,192,18745,1,0,0:0:0:0:
256,192,18939,1,0,0:0:0:0:
256,192,19132,1,2,0:0:0:0:
256,192,19519,1,2,0:0:0:0:
256,192,19906,1,2,0:0:0:0:
256,192,20100,1,2,0:0:0:0:
256,192,20294,1,2,0:0:0:0:
256,192,20681,1,2,0:0:0:0:
256,192,21068,1,0,0:0:0:0:
256,192,21261,1,0,0:0:0:0:
256,192,21455,1,2,0:0:0:0:
256,192,21842,1,2,0:0:0:0:
256,192,22229,1,2,0:0:0:0:
256,192,22423,1,2,0:0:0:0:
256,192,22616,1,2,0:0:0:0:
256,192,23390,1,2,0:0:0:0:
256,192,23584,1,0,0:0:0:0:
256,192,23777,1,2,0:0:0:0:
256,192,24164,1,0,0:0:0:0:
256,192,24552,1,2,0:0:0:0:
256,192,24939,1,0,0:0:0:0:
256,192,25326,1,2,0:0:0:0:
256,192,25519,1,2,0:0:0:0:
256,192,25713,1,0,0:0:0:0:
256,192,25906,1,0,0:0:0:0:
256,192,26294,1,2,0:0:0:0:
256,192,26681,1,0,0:0:0:0:
256,192,26874,1,2,0:0:0:0:
256,192,27455,1,2,0:0:0:0:
256,192,27648,1,2,0:0:0:0:
256,192,27842,1,0,0:0:0:0:
256,192,28035,1,2,0:0:0:0:
256,192,28423,1,0,0:0:0:0:
256,192,28616,1,0,0:0:0:0:
256,192,28810,1,2,0:0:0:0:
256,192,29003,1,2,0:0:0:0:
256,192,29197,1,0,0:0:0:0:
256,192,29584,1,0,0:0:0:0:
256,192,29971,1,2,0:0:0:0:
256,192,30164,1,2,0:0:0:0:
256,192,30358,1,0,0:0:0:0:
256,192,31519,1,2,0:0:0:0:
256,192,32681,1,0,0:0:0:0:
256,192,33068,1,2,0:0:0:0:
256,192,33455,1,0,0:0:0:0:
256,192,33842,1,2,0:0:0:0:
256,192,34035,1,0,0:0:0:0:
256,192,34229,1,2,0:0:0:0:
256,192,34616,1,2,0:0:0:0:
256,192,35003,1,0,0:0:0:0:
256,192,35390,1,2,0:0:0:0:
256,192,35584,1,2,0:0:0:0:
256,192,35777,1,0,0:0:0:0:
256,192,35971,1,0,0:0:0:0:
256,192,36164,1,2,0:0:0:0:
256,192,36552,1,0,0:0:0:0:
256,192,36745,1,0,0:0:0:0:
256,192,36939,1,2,0:0:0:0:
256,192,37132,1,2,0:0:0:0:
256,192,37326,1,0,0:0:0:0:
256,192,37906,1,0,0:0:0:0:
256,192,38100,1,2,0:0:0:0:
256,192,38487,1,0,0:0:0:0:
256,192,38874,1,2,0:0:0:0:
256,192,39261,1,2,0:0:0:0:
256,192,39648,1,0,0:0:0:0:
256,192,40035,1,2,0:0:0:0:
256,192,40229,1,0,0:0:0:0:
256,192,40423,1,2,0:0:0:0:
256,192,40616,1,2,0:0:0:0:
256,192,40810,1,0,0:0:0:0:
256,192,41197,1,0,0:0:0:0:
256,192,41390,1,0,0:0:0:0:
256,192,41584,1,2,0:0:0:0:
256,192,41971,1,4,0:0:0:0:
256,192,43523,1,2,0:0:0:0:
256,192,45071,1,4,0:0:0:0:
256,192,45845,1,0,0:0:0:0:
256,192,46038,1,0,0:0:0:0:
256,192,46232,1,2,0:0:0:0:
256,192,46425,1,2,0:0:0:0:
256,192,46619,1,0,0:0:0:0:
256,192,47006,1,2,0:0:0:0:
256,192,47393,1,0,0:0:0:0:
256,192,47780,1,2,0:0:0:0:
256,192,47974,1,2,0:0:0:0:
256,192,48167,1,0,0:0:0:0:
256,192,48554,1,2,0:0:0:0:
256,192,48748,1,0,0:0:0:0:
256,192,49135,1,0,0:0:0:0:
256,192,49522,1,2,0:0:0:0:
256,192,49716,1,0,0:0:0:0:
256,192,50490,1,2,0:0:0:0:
256,192,50683,1,0,0:0:0:0:
256,192,50877,1,2,0:0:0:0:
256,192,51070,1,2,0:0:0:0:
256,192,51264,1,4,0:0:0:0:
256,192,51651,1,0,0:0:0:0:
256,192,52038,1,2,0:0:0:0:
256,192,52232,1,2,0:0:0:0:
256,192,52425,1,0,0:0:0:0:
256,192,52619,1,0,0:0:0:0:
256,192,52812,1,2,0:0:0:0:
256,192,53200,1,0,0:0:0:0:
256,192,53587,1,2,0:0:0:0:
256,192,53974,1,0,0:0:0:0:
256,192,54361,1,2,0:0:0:0:
256,192,54748,1,2,0:0:0:0:
256,192,54941,1,2,0:0:0:0:
256,192,55135,1,0,0:0:0:0:
256,192,55522,1,0,0:0:0:0:
256,192,55909,1,2,0:0:0:0:
256,192,57458,1,4,0:0:0:0:
256,192,58232,1,0,0:0:0:0:
256,192,58425,1,0,0:0:0:0:
256,192,58619,1,2,0:0:0:0:
256,192,58812,1,2,0:0:0:0:
256,192,59006,1,0,0:0:0:0:
256,192,59393,1,2,0:0:0:0:
256,192,59780,1,0,0:0:0:0:
256,192,60167,1,2,0:0:0:0:
256,192,60361,1,2,0:0:0:0:
256,192,60554,1,0,0:0:0:0:
256,192,60941,1,2,0:0:0:0:
256,192,61135,1,0,0:0:0:0:
256,192,61522,1,2,0:0:0:0:
256,192,61909,1,0,0:0:0:0:
256,192,62103,1,2,0:0:0:0:
256,192,62877,1,2,0:0:0:0:
256,192,63070,1,0,0:0:0:0:
256,192,63264,1,2,0:0:0:0:
256,192,63458,1,2,0:0:0:0:
256,192,63651,1,4,0:0:0:0:
256,192,64038,1,0,0:0:0:0:
256,192,64425,1,2,0:0:0:0:
256,192,64619,1,2,0:0:0:0:
256,192,64812,1,0,0:0:0:0:
256,192,65006,1,0,0:0:0:0:
256,192,65200,1,2,0:0:0:0:
256,192,65587,1,0,0:0:0:0:
256,192,65974,1,2,0:0:0:0:
256,192,66361,1,2,0:0:0:0:
256,192,66748,1,0,0:0:0:0:
256,192,67135,1,2,0:0:0:0:
256,192,67329,1,2,0:0:0:0:
256,192,67522,1,0,0:0:0:0:
256,192,67909,1,0,0:0:0:0:
256,192,68296,1,2,0:0:0:0:
256,192,68490,1,2,0:0:0:0:
256,192,68683,1,0,0:0:0:0:
256,192,69070,1,2,0:0:0:0:
256,192,69329,1,2,0:0:0:0:
256,192,69458,1,2,0:0:0:0:
256,192,69845,1,0,0:0:0:0:
256,192,70619,1,2,0:0:0:0:
256,192,71006,1,0,0:0:0:0:
256,192,71393,1,2,0:0:0:0:
256,192,72167,1,2,0:0:0:0:
256,192,72554,1,2,0:0:0:0:
256,192,72941,1,0,0:0:0:0:
256,192,73329,1,0,0:0:0:0:
256,192,73716,1,2,0:0:0:0:
256,192,74490,1,2,0:0:0:0:
256,192,74877,1,0,0:0:0:0:
256,192,75264,1,2,0:0:0:0:
256,192,75651,1,2,0:0:0:0:
256,192,76038,1,0,0:0:0:0:
256,192,76425,1,0,0:0:0:0:
256,192,76812,1,2,0:0:0:0:
256,192,77587,1,2,0:0:0:0:
256,192,77974,1,0,0:0:0:0:
256,192,78361,1,2,0:0:0:0:
256,192,78748,1,2,0:0:0:0:
256,192,79135,1,0,0:0:0:0:
256,192,79909,1,0,0:0:0:0:
256,192,80296,1,0,0:0:0:0:
256,192,80683,1,2,0:0:0:0:
256,192,81458,1,2,0:0:0:0:
256,192,84361,1,2,0:0:0:0:
256,192,84554,1,2,0:0:0:0:
256,192,85329,1,6,0:0:0:0:
256,192,85716,1,2,0:0:0:0:
256,192,85909,1,0,0:0:0:0:
256,192,86103,1,2,0:0:0:0:
256,192,86296,1,2,0:0:0:0:
256,192,86490,1,0,0:0:0:0:
256,192,86683,1,0,0:0:0:0:
256,192,86877,1,2,0:0:0:0:
256,192,87264,1,2,0:0:0:0:
256,192,87458,1,2,0:0:0:0:
256,192,87651,1,0,0:0:0:0:
256,192,87845,1,0,0:0:0:0:
256,192,88038,1,2,0:0:0:0:
256,192,88425,1,2,0:0:0:0:
256,192,88812,1,2,0:0:0:0:
256,192,89006,1,2,0:0:0:0:
256,192,89199,1,0,0:0:0:0:
256,192,89393,1,0,0:0:0:0:
256,192,89587,1,2,0:0:0:0:
256,192,89780,1,0,0:0:0:0:
256,192,89974,1,2,0:0:0:0:
256,192,90361,1,2,0:0:0:0:
256,192,90554,1,0,0:0:0:0:
256,192,90748,1,2,0:0:0:0:
256,192,91522,1,6,0:0:0:0:
256,192,91909,1,2,0:0:0:0:
256,192,92103,1,0,0:0:0:0:
256,192,92296,1,2,0:0:0:0:
256,192,92490,1,2,0:0:0:0:
256,192,92683,1,0,0:0:0:0:
256,192,92877,1,0,0:0:0:0:
256,192,93070,1,2,0:0:0:0:
256,192,93458,1,2,0:0:0:0:
256,192,93651,1,2,0:0:0:0:
256,192,93845,1,0,0:0:0:0:
256,192,94038,1,0,0:0:0:0:
256,192,94232,1,2,0:0:0:0:
256,192,94619,1,2,0:0:0:0:
256,192,95006,1,0,0:0:0:0:
256,192,95393,1,2,0:0:0:0:
256,192,95587,1,0,0:0:0:0:
256,192,95780,1,2,0:0:0:0:
256,192,95974,1,2,0:0:0:0:
256,192,96167,1,0,0:0:0:0:
256,192,96554,1,2,0:0:0:0:
256,192,96748,1,0,0:0:0:0:
256,192,96941,1,2,0:0:0:0:
256,192,97716,1,2,0:0:0:0:
256,192,100812,1,0,0:0:0:0:
256,192,101199,1,2,0:0:0:0:
256,192,101393,1,0,0:0:0:0:
256,192,101587,1,2,0:0:0:0:
256,192,101974,1,0,0:0:0:0:
256,192,102361,1,2,0:0:0:0:
256,192,103910,1,0,0:0:0:0:
256,192,105458,1,2,0:0:0:0:
256,192,107007,1,2,0:0:0:0:
256,192,108555,1,0,0:0:0:0:
256,192,110103,1,0,0:0:0:0:
256,192,111652,1,2,0:0:0:0:
256,192,113200,1,2,0:0:0:0:
256,192,113781,1,2,0:0:0:0:
256,192,113974,1,2,0:0:0:0:
256,192,114749,1,0,0:0:0:0:
256,192,115136,1,0,0:0:0:0:
256,192,115523,1,2,0:0:0:0:
256,192,115716,1,2,0:0:0:0:
256,192,115910,1,0,0:0:0:0:
256,192,116103,1,0,0:0:0:0:
256,192,116297,1,6,0:0:0:0:
256,192,116684,1,2,0:0:0:0:
256,192,117071,1,0,0:0:0:0:
256,192,117458,1,2,0:0:0:0:
256,192,117652,1,2,0:0:0:0:
256,192,117845,1,0,0:0:0:0:
256,192,118232,1,2,0:0:0:0:
256,192,118426,1,0,0:0:0:0:
256,192,118813,1,2,0:0:0:0:
256,192,119200,1,0,0:0:0:0:
256,192,119394,1,2,0:0:0:0:
256,192,120168,1,2,0:0:0:0:
256,192,120555,1,2,0:0:0:0:
256,192,120942,1,4,0:0:0:0:
256,192,121329,1,0,0:0:0:0:
256,192,121716,1,2,0:0:0:0:
256,192,121910,1,2,0:0:0:0:
256,192,122103,1,0,0:0:0:0:
256,192,122297,1,0,0:0:0:0:
256,192,122491,1,2,0:0:0:0:
256,192,122878,1,0,0:0:0:0:
256,192,123265,1,2,0:0:0:0:
256,192,123652,1,2,0:0:0:0:
256,192,124039,1,0,0:0:0:0:
256,192,124426,1,2,0:0:0:0:
256,192,124620,1,2,0:0:0:0:
256,192,124813,1,0,0:0:0:0:
256,192,125200,1,0,0:0:0:0:
256,192,125587,1,2,0:0:0:0:
256,192,125781,1,2,0:0:0:0:
256,192,125974,1,0,0:0:0:0:
256,192,126361,1,2,0:0:0:0:
256,192,127136,1,6,0:0:0:0:
256,192,127523,1,0,0:0:0:0:
256,192,127910,1,2,0:0:0:0:
256,192,128103,1,2,0:0:0:0:
256,192,128297,1,0,0:0:0:0:
256,192,128684,1,2,0:0:0:0:
256,192,128878,1,2,0:0:0:0:
256,192,129071,1,0,0:0:0:0:
256,192,129265,1,2,0:0:0:0:
256,192,129458,1,0,0:0:0:0:
256,192,129652,1,0,0:0:0:0:
256,192,129845,1,2,0:0:0:0:
256,192,130232,1,0,0:0:0:0:
256,192,130620,1,2,0:0:0:0:
256,192,130813,1,2,0:0:0:0:
256,192,131007,1,0,0:0:0:0:
256,192,131200,1,2,0:0:0:0:
256,192,131394,1,0,0:0:0:0:
256,192,131781,1,0,0:0:0:0:
256,192,131974,1,2,0:0:0:0:
256,192,132265,1,2,0:0:0:0:
256,192,132555,1,2,0:0:0:0:
256,192,133329,1,4,0:0:0:0:
256,192,133716,1,0,0:0:0:0:
256,192,133910,1,0,0:0:0:0:
256,192,134103,1,2,0:0:0:0:
256,192,134297,1,2,0:0:0:0:
256,192,134491,1,0,0:0:0:0:
256,192,134878,1,2,0:0:0:0:
256,192,135265,1,0,0:0:0:0:
256,192,135458,1,2,0:0:0:0:
256,192,135652,1,0,0:0:0:0:
256,192,136039,1,0,0:0:0:0:
256,192,136426,1,2,0:0:0:0:
256,192,136813,1,0,0:0:0:0:
256,192,137200,1,2,0:0:0:0:
256,192,137587,1,0,0:0:0:0:
256,192,137974,1,2,0:0:0:0:
256,192,138361,1,2,0:0:0:0:
256,192,138749,1,2,0:0:0:0:
256,192,139136,1,2,0:0:0:0:
256,192,139329,1,2,0:0:0:0:
256,192,140297,1,4,0:0:0:0:
256,192,140491,8,0,144168,0:0:0:0:
