osu file format v14

[General]
AudioFilename: audio.mp3
AudioLeadIn: 0
PreviewTime: 45001
Countdown: 0
SampleSet: Normal
StackLeniency: 0.7
Mode: 1
LetterboxInBreaks: 0
WidescreenStoryboard: 1

[Editor]
DistanceSpacing: 1
BeatDivisor: 16
GridSize: 32
TimelineZoom: 2

[Metadata]
Title:Crescent Sakura
TitleUnicode:Crescent Sakura
Artist:m108
ArtistUnicode:m108
Creator:Cynplytholowazy
Version:Blossom
Source:
Tags:Featured Artist FA Expert Global Taiko Showdown EGTS Round of 96 Ro96 FM2 Forced Mod 2 ForcedMod2 Electronic Instrumental Faputa
BeatmapID:3752738
BeatmapSetID:1828485

[Difficulty]
HPDrainRate:6
CircleSize:10
OverallDifficulty:7
ApproachRate:10
SliderMultiplier:1.4
SliderTickRate:1

[Events]
//Background and Video events
0,0,"sakura-g2cb3b47d9_1920.jpg",0,-80
//Break Periods
//Storyboard Layer 0 (Background)
//Storyboard Layer 1 (Fail)
//Storyboard Layer 2 (Pass)
//Storyboard Layer 3 (Foreground)
//Storyboard Layer 4 (Overlay)
//Storyboard Sound Samples

[TimingPoints]
165,387.096774193548,3,1,0,55,1,0
165,-80,3,1,0,55,0,0
217,-78.7446504992867,3,1,0,55,0,0
272,-77.5280898876404,3,1,0,55,0,0
327,-76.3485477178423,3,1,0,55,0,0
383,-75.1838736039226,3,1,0,55,0,0
438,-74.0740740740741,3,1,0,55,0,0
936,-71.4285714285714,3,1,0,55,0,0
1065,-72.992700729927,3,1,0,55,0,0
1194,-74.6268656716418,3,1,0,55,0,0
1323,-76.3358778625954,3,1,0,55,0,0
1387,-77.2131441910576,3,1,0,55,0,0
1452,-78.125,3,1,0,55,0,0
1516,-79.0441176470588,3,1,0,55,0,0
1581,-80,3,1,0,55,0,0
1903,-76.7172167707404,3,1,0,55,0,0
2049,-75.315901413737,3,1,0,55,0,0
2194,-73.9739493733104,3,1,0,55,0,0
2484,-71.4285714285714,3,1,0,55,0,0
2553,-72.2870580038321,3,1,0,55,0,0
2622,-73.1664315937941,3,1,0,55,0,0
2691,-74.0674638586472,3,1,0,55,0,0
2761,-75.0045183444786,3,1,0,55,0,0
2830,-75.9516837481698,3,1,0,55,0,0
2899,-76.9230769230769,3,1,0,55,0,0
3261,-58.8235294117647,3,1,0,55,0,0
4616,-100,3,1,0,70,0,0
5000,-97.9643497521358,3,1,0,70,0,0
5194,-96,3,1,0,70,0,0
5581,-92.3076923076923,3,1,0,70,0,0
5774,-90.5704534373476,3,1,0,70,0,0
5839,-90,3,1,0,70,0,0
5903,-89.4453004622496,3,1,0,70,0,0
5968,-88.8888888888889,3,1,0,70,0,0
6162,-87.2686272667481,3,1,0,70,0,0
6355,-85.7142857142857,3,1,0,70,0,0
6742,-82.7586206896552,3,1,0,70,0,0
6936,-81.3523692738898,3,1,0,70,0,0
7129,-100,3,1,0,70,0,0
7387,-97.2984293193717,3,1,0,70,0,0
7516,-96.001653063333,3,1,0,70,0,0
7710,-94.1152638509065,3,1,0,70,0,0
7903,-92.3107490562289,3,1,0,70,0,0
8097,-90.5653021442495,3,1,0,70,0,0
8162,-89.9951573849879,3,1,0,70,0,0
8226,-89.4407546443354,3,1,0,70,0,0
8291,-88.8846374593457,3,1,0,70,0,0
8567,-86.5983224603914,3,1,0,70,0,0
8678,-85.7116502167697,3,1,0,70,0,0
9065,-82.7573922337015,3,1,0,70,0,0
9452,-100,3,1,0,70,0,0
9645,-97.9643497521358,3,1,0,70,0,0
9839,-96,3,1,0,70,0,0
10226,-92.3076923076923,3,1,0,70,0,0
10420,-90.5616224648986,3,1,0,70,0,0
10484,-90,3,1,0,70,0,0
10549,-89.4366875300915,3,1,0,70,0,0
10613,-88.8888888888889,3,1,0,70,0,0
10807,-87.2686272667481,3,1,0,70,0,0
11000,-85.7142857142857,3,1,0,70,0,0
11387,-82.7586206896552,3,1,0,70,0,0
11581,-81.3523692738898,3,1,0,70,0,0
11774,-100,3,1,0,70,0,0
12032,-97.2984293193717,3,1,0,70,0,0
12161,-96.001653063333,3,1,0,70,0,0
12355,-94.1152638509065,3,1,0,70,0,0
12549,-92.3015794179001,3,1,0,70,0,0
12742,-90.5653021442495,3,1,0,70,0,0
12807,-89.9951573849879,3,1,0,70,0,0
12871,-89.4407546443354,3,1,0,70,0,0
12936,-88.8846374593457,3,1,0,70,0,0
13323,-85.7116502167697,3,1,0,70,0,0
13710,-82.7573922337015,3,1,0,70,0,0
14097,-100,3,1,0,70,0,0
14290,-97.9643497521358,3,1,0,70,0,0
14484,-96,3,1,0,70,0,0
14871,-92.3076923076923,3,1,0,70,0,0
15064,-90.5704534373476,3,1,0,70,0,0
15129,-90,3,1,0,70,0,0
15193,-89.4453004622496,3,1,0,70,0,0
15258,-88.8888888888889,3,1,0,70,0,0
15452,-87.2686272667481,3,1,0,70,0,0
15645,-85.7142857142857,3,1,0,70,0,0
16032,-82.7586206896552,3,1,0,70,0,0
16226,-81.3523692738898,3,1,0,70,0,0
16419,-100,3,1,0,70,0,0
16678,-97.2882420688933,3,1,0,70,0,0
16806,-96.001653063333,3,1,0,70,0,0
17000,-94.1152638509065,3,1,0,70,0,0
17193,-92.3107490562289,3,1,0,70,0,0
17387,-90.5653021442495,3,1,0,70,0,0
17452,-89.9951573849879,3,1,0,70,0,0
17516,-89.4407546443354,3,1,0,70,0,0
17581,-88.8846374593457,3,1,0,70,0,0
17857,-86.5983224603914,3,1,0,70,0,0
17968,-85.7116502167697,3,1,0,70,0,0
18355,-82.7573922337015,3,1,0,70,0,0
18742,-100,3,1,0,70,0,0
18935,-97.9643497521358,3,1,0,70,0,0
19129,-96,3,1,0,70,0,0
19516,-92.3076923076923,3,1,0,70,0,0
19710,-90.5616224648986,3,1,0,70,0,0
19774,-90,3,1,0,70,0,0
19839,-89.4366875300915,3,1,0,70,0,0
19903,-88.8888888888889,3,1,0,70,0,0
20097,-87.2686272667481,3,1,0,70,0,0
20290,-85.7142857142857,3,1,0,70,0,0
20677,-82.7586206896552,3,1,0,70,0,0
20871,-81.3523692738898,3,1,0,70,0,0
21065,-100,3,1,0,70,0,0
21323,-97.2972972972973,3,1,0,70,0,0
21451,-96.0099235063056,3,1,0,70,0,0
21645,-94.1224158897446,3,1,0,70,0,0
21839,-92.3076923076923,3,1,0,70,0,0
22032,-90.5704534373476,3,1,0,70,0,0
22097,-90,3,1,0,70,0,0
22162,-89.4366875300915,3,1,0,70,0,0
22226,-88.8888888888889,3,1,0,70,0,0
22468,-86.8768122720045,3,1,0,70,0,0
22613,-85.7142857142857,3,1,0,70,0,0
23000,-82.7586206896552,3,1,0,70,0,0
23193,-81.3594954449895,3,1,0,70,0,0
23291,-80.667014069828,3,1,0,70,0,0
23342,-80,3,1,0,75,0,0
23484,-80.4397929497109,3,1,0,75,0,0
23581,-80.8844480747678,3,1,0,75,0,0
23678,-81.3340464547677,3,1,0,75,0,0
23774,-81.7839582052858,3,1,0,75,0,0
24161,-83.6492937547885,3,1,0,75,0,0
24258,-84.1302457915119,3,1,0,75,0,0
24355,-84.6167603982433,3,1,0,75,0,0
24452,-85.1089346392165,3,1,0,75,0,0
24549,-85.6068678501779,3,1,0,75,0,0
24839,-87.1309009801715,3,1,0,75,0,0
24936,-87.6528469677632,3,1,0,75,0,0
25129,-88.7101814621138,3,1,0,75,0,0
25323,-89.7990172301073,3,1,0,75,0,0
25516,-80,3,1,0,75,0,0
25581,-80.2487839885177,3,1,0,75,0,0
25645,-80.4952569865468,3,1,0,75,0,0
25710,-80.7471356590391,3,1,0,75,0,0
25903,-81.5043975445019,3,1,0,75,0,0
26097,-82.2800333567703,3,1,0,75,0,0
26291,-83.0705736690054,3,1,0,75,0,0
26484,-83.8722581505434,3,1,0,75,0,0
26678,-84.6938432019389,3,1,0,75,0,0
26742,-84.9684238965249,3,1,0,75,0,0
26807,-85.2491232825656,3,1,0,75,0,0
26871,-85.5273221721764,3,1,0,75,0,0
27258,-87.2490203557929,3,1,0,75,0,0
27452,-88.1384432144609,3,1,0,75,0,0
27549,-88.5899896128589,3,1,0,75,0,0
27645,-89.0414594871976,3,1,0,75,0,0
27839,-89.9679962811321,3,1,0,75,0,0
28032,-90.9090909090909,3,1,0,75,0,0
28420,-80,3,1,0,75,0,0
28516,-80.5998125585754,3,1,0,75,0,0
28613,-81.2150783032974,3,1,0,75,0,0
28807,-82.4742268041237,3,1,0,75,0,0
29000,-83.7662337662338,3,1,0,75,0,0
29194,-85.1063829787234,3,1,0,75,0,0
29581,-87.9120879120879,3,1,0,75,0,0
29774,-89.3816040187078,3,1,0,75,0,0
29839,-89.8876404494382,3,1,0,75,0,0
29903,-90.3915214154331,3,1,0,75,0,0
29968,-90.9090909090909,3,1,0,75,0,0
30161,-80,3,1,0,75,0,0
30258,-80.3716831114091,3,1,0,75,0,0
30355,-80.746836052163,3,1,0,75,0,0
30549,-81.5077476077136,3,1,0,75,0,0
30742,-82.2791016965774,3,1,0,75,0,0
30936,-83.0693069306931,3,1,0,75,0,0
31129,-83.870645274154,3,1,0,75,0,0
31387,-84.9663274089827,3,1,0,75,0,0
31516,-85.5249745158002,3,1,0,75,0,0
31774,-86.6646007643838,3,1,0,75,0,0
31903,-87.2458794779805,3,1,0,75,0,0
32291,-89.0421862563014,3,1,0,75,0,0
32549,-90.2781513961371,3,1,0,75,0,0
32678,-90.9090909090909,3,1,0,75,0,0
32807,-89.6741991870775,3,1,0,75,0,0
32936,-88.4724069148936,3,1,0,75,0,0
33065,-87.302400918541,3,1,0,75,0,0
33194,-86.1629365818123,3,1,0,75,0,0
33323,-85.0528334298783,3,1,0,75,0,0
33452,-83.9709710499329,3,1,0,75,0,0
33581,-82.9162853192608,3,1,0,75,0,0
33710,-81.8877649140351,3,1,0,75,0,0
33839,-80.8844480747678,3,1,0,75,0,0
34032,-79.4284435158932,3,1,0,75,0,0
34226,-78.0167833192862,3,1,0,75,0,0
34323,-77.3296042714709,3,1,0,75,0,0
34420,-76.6544250018002,3,1,0,75,0,0
34516,-75.9977154280003,3,1,0,75,0,0
34613,-75.345495726647,3,1,0,75,0,0
34710,-74.704375592126,3,1,0,75,0,0
34807,-74.0740740740741,3,1,0,75,0,0
35000,-90.9090909090909,3,1,0,75,0,0
35129,-89.776042975015,3,1,0,75,0,0
35258,-88.6708909077029,3,1,0,75,0,0
35387,-87.5926170321072,3,1,0,75,0,0
35580,-86.0274784283228,3,1,0,75,0,0
35677,-85.2617863500395,3,1,0,75,0,0
35774,-84.5096041909197,3,1,0,75,0,0
35871,-83.770577522944,3,1,0,75,0,0
35967,-83.0517867038487,3,1,0,75,0,0
36064,-82.3379293233616,3,1,0,75,0,0
36161,-81.6362390399044,3,1,0,75,0,0
36354,-80.2750708411086,3,1,0,75,0,0
36548,-78.9518403969684,3,1,0,75,0,0
36645,-78.3064502536617,3,1,0,75,0,0
36742,-77.6715260131069,3,1,0,75,0,0
36838,-77.0532041926496,3,1,0,75,0,0
36935,-76.4383606719205,3,1,0,75,0,0
37032,-75.8332517219991,3,1,0,75,0,0
37129,-75.2376479733122,3,1,0,75,0,0
37323,-100,3,1,0,75,0,0
37452,-97.2972972972973,3,1,0,75,0,0
37581,-94.7368421052632,3,1,0,75,0,0
37710,-92.3076923076923,3,1,0,75,0,0
37807,-90.5616224648986,3,1,0,75,0,0
37903,-88.8973966309342,3,1,0,75,0,0
38000,-87.2768276639729,3,1,0,75,0,0
38097,-85.7142857142857,3,1,0,75,0,0
38194,-84.2067089755213,3,1,0,75,0,0
38291,-82.7512473271561,3,1,0,75,0,0
38387,-81.3594954449895,3,1,0,75,0,0
38484,-80,3,1,0,75,0,0
38678,-81.6369581267799,3,1,0,75,0,0
38871,-83.3333333333333,3,1,0,75,0,0
39065,-85.1110622388388,3,1,0,75,0,0
39161,-86.0191153589687,3,1,0,75,0,0
39258,-86.9565217391304,3,1,0,75,0,0
39387,-88.2352941176471,3,1,0,75,0,0
39516,-89.5522388059701,3,1,0,75,0,0
39645,-90.9090909090909,3,1,0,75,0,0
39742,-90.3720845259119,3,1,0,75,0,0
39839,-89.8413851555878,3,1,0,75,0,0
39936,-89.3168823352392,3,1,0,75,0,0
40032,-88.8037819400395,3,1,0,75,0,0
40129,-88.2912898619705,3,1,0,75,0,0
40226,-87.7846790890269,3,1,0,75,0,0
40291,-87.4484384207425,3,1,0,75,0,0
40355,-87.1198778912763,3,1,0,75,0,0
40420,-86.7887010936312,3,1,0,75,0,0
40484,-86.4650702091709,3,1,0,75,0,0
40549,-86.1388437427444,3,1,0,75,0,0
40613,-85.8200323849179,3,1,0,75,0,0
40710,-85.3413077232733,3,1,0,75,0,0
40807,-84.8678943154524,3,1,0,75,0,0
41000,-83.9413994004186,3,1,0,75,0,0
41194,-83.0302691210205,3,1,0,75,0,0
41387,-82.1432525185431,3,1,0,75,0,0
41581,-81.2705366922234,3,1,0,75,0,0
41871,-100,3,1,0,75,0,0
41923,-100,3,1,0,65,0,0
41971,387.096774193548,4,1,0,65,1,8
41975,387.096774193548,4,1,0,65,1,0
41975,-98.4918620277736,4,1,0,65,0,0
42165,-95.732946298984,4,1,0,65,0,0
42359,-93.1112365894975,4,1,0,65,0,0
42552,-90.6417479730658,4,1,0,65,0,0
42617,-89.8392808499047,4,1,0,65,0,0
42681,-89.0629219551715,4,1,0,65,0,0
42746,-88.2880471155133,4,1,0,65,0,0
42939,-86.0647181628392,4,1,0,65,0,0
43133,-83.9399338254009,4,1,0,65,0,0
43326,-81.9277108433735,4,1,0,65,0,0
43391,-81.2715623459832,4,1,0,65,0,0
43455,-80.6356968215159,4,1,0,65,0,0
43520,-80,4,1,0,65,0,0
43649,-81.0810810810811,4,1,0,65,0,0
43778,-82.1917808219178,4,1,0,65,0,0
43907,-83.3333333333333,4,1,0,65,0,0
44036,-84.5070422535211,4,1,0,65,0,0
44165,-85.7142857142857,4,1,0,65,0,0
44294,-86.9565217391304,4,1,0,65,0,0
44359,-85.3974733822475,4,1,0,65,0,0
44423,-83.9160839160839,4,1,0,65,0,0
44488,-82.4632431280631,4,1,0,65,0,0
44552,-81.0810810810811,4,1,0,85,0,0
44617,-79.7239532368543,4,1,0,85,0,0
44681,-78.4313725490196,4,1,0,65,0,0
44746,-77.1608015153026,4,1,0,65,0,0
44810,-75.9493670886076,4,1,0,65,0,0
44875,-74.7573284396581,4,1,0,65,0,0
44939,-73.6196319018405,4,1,0,65,0,0
45004,-72.4990633195954,4,1,0,65,0,0
45071,387.096774193548,4,1,0,85,1,1
45071,-71.4285714285714,4,1,0,85,0,1
45262,-76.9230769230769,4,1,0,85,0,1
45359,-77.3491705450704,4,1,0,85,0,1
45455,-77.7755447733341,4,1,0,85,0,1
45649,-78.6516853932584,4,1,0,85,0,1
45842,-79.5431188889215,4,1,0,85,0,1
46036,-80.4597701149425,4,1,0,85,0,1
46230,-81.3977945374237,4,1,0,85,0,1
46423,-82.3529411764706,4,1,0,85,0,1
46520,-82.8415033179413,4,1,0,85,0,1
46617,-83.3358968837481,4,1,0,85,0,1
46810,-84.3373493975904,4,1,0,85,0,1
47004,-85.3685437872247,4,1,0,85,0,1
47101,-85.8936554741748,4,1,0,85,0,1
47197,-86.4197530864197,4,1,0,85,0,1
47294,-86.9579173755337,4,1,0,85,0,1
47391,-87.5028263186795,4,1,0,85,0,1
47584,-88.6075949367089,4,1,0,85,0,1
47778,-89.7465628623489,4,1,0,85,0,1
47842,-90.1287553648069,4,1,0,85,0,1
47907,-90.5202659805527,4,1,0,85,0,1
47971,-90.9090909090909,4,1,0,85,0,1
48165,-76.9230769230769,4,1,0,85,0,1
48359,-77.6715260131069,4,1,0,85,0,1
48455,-78.0473054696949,4,1,0,85,0,1
48552,-78.4307105356449,4,1,0,85,0,1
48746,-79.208933594749,4,1,0,85,0,1
48939,-79.9986224946622,4,1,0,85,0,1
49036,-80.401488275504,4,1,0,85,0,1
49133,-80.8084321842279,4,1,0,85,0,1
49326,-81.6305016252306,4,1,0,85,0,1
49520,-82.4738607920757,4,1,0,85,0,1
49617,-82.9021091324364,4,1,0,85,0,1
49713,-83.330344011192,4,1,0,85,0,1
49907,-84.2093815703618,4,1,0,85,0,1
50004,-84.6558918387056,4,1,0,85,0,1
50101,-85.1071624839714,4,1,0,85,0,1
50197,-85.5585429634268,4,1,0,85,0,1
50294,-86.0195145433338,4,1,0,85,0,1
50391,-86.4854802680566,4,1,0,85,0,1
50488,-86.9565217391304,4,1,0,85,0,1
50681,-84.2173984005223,4,1,0,85,0,1
50778,-82.9048843187661,4,1,0,85,0,1
50875,-81.6326530612245,4,1,0,85,0,1
50971,-80.411407199626,4,1,0,85,0,1
51165,-78.0517319618817,4,1,0,85,0,1
51262,-76.9230769230769,4,1,0,85,0,1
51455,-83.3333333333333,4,1,0,85,0,1
51552,-82.3507961589887,4,1,0,85,0,1
51649,-81.3911580970687,4,1,0,85,0,1
51713,-80.7701478302337,4,1,0,85,0,1
51778,-80.149059505501,4,1,0,85,0,1
51842,-79.5467887753904,4,1,0,85,0,1
51907,-78.9443020274994,4,1,0,85,0,1
51971,-78.3599352301642,4,1,0,85,0,1
52036,-77.7752267248307,4,1,0,85,0,1
52101,-77.1991795806746,4,1,0,85,0,1
52165,-76.6402714932127,4,1,0,85,0,1
52230,-76.0808534531162,4,1,0,85,0,1
52294,-75.5379640985617,4,1,0,85,0,1
52359,-74.9944653531105,4,1,0,85,0,1
52423,-74.4669158056716,4,1,0,85,0,1
52617,-72.9121825226001,4,1,0,85,0,1
52810,-71.4285714285714,4,1,0,85,0,1
52939,-72.289156626506,4,1,0,85,0,1
53004,-72.7306897199774,4,1,0,85,0,1
53068,-73.1707317073171,4,1,0,85,0,1
53197,-74.0740740740741,4,1,0,85,0,1
53326,-75,4,1,0,85,0,1
53391,-75.4753778644564,4,1,0,85,0,1
53455,-75.9493670886076,4,1,0,85,0,1
53584,-76.9230769230769,4,1,0,85,0,1
53713,-75.4735355699469,4,1,0,85,0,1
53778,-74.7636503955238,4,1,0,85,0,1
53842,-74.0776142229019,4,1,0,85,0,1
53971,-72.7323917225846,4,1,0,85,0,1
54036,-72.0729098856133,4,1,0,85,0,1
54101,-71.4252799410166,4,1,0,85,0,1
54165,-70.7988854885123,4,1,0,85,0,1
54230,-70.1738500543281,4,1,0,85,0,1
54359,-68.9655172413793,4,1,0,85,0,1
54552,-70.4805700366517,4,1,0,85,0,1
54746,-72.0720720720721,4,1,0,85,0,1
54810,-72.6129887187185,4,1,0,85,0,1
54875,-73.1707317073171,4,1,0,85,0,1
54939,-73.728329205563,4,1,0,85,0,1
55004,-74.3034055727554,4,1,0,85,0,1
55068,-74.8784676034537,4,1,0,85,0,1
55133,-75.4716981132076,4,1,0,85,0,1
55262,-76.6773162939297,4,1,0,85,0,1
55326,-77.2898619467259,4,1,0,85,0,1
55391,-77.9220779220779,4,1,0,85,0,1
55520,-79.2079207920792,4,1,0,85,0,1
55649,-80.5369127516778,4,1,0,85,0,1
55713,-81.2129479040974,4,1,0,85,0,1
55778,-81.9112627986348,4,1,0,85,0,1
55907,-83.3333333333333,4,1,0,85,0,1
56036,-81.6326530612245,4,1,0,85,0,1
56165,-80,4,1,0,85,0,1
56294,-78.4313725490196,4,1,0,85,0,1
56423,-76.9230769230769,4,1,0,85,0,1
56552,-75.4716981132076,4,1,0,85,0,1
56683,-74.0740740740741,4,1,0,85,0,0
56746,-73.3892760631489,4,1,0,85,0,0
56810,-72.7272727272727,4,1,0,85,0,0
56875,-72.0670391061452,4,1,0,85,0,0
56939,-71.4285714285714,4,1,0,85,0,0
57004,-70.7916037865276,4,1,0,85,0,0
57068,-70.1754385964912,4,1,0,85,0,0
57133,-69.5605284443246,4,1,0,85,0,0
57197,-68.9655172413793,4,1,0,85,0,0
57262,-68.3715383596131,4,1,0,85,0,0
57326,-67.7966101694915,4,1,0,85,0,0
57391,-67.2225117248567,4,1,0,85,0,0
57458,-66.6666666666667,4,1,0,85,0,1
57649,-76.9230769230769,4,1,0,85,0,1
57746,-77.3491705450704,4,1,0,85,0,1
57842,-77.7755447733341,4,1,0,85,0,1
58036,-78.6516853932584,4,1,0,85,0,1
58229,-79.5431188889215,4,1,0,85,0,1
58423,-80.4597701149425,4,1,0,85,0,1
58617,-81.3977945374237,4,1,0,85,0,1
58810,-82.3529411764706,4,1,0,85,0,1
58907,-82.8415033179413,4,1,0,85,0,1
59004,-83.3358968837481,4,1,0,85,0,1
59197,-84.3373493975904,4,1,0,85,0,1
59391,-85.3685437872247,4,1,0,85,0,1
59488,-85.8936554741748,4,1,0,85,0,1
59584,-86.4197530864197,4,1,0,85,0,1
59681,-86.9579173755337,4,1,0,85,0,1
59778,-87.5028263186795,4,1,0,85,0,1
59971,-88.6075949367089,4,1,0,85,0,1
60165,-89.7465628623489,4,1,0,85,0,1
60229,-90.1287553648069,4,1,0,85,0,1
60294,-90.5202659805527,4,1,0,85,0,1
60358,-90.9090909090909,4,1,0,85,0,1
60552,-76.9230769230769,4,1,0,85,0,1
60746,-78.4353465747872,4,1,0,85,0,1
60842,-79.2058943921408,4,1,0,85,0,1
60939,-80,4,1,0,85,0,1
61133,-81.6369581267799,4,1,0,85,0,1
61326,-83.3333333333333,4,1,0,85,0,1
61423,-84.2128168860842,4,1,0,85,0,1
61520,-85.1110622388388,4,1,0,85,0,1
61713,-86.9565217391304,4,1,0,85,0,1
61907,-85.8346264686322,4,1,0,85,0,1
62004,-85.2844650998877,4,1,0,85,0,1
62100,-84.7468756155749,4,1,0,85,0,1
62294,-83.6809232564673,4,1,0,85,0,1
62391,-83.157939951033,4,1,0,85,0,1
62488,-82.6414530553006,4,1,0,85,0,1
62584,-82.1365690163552,4,1,0,85,0,1
62681,-81.6326530612245,4,1,0,85,0,1
62778,-81.1348825513903,4,1,0,85,0,1
62875,-80.6431457491565,4,1,0,85,0,1
62971,-80.162312119581,4,1,0,85,0,1
63068,-79.68225876155,4,1,0,85,0,1
63165,-79.2079207920792,4,1,0,85,0,1
63262,-78.7391967463142,4,1,0,85,0,1
63358,-78.2807350949194,4,1,0,85,0,1
63552,-77.370366669997,4,1,0,85,0,1
63649,-76.9230769230769,4,1,0,85,0,1
63842,-83.3333333333333,4,1,0,85,0,1
63939,-82.3507961589887,4,1,0,85,0,1
64036,-81.3911580970687,4,1,0,85,0,1
64100,-80.7701478302337,4,1,0,85,0,1
64165,-80.149059505501,4,1,0,85,0,1
64229,-79.5467887753904,4,1,0,85,0,1
64294,-78.9443020274994,4,1,0,85,0,1
64358,-78.3599352301642,4,1,0,85,0,1
64423,-77.7752267248307,4,1,0,85,0,1
64488,-77.1991795806746,4,1,0,85,0,1
64552,-76.6402714932127,4,1,0,85,0,1
64617,-76.0808534531162,4,1,0,85,0,1
64681,-75.5379640985617,4,1,0,85,0,1
64746,-74.9944653531105,4,1,0,85,0,1
64810,-74.4669158056716,4,1,0,85,0,1
65004,-72.9121825226001,4,1,0,85,0,1
65197,-71.4285714285714,4,1,0,85,0,1
65326,-72.289156626506,4,1,0,85,0,1
65391,-72.7306897199774,4,1,0,85,0,1
65455,-73.1707317073171,4,1,0,85,0,1
65584,-74.0740740740741,4,1,0,85,0,1
65713,-75,4,1,0,85,0,1
65778,-75.4753778644564,4,1,0,85,0,1
65842,-75.9493670886076,4,1,0,85,0,1
65971,-76.9230769230769,4,1,0,85,0,1
66100,-75.9506076048608,4,1,0,85,0,1
66165,-75.4698607459344,4,1,0,85,0,1
66229,-75.0024194328849,4,1,0,85,0,1
66358,-74.0776142229019,4,1,0,85,0,1
66423,-73.6202146860454,4,1,0,85,0,1
66488,-73.1684290030211,4,1,0,85,0,1
66552,-72.728978978979,4,1,0,85,0,1
66617,-72.2880328327581,4,1,0,85,0,1
66746,-71.4285714285714,4,1,0,85,0,1
66842,-71.9063545150502,4,1,0,85,0,1
66939,-72.3956506488951,4,1,0,85,0,1
67036,-72.8916513631869,4,1,0,85,0,1
67133,-73.3944954128441,4,1,0,85,0,1
67197,-73.7300850182182,4,1,0,85,0,1
67262,-74.0740740740741,4,1,0,85,0,1
67326,-74.4159215460052,4,1,0,85,0,1
67391,-74.7663551401869,4,1,0,85,0,1
67455,-75.1146371642769,4,1,0,85,0,1
67520,-75.4716981132076,4,1,0,85,0,1
67649,-76.1904761904762,4,1,0,85,0,1
67713,-76.5521845560418,4,1,0,85,0,1
67778,-76.9230769230769,4,1,0,85,0,1
67907,-77.6699029126214,4,1,0,85,0,1
68036,-78.4313725490196,4,1,0,85,0,1
68101,-78.820743908959,4,1,0,85,0,1
68165,-79.2079207920792,4,1,0,85,0,1
68294,-76.9230769230769,4,1,0,85,0,1
68391,-77.6718514801806,4,1,0,85,0,1
68488,-78.4353465747872,4,1,0,85,0,1
68584,-79.2058943921408,4,1,0,85,0,1
68681,-80,4,1,0,85,0,1
68778,-80.8101900187931,4,1,0,85,0,1
68875,-81.6369581267799,4,1,0,85,0,1
68971,-82.4720298348428,4,1,0,85,0,1
69068,-83.3333333333333,4,1,0,85,0,1
69197,-84.5070422535211,4,1,0,85,0,1
69326,-85.7142857142857,4,1,0,85,0,1
69455,-86.9565217391304,4,1,0,85,0,1
69520,-87.5961973743775,4,1,0,85,0,1
69584,-88.2352941176471,4,1,0,85,0,1
69649,-88.893993338693,4,1,0,85,0,1
69713,-89.5522388059701,4,1,0,85,0,1
69797,-89.5522388059701,4,1,0,65,0,1
69845,-90.9090909090909,4,1,0,65,0,0
70036,-91.7448583072695,4,1,0,65,0,0
70230,-92.5961354505452,4,1,0,65,0,0
70423,-93.4588462466811,4,1,0,65,0,0
70617,-94.342380975586,4,1,0,65,0,0
71004,-96.1557564319062,4,1,0,65,0,0
71197,-97.0864048944386,4,1,0,65,0,0
71391,-98.040208639287,4,1,0,65,0,0
71584,-99.0078756264703,4,1,0,65,0,0
71778,-100,4,1,0,65,0,0
71875,-100.503556040077,4,1,0,65,0,0
71971,-101.006939009756,4,1,0,65,0,0
72068,-101.520713162035,4,1,0,65,0,0
72165,-102.03974068413,4,1,0,65,0,0
72359,-103.093881463337,4,1,0,65,0,0
72423,-103.446433342239,4,1,0,65,0,0
72488,-103.806970509383,4,1,0,65,0,0
72552,-104.164424835898,4,1,0,65,0,0
72746,-105.263157894737,4,1,0,65,0,0
72939,-95.2380952380952,4,1,0,65,0,0
73133,-96.1560755866912,4,1,0,65,0,0
73326,-97.0870539446841,4,1,0,65,0,0
73520,-98.0412022965214,4,1,0,65,0,0
73713,-99.0092256271209,4,1,0,65,0,0
73907,-100.001722385849,4,1,0,65,0,0
73971,-100.333523424404,4,1,0,65,0,0
74036,-100.672770148426,4,1,0,65,0,0
74100,-101.009046624913,4,1,0,65,0,0
74294,-102.042251045731,4,1,0,65,0,0
74488,-103.096810853044,4,1,0,65,0,0
74681,-104.167788004378,4,1,0,65,0,0
74875,-105.266974888949,4,1,0,65,0,0
75068,-106.383758428613,4,1,0,65,0,0
75262,-107.530466348113,4,1,0,65,0,0
75455,-108.696059159412,4,1,0,65,0,0
75519,-109.08817616444,4,1,0,65,0,0
75584,-109.489326393603,4,1,0,65,0,0
75648,-109.887198122492,4,1,0,65,0,0
75713,-110.294257327938,4,1,0,65,0,0
75778,-110.704343515235,4,1,0,65,0,0
75842,-111.111111111111,4,1,0,65,0,0
76036,-100,4,1,0,65,0,0
76230,-101.012561327812,4,1,0,65,0,0
76423,-102.040457653034,4,1,0,65,0,0
76487,-102.38594882466,4,1,0,65,0,0
76552,-102.739241223103,4,1,0,65,0,0
76616,-103.089488636364,4,1,0,65,0,0
76810,-104.165919121605,4,1,0,65,0,0
77004,-105.265066357241,4,1,0,65,0,0
77197,-106.38180918702,4,1,0,65,0,0
77391,-107.528474858783,4,1,0,65,0,0
77584,-108.694024262393,4,1,0,65,0,0
77778,-109.891357837756,4,1,0,65,0,0
77971,-111.108984786145,4,1,0,65,0,0
78165,-112.360420335572,4,1,0,65,0,0
78359,-113.640367187959,4,1,0,65,0,0
78552,-114.942983845423,4,1,0,65,0,0
78616,-115.381558028617,4,1,0,65,0,0
78681,-115.83042394015,4,1,0,65,0,0
78745,-116.275809584844,4,1,0,65,0,0
78810,-116.731673971611,4,1,0,65,0,0
78875,-117.191126899865,4,1,0,65,0,0
78939,-117.647058823529,4,1,0,65,0,0
79133,-105.263157894737,4,1,0,65,0,0
79326,-106.309213236304,4,1,0,65,0,0
79391,-106.66620744287,4,1,0,65,0,0
79455,-107.020059781951,4,1,0,65,0,0
79520,-107.381852224264,4,1,0,65,0,0
79713,-108.470658284153,4,1,0,65,0,0
79907,-109.587586914598,4,1,0,65,0,0
80101,-110.727757021041,4,1,0,65,0,0
80294,-111.885838150289,4,1,0,65,0,0
80359,-112.281337804768,4,1,0,65,0,0
80423,-112.673494260819,4,1,0,65,0,0
80488,-113.074591989485,4,1,0,65,0,0
80681,-114.282551338586,4,1,0,65,0,0
80875,-115.523061715501,4,1,0,65,0,0
81068,-116.784192465779,4,1,0,65,0,0
81262,-118.079914595089,4,1,0,65,0,0
81455,-119.397806349635,4,1,0,65,0,0
81584,-120.29520295203,4,1,0,65,0,0
81713,-121.206191417334,4,1,0,65,0,0
81842,-122.131082892973,4,1,0,65,0,0
81971,-123.070198096525,4,1,0,65,0,0
82101,-124.031318208214,4,1,0,65,0,0
82230,-100,4,1,0,65,0,0
82294,-97.8425807027854,4,1,0,65,0,0
82359,-95.7446910366693,4,1,0,65,0,0
82423,-93.7651575647516,4,1,0,65,0,0
82488,-91.8367534360721,4,1,0,65,0,0
82552,-90.0139781241285,4,1,0,65,0,0
82617,-88.2353200692118,4,1,0,65,0,0
83004,-105.263157894737,4,1,0,65,0,0
83068,-102.58449304175,4,1,0,65,0,0
83133,-100,4,1,0,65,0,0
83197,-97.5794251134645,4,1,0,65,0,0
83262,-95.2380952380952,4,1,0,65,0,0
83778,-111.111111111111,4,1,0,65,0,0
83842,-108.1307627829,4,1,0,65,0,0
83907,-105.263157894737,4,1,0,65,0,0
83971,-102.58449304175,4,1,0,65,0,0
84036,-100,4,1,0,65,0,0
84361,-111.111111111111,4,1,0,65,0,0
85329,387.096774193548,4,1,0,72,1,0
85329,-86.9565217391304,4,1,0,72,0,0
85520,-87.7208880833711,4,1,0,72,0,0
85713,-88.4947661928052,4,1,0,72,0,0
85907,-89.2865378407047,4,1,0,72,0,0
86101,-90.0926055191028,4,1,0,72,0,0
86294,-90.9090909090909,4,1,0,72,0,0
86391,-91.3250625029483,4,1,0,72,0,0
86488,-91.7448583072695,4,1,0,72,0,0
86681,-92.5917069204649,4,1,0,72,0,0
86778,-93.0232558139535,4,1,0,72,0,0
86875,-93.4588462466811,4,1,0,72,0,0
87068,-94.3377838417308,4,1,0,72,0,0
87262,-95.2380952380952,4,1,0,72,0,0
87455,-96.1509808790663,4,1,0,72,0,0
87649,-97.0864048944386,4,1,0,72,0,0
87842,-98.0352440753494,4,1,0,72,0,0
88036,-99.0078756264703,4,1,0,72,0,0
88230,-86.9565217391304,4,1,0,72,0,0
88294,-87.1777206603249,4,1,0,72,0,0
88359,-87.4035306775766,4,1,0,72,0,0
88423,-87.6270125580962,4,1,0,72,0,0
88617,-88.3114791501698,4,1,0,72,0,0
88810,-89.0031110509942,4,1,0,72,0,0
89004,-89.7093308611005,4,1,0,72,0,0
89197,-90.423119735052,4,1,0,72,0,0
89391,-91.1521465083741,4,1,0,72,0,0
89584,-91.8891743939225,4,1,0,72,0,0
89778,-92.6421310506012,4,1,0,72,0,0
89875,-93.0232558139535,4,1,0,72,0,0
89971,-93.403551606172,4,1,0,72,0,0
90165,-94.1816360123095,4,1,0,72,0,0
90262,-94.5755598355708,4,1,0,72,0,0
90359,-94.9727927485819,4,1,0,72,0,0
90552,-95.7731718677224,4,1,0,72,0,0
90649,-96.1805504801719,4,1,0,72,0,0
90746,-96.591409529961,4,1,0,72,0,0
90939,-93.0232558139535,4,1,0,72,0,0
91036,-91.9522038458495,4,1,0,72,0,0
91133,-90.9055349110112,4,1,0,72,0,0
91230,-89.8824257425743,4,1,0,72,0,0
91326,-88.8922888616891,4,1,0,72,0,0
91423,-87.9137507092869,4,1,0,72,0,0
91520,-86.9565217391304,4,1,0,72,0,0
91713,-87.6691388778803,4,1,0,72,0,0
91907,-88.3973169687455,4,1,0,72,0,0
92101,-89.1376928390514,4,1,0,72,0,0
92294,-89.886662119607,4,1,0,72,0,0
92488,-90.6523043599163,4,1,0,72,0,0
92681,-91.4270531971423,4,1,0,72,0,0
92746,-91.6909685728243,4,1,0,72,0,0
92810,-91.9523166223779,4,1,0,72,0,0
92875,-92.2192776106959,4,1,0,72,0,0
92939,-92.4836503717861,4,1,0,72,0,0
93004,-92.7537099986523,4,1,0,72,0,0
93068,-93.0211602865424,4,1,0,72,0,0
93262,-93.8413756533596,4,1,0,72,0,0
93359,-94.2569315518763,4,1,0,72,0,0
93455,-94.6718429981964,4,1,0,72,0,0
93649,-95.5215594349516,4,1,0,72,0,0
93842,-96.3821675873337,4,1,0,72,0,0
94036,-97.2630058257306,4,1,0,72,0,0
94230,-98.1600925500388,4,1,0,72,0,0
94423,-99.0691276670612,4,1,0,72,0,0
94617,-86.9565217391304,4,1,0,72,0,0
94810,-87.7492985157822,4,1,0,72,0,0
95004,-88.5608856088561,4,1,0,72,0,0
95197,-89.3833243513742,4,1,0,72,0,0
95391,-90.2255639097745,4,1,0,72,0,0
95584,-91.0793610323897,4,1,0,72,0,0
95778,-91.9540229885058,4,1,0,72,0,0
95971,-92.8410067771536,4,1,0,72,0,0
96165,-93.75,4,1,0,72,0,0
96359,-94.6769688691362,4,1,0,72,0,0
96552,-95.6175298804781,4,1,0,72,0,0
96746,-96.5819875840985,4,1,0,72,0,0
96939,-97.5609756097561,4,1,0,72,0,0
97133,-95.8039361307092,4,1,0,72,0,0
97230,-94.9489373447419,4,1,0,72,0,0
97326,-94.1176470588235,4,1,0,72,0,0
97423,-93.2923521967095,4,1,0,72,0,0
97617,-91.684434968017,4,1,0,72,0,0
97668,-91.684434968017,4,1,0,68,0,0
97713,-90.9090909090909,4,1,0,68,0,0
97907,-92.3107490562289,4,1,0,68,0,0
98101,-93.7563062517658,4,1,0,68,0,0
98294,-95.2400475585257,4,1,0,68,0,0
98488,-96.7795692205141,4,1,0,68,0,0
98681,-98.36134987509,4,1,0,68,0,0
98875,-100.004304963623,4,1,0,68,0,0
99068,-101.694173269711,4,1,0,68,0,0
99262,-103.451347138722,4,1,0,68,0,0
99455,-105.260773030042,4,1,0,68,0,0
99649,-107.144504404778,4,1,0,68,0,0
99842,-109.086640056351,4,1,0,68,0,0
100036,-111.111111111111,4,1,0,68,0,0
100810,-100,4,1,0,68,0,0
101004,-101.590946367066,4,1,0,68,0,0
101197,-103.224731272394,4,1,0,68,0,0
101391,-104.920809689167,4,1,0,68,0,0
101584,-106.664370587222,4,1,0,68,0,0
101778,-108.476357267951,4,1,0,68,0,0
101842,-109.087706939063,4,1,0,68,0,0
101907,-109.715702772119,4,1,0,68,0,0
101971,-110.341141890086,4,1,0,68,0,0
102165,-112.281337804768,4,1,0,68,0,0
102265,-114.290986253344,4,1,0,55,0,0
102361,387.096774193548,4,1,0,55,1,8
102362,387.096774193548,4,1,0,55,1,0
102362,-114.290986253344,4,1,0,55,0,0
103133,-123.07998012916,4,1,0,55,0,0
103326,-125.486223662885,4,1,0,55,0,0
103520,-128.001653234139,4,1,0,55,0,0
103713,-130.606220347918,4,1,0,55,0,0
103907,-133.333333333333,4,1,0,55,0,0
104684,-138.888888888889,4,1,0,55,0,0
105071,-140.845070422535,4,1,0,55,0,0
105455,-114.285714285714,4,1,0,55,0,0
105842,-118.515684774292,4,1,0,55,0,0
106036,-120.756187877607,4,1,0,55,0,0
106423,-125.488607594937,4,1,0,55,0,0
106813,-130.434782608696,4,1,0,55,0,0
107004,-133.333333333333,4,1,0,55,0,0
107971,-142.857142857143,4,1,0,55,0,0
108165,-136.35296878667,4,1,0,55,0,0
108359,-130.415263748597,4,1,0,55,0,0
108552,-125,4,1,0,55,0,0
109713,-142.857142857143,4,1,0,55,0,0
109907,-139.86013986014,4,1,0,55,0,0
110101,-136.986301369863,4,1,0,55,0,0
110488,-131.578947368421,4,1,0,55,0,0
110875,-126.582278481013,4,1,0,55,0,0
111262,-121.951219512195,4,1,0,55,0,0
111649,-111.111111111111,4,1,0,55,0,0
112036,-114.942528735632,4,1,0,55,0,0
112423,-119.047619047619,4,1,0,55,0,0
112810,-123.456790123457,4,1,0,55,0,0
113197,-128.205128205128,4,1,0,55,0,0
113778,-117.647058823529,4,1,0,55,0,0
113875,-114.285714285714,4,1,0,55,0,0
113971,-111.111111111111,4,1,0,55,0,0
114555,-90.9090909090909,4,1,0,85,0,0
114842,-89.3970893970894,4,1,0,85,0,0
114939,-87.9195774407906,4,1,0,85,0,0
115036,-86.4901106268857,4,1,0,85,0,0
115133,-85.1063829787234,4,1,0,85,0,0
115230,-83.7662337662338,4,1,0,85,0,0
115326,-82.4808184143222,4,1,0,85,0,0
115423,-81.2214701715725,4,1,0,85,0,0
115520,-80,4,1,0,85,0,0
115617,-78.8147243012067,4,1,0,85,0,0
115713,-77.6757489086256,4,1,0,85,0,0
115810,-76.5578635014837,4,1,0,85,0,0
115907,-75.4716981132076,4,1,0,85,0,0
116004,-74.4159215460052,4,1,0,85,0,0
116101,-73.3892760631489,4,1,0,85,0,0
116197,-72.4007296197559,4,1,0,85,0,0
116297,-71.4285714285714,4,1,0,85,0,1
116584,-76.9230769230769,4,1,0,85,0,1
116681,-77.3820508088823,4,1,0,85,0,1
116778,-77.8465346534653,4,1,0,85,0,1
116875,-78.3166282761626,4,1,0,85,0,1
116971,-78.7874992171353,4,1,0,85,0,1
117068,-79.2690611216131,4,1,0,85,0,1
117262,-80.2500637917836,4,1,0,85,0,1
117359,-80.7497271968676,4,1,0,85,0,1
117455,-81.2504036685397,4,1,0,85,0,1
117649,-82.2813787690497,4,1,0,85,0,1
117842,-71.4285714285714,4,1,0,85,0,1
118036,-72.7295487262941,4,1,0,85,0,1
118133,-73.3979723968039,4,1,0,85,0,1
118230,-74.0787963789366,4,1,0,85,0,1
118423,-75.4716981132076,4,1,0,85,0,1
118617,-76.9256231174076,4,1,0,85,0,1
118810,-78.4287257019438,4,1,0,85,0,1
119004,-80,4,1,0,85,0,1
119197,-78.7427222018647,4,1,0,85,0,1
119294,-78.1256311856191,4,1,0,85,0,1
119391,-77.5181369994789,4,1,0,85,0,1
119584,-76.337083086639,4,1,0,85,0,1
119681,-75.7569822554742,4,1,0,85,0,1
119778,-75.1856315359795,4,1,0,85,0,1
119875,-74.6228344329976,4,1,0,85,0,1
119971,-74.0740740740741,4,1,0,85,0,1
120165,-66.6666666666667,4,1,0,85,0,1
120264,-67.2283505602363,4,1,0,85,0,1
120360,-67.7936410615748,4,1,0,85,0,1
120457,-68.3745583038869,4,1,0,85,0,1
120554,-68.9655172413793,4,1,0,85,0,1
120651,-69.5667805141111,4,1,0,85,0,1
120748,-70.1786200018134,4,1,0,85,0,1
120812,-70.5882352941177,4,1,0,85,0,1
120877,-71.0091743119266,4,1,0,85,0,1
120939,-71.4285714285714,4,1,0,85,0,1
121133,-76.9230769230769,4,1,0,85,0,1
121230,-76.0851254983435,4,1,0,85,0,1
121326,-75.2735959113383,4,1,0,85,0,1
121391,-74.7338811979483,4,1,0,85,0,1
121455,-74.2099786406703,4,1,0,85,0,1
121520,-73.6853553754962,4,1,0,85,0,1
121584,-73.1760004320354,4,1,0,85,0,1
121649,-72.6658443717488,4,1,0,85,0,1
121713,-72.1704394141145,4,1,0,85,0,1
121778,-71.6741602750595,4,1,0,85,0,1
121842,-71.192139967425,4,1,0,85,0,1
121907,-70.7091791473151,4,1,0,85,0,1
121971,-70.2400082940231,4,1,0,85,0,1
122036,-69.7698367746254,4,1,0,85,0,1
122101,-69.3059178558642,4,1,0,85,0,1
122294,-67.964086873652,4,1,0,85,0,1
122488,-66.6666666666667,4,1,0,85,0,1
122617,-67.4157303370786,4,1,0,85,0,1
122681,-67.7936410615748,4,1,0,85,0,1
122746,-68.1818181818182,4,1,0,85,0,1
122875,-68.9655172413793,4,1,0,85,0,1
123004,-69.7674418604651,4,1,0,85,0,1
123068,-70.1722574796011,4,1,0,85,0,1
123133,-70.5882352941177,4,1,0,85,0,1
123262,-71.4285714285714,4,1,0,85,0,1
123391,-70.5882352941177,4,1,0,85,0,1
123455,-70.1786200018134,4,1,0,85,0,1
123520,-69.7674418604651,4,1,0,85,0,1
123649,-68.9655172413793,4,1,0,85,0,1
123713,-68.5744662000532,4,1,0,85,0,1
123778,-68.1818181818182,4,1,0,85,0,1
123842,-67.7995795374912,4,1,0,85,0,1
123907,-67.4157303370786,4,1,0,85,0,1
124036,-66.6666666666667,4,1,0,85,0,1
124133,-67.0870441396347,4,1,0,85,0,1
124230,-67.5127567709015,4,1,0,85,0,1
124326,-67.9394338380514,4,1,0,85,0,1
124423,-68.3760683760684,4,1,0,85,0,1
124488,-68.6718126164493,4,1,0,85,0,1
124552,-68.9655172413793,4,1,0,85,0,1
124681,-69.5652173913043,4,1,0,85,0,1
124810,-70.1754385964912,4,1,0,85,0,1
124939,-70.7964601769911,4,1,0,85,0,1
125068,-71.4285714285714,4,1,0,85,0,1
125197,-72.0720720720721,4,1,0,85,0,1
125326,-72.7272727272727,4,1,0,85,0,1
125455,-73.394495412844,4,1,0,85,0,1
125584,-68.9655172413793,4,1,0,85,0,1
125681,-69.4350216399579,4,1,0,85,0,1
125778,-69.9109624534791,4,1,0,85,0,1
125875,-70.393472950217,4,1,0,85,0,1
125971,-70.8776119402985,4,1,0,85,0,1
126068,-71.3736052327818,4,1,0,85,0,1
126165,-71.8765892524157,4,1,0,85,0,1
126262,-72.3867128432759,4,1,0,85,0,1
126361,-76.9230769230769,4,1,0,85,0,0
126423,-75.9568204121688,4,1,0,85,0,0
126488,-75,4,1,0,85,0,0
126552,-74.0811638591118,4,1,0,85,0,0
126617,-73.1707317073171,4,1,0,85,0,0
126681,-72.2959088361666,4,1,0,85,0,0
126746,-71.4285714285714,4,1,0,85,0,0
126810,-70.5946734768333,4,1,0,85,0,0
126875,-69.7674418604651,4,1,0,85,0,0
126939,-68.9716628052041,4,1,0,85,0,0
127004,-68.1818181818182,4,1,0,85,0,0
127068,-67.4216027874565,4,1,0,85,0,0
127136,-66.6666666666667,4,1,0,85,0,1
127230,-67.2283505602363,4,1,0,85,0,1
127326,-67.7936410615748,4,1,0,85,0,1
127423,-68.3745583038869,4,1,0,85,0,1
127520,-68.9655172413793,4,1,0,85,0,1
127617,-69.5667805141111,4,1,0,85,0,1
127713,-70.1722574796011,4,1,0,85,0,1
127810,-70.7948413061374,4,1,0,85,0,1
127907,-71.4285714285714,4,1,0,85,0,1
128004,-72.0737498836018,4,1,0,85,0,1
128101,-72.7306897199774,4,1,0,85,0,1
128197,-73.3927555471269,4,1,0,85,0,1
128294,-74.0740740740741,4,1,0,85,0,1
128391,-74.7681607418856,4,1,0,85,0,1
128488,-75.4753778644564,4,1,0,85,0,1
128584,-76.1886012402796,4,1,0,85,0,1
128681,-66.6666666666667,4,1,0,85,0,1
128778,-67.2279848964889,4,1,0,85,0,1
128875,-67.7988357333567,4,1,0,85,0,1
128971,-68.3734274994482,4,1,0,85,0,1
129068,-68.9639820132674,4,1,0,85,0,1
129165,-69.5648268738492,4,1,0,85,0,1
129262,-70.1762334073302,4,1,0,85,0,1
129359,-70.7984825631884,4,1,0,85,0,1
129455,-71.4252778162033,4,1,0,85,0,1
129552,-72.0699762713442,4,1,0,85,0,1
129649,-72.726419080708,4,1,0,85,0,1
129746,-73.394930111348,4,1,0,85,0,1
129842,-74.0687610577153,4,1,0,85,0,1
129939,-74.762295477581,4,1,0,85,0,1
129988,-75.1175985645701,4,1,0,85,0,1
130036,-75.468940316687,4,1,0,85,0,1
130133,-76.1890708769859,4,1,0,85,0,1
130181,-76.5505312577218,4,1,0,85,0,1
130230,-76.9230769230769,4,1,0,85,0,1
130326,-76.1961015948021,4,1,0,85,0,1
130423,-75.4753778644564,4,1,0,85,0,1
130488,-75,4,1,0,85,0,1
130552,-74.537750385208,4,1,0,85,0,1
130617,-74.0740740740741,4,1,0,85,0,1
130810,-72.7306897199774,4,1,0,85,0,1
130875,-72.289156626506,4,1,0,85,0,1
130939,-71.8596230619255,4,1,0,85,0,1
131004,-71.4285714285714,4,1,0,85,0,1
131052,-71.7463848720801,4,1,0,85,0,1
131101,-72.0737498836018,4,1,0,85,0,1
131149,-72.3973435600037,4,1,0,85,0,1
131197,-72.7238560556234,4,1,0,85,0,1
131246,-73.0602227676043,4,1,0,85,0,1
131294,-73.3927555471269,4,1,0,85,0,1
131342,-73.728329205563,4,1,0,85,0,1
131391,-74.0740740740741,4,1,0,85,0,1
131488,-74.7681607418856,4,1,0,85,0,1
131584,-75.4680187207488,4,1,0,85,0,1
131681,-76.1886012402796,4,1,0,85,0,1
131778,-76.9230769230769,4,1,0,85,0,1
131875,-76.1886012402796,4,1,0,85,0,1
131971,-75.4753778644564,4,1,0,85,0,1
132068,-74.7681607418856,4,1,0,85,0,1
132165,-74.0740740740741,4,1,0,85,0,1
132262,-73.3927555471269,4,1,0,85,0,1
132359,-72.7238560556234,4,1,0,85,0,1
132455,-72.0737498836018,4,1,0,85,0,1
132552,-71.4285714285714,4,1,0,85,0,1
132617,-71.0026603063939,4,1,0,85,0,1
132681,-70.5882352941176,4,1,0,85,0,1
132746,-70.1722574796011,4,1,0,85,0,1
132842,-69.5667805141111,4,1,0,85,0,1
132939,-68.9655172413793,4,1,0,85,0,1
133036,-68.3745583038869,4,1,0,85,0,1
133230,-67.2225117248567,4,1,0,85,0,1
133326,-66.6666666666667,4,1,0,85,0,1
133520,-76.9230769230769,4,1,0,85,0,1
133617,-76.0851254983435,4,1,0,85,0,1
133713,-75.2735959113383,4,1,0,85,0,1
133778,-74.7338811979483,4,1,0,85,0,1
133842,-74.2099786406703,4,1,0,85,0,1
133907,-73.6853553754962,4,1,0,85,0,1
133971,-73.1760004320354,4,1,0,85,0,1
134036,-72.6658443717488,4,1,0,85,0,1
134101,-72.1627523033498,4,1,0,85,0,1
134294,-70.7091791473151,4,1,0,85,0,1
134359,-70.2327268957653,4,1,0,85,0,1
134423,-69.7698367746254,4,1,0,85,0,1
134488,-69.3059178558642,4,1,0,85,0,1
134681,-67.964086873652,4,1,0,85,0,1
134875,-66.6666666666667,4,1,0,85,0,1
135068,-67.7936410615748,4,1,0,85,0,1
135133,-68.1818181818182,4,1,0,85,0,1
135197,-68.5683912119064,4,1,0,85,0,1
135262,-68.9655172413793,4,1,0,85,0,1
135455,-70.1722574796011,4,1,0,85,0,1
135520,-70.5882352941176,4,1,0,85,0,1
135584,-71.0026603063939,4,1,0,85,0,1
135649,-71.4285714285714,4,1,0,85,0,1
135778,-72.289156626506,4,1,0,85,0,1
135842,-72.7238560556234,4,1,0,85,0,1
135907,-73.1707317073171,4,1,0,85,0,1
136036,-74.0740740740741,4,1,0,85,0,1
136165,-75,4,1,0,85,0,1
136230,-75.4753778644564,4,1,0,85,0,1
136294,-75.9493670886076,4,1,0,85,0,1
136423,-71.4285714285714,4,1,0,85,0,1
136552,-72.289156626506,4,1,0,85,0,1
136681,-73.1707317073171,4,1,0,85,0,1
136810,-74.0740740740741,4,1,0,85,0,1
136939,-75,4,1,0,85,0,1
137068,-75.9493670886076,4,1,0,85,0,1
137197,-76.9230769230769,4,1,0,85,0,1
137326,-77.9220779220779,4,1,0,85,0,1
137455,-78.9473684210526,4,1,0,85,0,1
137584,-80,4,1,0,85,0,1
137713,-81.0810810810811,4,1,0,85,0,1
137746,-81.3623462630085,4,1,0,85,0,1
137842,-82.1917808219178,4,1,0,85,0,1
137971,-74.0740740740741,4,1,0,85,0,1
138165,-72.3950178767555,4,1,0,85,0,1
138230,-71.8493436615799,4,1,0,85,0,1
138359,-70.7903937115828,4,1,0,85,0,1
138488,-69.7622050081066,4,1,0,85,0,1
138617,-68.7634563736044,4,1,0,85,0,1
138746,-67.79290122106,4,1,0,85,0,1
138939,-66.3909307159848,4,1,0,85,0,1
139036,-65.707983371511,4,1,0,85,0,1
139133,-65.0389435895283,4,1,0,85,0,1
139197,-64.6049256563719,4,1,0,85,0,1
139262,-64.1700153278926,4,1,0,85,0,1
139326,-63.7474793201366,4,1,0,85,0,1
139391,-63.3239989371052,4,1,0,85,0,1
139474,-62.9124951769795,4,1,0,85,0,1
139523,-62.5,4,1,0,85,0,0
139620,-62.5,4,1,0,60,0,0
140297,-83.3333333333333,4,1,0,60,0,0
140394,-83.3333333333333,4,1,0,10,0,0

[HitObjects]
256,192,165,5,0,0:0:0:0:
256,192,220,1,0,0:0:0:0:
256,192,275,1,2,0:0:0:0:
256,192,330,1,0,0:0:0:0:
256,192,386,1,2,0:0:0:0:
256,192,441,1,2,0:0:0:0:
256,192,939,5,2,0:0:0:0:
256,192,1068,1,2,0:0:0:0:
256,192,1197,1,2,0:0:0:0:
256,192,1326,1,0,0:0:0:0:
256,192,1390,1,2,0:0:0:0:
256,192,1455,1,2,0:0:0:0:
256,192,1519,1,2,0:0:0:0:
256,192,1584,1,0,0:0:0:0:
256,192,1906,1,2,0:0:0:0:
256,192,2052,1,0,0:0:0:0:
256,192,2197,1,2,0:0:0:0:
256,192,2487,1,2,0:0:0:0:
256,192,2556,1,2,0:0:0:0:
256,192,2625,1,0,0:0:0:0:
256,192,2694,1,0,0:0:0:0:
256,192,2764,1,2,0:0:0:0:
256,192,2833,1,0,0:0:0:0:
256,192,2902,1,0,0:0:0:0:
256,192,3261,2,2,L|320:192,12,59.500001134873
256,192,4810,1,0,0:0:0:0:
256,192,5003,1,0,0:0:0:0:
256,192,5197,1,2,0:0:0:0:
256,192,5584,1,2,0:0:0:0:
256,192,5777,1,0,0:0:0:0:
256,192,5842,1,0,0:0:0:0:
256,192,5906,1,0,0:0:0:0:
256,192,5971,1,2,0:0:0:0:
256,192,6165,1,0,0:0:0:0:
256,192,6358,1,2,0:0:0:0:
256,192,6745,1,2,0:0:0:0:
256,192,6939,1,0,0:0:0:0:
256,192,7132,1,2,0:0:0:0:
256,192,7390,1,0,0:0:0:0:
256,192,7519,1,2,0:0:0:0:
256,192,7713,1,2,0:0:0:0:
256,192,7906,1,2,0:0:0:0:
256,192,8100,1,2,0:0:0:0:
256,192,8165,1,2,0:0:0:0:
256,192,8229,1,2,0:0:0:0:
256,192,8294,1,0,0:0:0:0:
256,192,8570,1,0,0:0:0:0:
256,192,8681,1,2,0:0:0:0:
256,192,9068,1,2,0:0:0:0:
256,192,9455,1,0,0:0:0:0:
256,192,9648,1,0,0:0:0:0:
256,192,9842,1,2,0:0:0:0:
256,192,10229,1,2,0:0:0:0:
256,192,10423,1,0,0:0:0:0:
256,192,10487,1,0,0:0:0:0:
256,192,10552,1,0,0:0:0:0:
256,192,10616,1,2,0:0:0:0:
256,192,10810,1,0,0:0:0:0:
256,192,11003,1,2,0:0:0:0:
256,192,11390,1,2,0:0:0:0:
256,192,11584,1,0,0:0:0:0:
256,192,11777,1,0,0:0:0:0:
256,192,12035,1,2,0:0:0:0:
256,192,12165,1,2,0:0:0:0:
256,192,12358,1,0,0:0:0:0:
256,192,12552,1,2,0:0:0:0:
256,192,12745,1,0,0:0:0:0:
256,192,12810,1,0,0:0:0:0:
256,192,12874,1,0,0:0:0:0:
256,192,12939,1,2,0:0:0:0:
256,192,13326,1,2,0:0:0:0:
256,192,13713,1,2,0:0:0:0:
256,192,14100,1,0,0:0:0:0:
256,192,14294,1,0,0:0:0:0:
256,192,14487,1,2,0:0:0:0:
256,192,14874,1,2,0:0:0:0:
256,192,15068,1,0,0:0:0:0:
256,192,15132,1,0,0:0:0:0:
256,192,15197,1,0,0:0:0:0:
256,192,15261,1,2,0:0:0:0:
256,192,15455,1,0,0:0:0:0:
256,192,15648,1,2,0:0:0:0:
256,192,16035,1,2,0:0:0:0:
256,192,16229,1,0,0:0:0:0:
256,192,16423,1,2,0:0:0:0:
256,192,16681,1,0,0:0:0:0:
256,192,16810,1,2,0:0:0:0:
256,192,17003,1,2,0:0:0:0:
256,192,17197,1,2,0:0:0:0:
256,192,17390,1,2,0:0:0:0:
256,192,17455,1,2,0:0:0:0:
256,192,17519,1,2,0:0:0:0:
256,192,17584,1,0,0:0:0:0:
256,192,17860,1,0,0:0:0:0:
256,192,17971,1,2,0:0:0:0:
256,192,18358,1,2,0:0:0:0:
256,192,18745,1,0,0:0:0:0:
256,192,18939,1,0,0:0:0:0:
256,192,19132,1,2,0:0:0:0:
256,192,19519,1,2,0:0:0:0:
256,192,19713,1,0,0:0:0:0:
256,192,19777,1,0,0:0:0:0:
256,192,19842,1,0,0:0:0:0:
256,192,19906,1,2,0:0:0:0:
256,192,20100,1,2,0:0:0:0:
256,192,20294,1,2,0:0:0:0:
256,192,20681,1,2,0:0:0:0:
256,192,20874,1,0,0:0:0:0:
256,192,21068,1,2,0:0:0:0:
256,192,21326,1,2,0:0:0:0:
256,192,21455,1,2,0:0:0:0:
256,192,21648,1,0,0:0:0:0:
256,192,21842,1,2,0:0:0:0:
256,192,22035,1,0,0:0:0:0:
256,192,22100,1,0,0:0:0:0:
256,192,22165,1,0,0:0:0:0:
256,192,22229,1,2,0:0:0:0:
256,192,22471,1,0,0:0:0:0:
256,192,22616,1,2,0:0:0:0:
256,192,23003,1,2,0:0:0:0:
256,192,23197,1,2,0:0:0:0:
256,192,23294,1,2,0:0:0:0:
256,192,23390,1,0,0:0:0:0:
256,192,23487,1,2,0:0:0:0:
256,192,23584,1,0,0:0:0:0:
256,192,23681,1,0,0:0:0:0:
256,192,23777,1,2,0:0:0:0:
256,192,24165,1,2,0:0:0:0:
256,192,24261,1,0,0:0:0:0:
256,192,24358,1,2,0:0:0:0:
256,192,24455,1,0,0:0:0:0:
256,192,24552,1,2,0:0:0:0:
256,192,24842,1,0,0:0:0:0:
256,192,24939,1,2,0:0:0:0:
256,192,25132,1,0,0:0:0:0:
256,192,25326,1,2,0:0:0:0:
256,192,25519,1,0,0:0:0:0:
256,192,25584,1,2,0:0:0:0:
256,192,25648,1,2,0:0:0:0:
256,192,25713,1,2,0:0:0:0:
256,192,25906,1,0,0:0:0:0:
256,192,26100,1,2,0:0:0:0:
256,192,26294,1,2,0:0:0:0:
256,192,26487,1,2,0:0:0:0:
256,192,26681,1,0,0:0:0:0:
256,192,26745,1,0,0:0:0:0:
256,192,26810,1,0,0:0:0:0:
256,192,26874,1,2,0:0:0:0:
256,192,27261,1,2,0:0:0:0:
256,192,27455,1,0,0:0:0:0:
256,192,27552,1,2,0:0:0:0:
256,192,27648,1,2,0:0:0:0:
256,192,27842,1,0,0:0:0:0:
256,192,28035,1,2,0:0:0:0:
256,192,28423,1,0,0:0:0:0:
256,192,28519,1,2,0:0:0:0:
256,192,28616,1,0,0:0:0:0:
256,192,28810,1,2,0:0:0:0:
256,192,29003,1,2,0:0:0:0:
256,192,29197,1,0,0:0:0:0:
256,192,29584,1,2,0:0:0:0:
256,192,29777,1,0,0:0:0:0:
256,192,29842,1,0,0:0:0:0:
256,192,29906,1,0,0:0:0:0:
256,192,29971,1,2,0:0:0:0:
256,192,30165,1,0,0:0:0:0:
256,192,30261,1,2,0:0:0:0:
256,192,30358,1,0,0:0:0:0:
256,192,30552,1,0,0:0:0:0:
256,192,30745,1,2,0:0:0:0:
256,192,30939,1,0,0:0:0:0:
256,192,31132,1,2,0:0:0:0:
256,192,31390,1,0,0:0:0:0:
256,192,31519,1,2,0:0:0:0:
256,192,31777,1,2,0:0:0:0:
256,192,31906,1,2,0:0:0:0:
256,192,32294,1,2,0:0:0:0:
256,192,32552,1,0,0:0:0:0:
256,192,32681,1,2,0:0:0:0:
256,192,32810,1,0,0:0:0:0:
256,192,32939,1,0,0:0:0:0:
256,192,33068,1,2,0:0:0:0:
256,192,33197,1,2,0:0:0:0:
256,192,33326,1,0,0:0:0:0:
256,192,33455,1,2,0:0:0:0:
256,192,33584,1,2,0:0:0:0:
256,192,33713,1,2,0:0:0:0:
256,192,33842,1,0,0:0:0:0:
256,192,34035,1,0,0:0:0:0:
256,192,34229,1,2,0:0:0:0:
256,192,34326,1,0,0:0:0:0:
256,192,34423,1,2,0:0:0:0:
256,192,34519,1,0,0:0:0:0:
256,192,34616,1,2,0:0:0:0:
256,192,34713,1,2,0:0:0:0:
256,192,34810,1,0,0:0:0:0:
256,192,35003,1,0,0:0:0:0:
256,192,35132,1,0,0:0:0:0:
256,192,35261,1,2,0:0:0:0:
256,192,35390,1,0,0:0:0:0:
256,192,35584,1,2,0:0:0:0:
256,192,35681,1,0,0:0:0:0:
256,192,35777,1,2,0:0:0:0:
256,192,35874,1,2,0:0:0:0:
256,192,35971,1,0,0:0:0:0:
256,192,36068,1,0,0:0:0:0:
256,192,36165,1,2,0:0:0:0:
256,192,36358,1,0,0:0:0:0:
256,192,36552,1,2,0:0:0:0:
256,192,36648,1,2,0:0:0:0:
256,192,36745,1,0,0:0:0:0:
256,192,36842,1,0,0:0:0:0:
256,192,36939,1,2,0:0:0:0:
256,192,37035,1,2,0:0:0:0:
256,192,37132,1,0,0:0:0:0:
256,192,37326,1,2,0:0:0:0:
256,192,37455,1,0,0:0:0:0:
256,192,37584,1,0,0:0:0:0:
256,192,37713,1,2,0:0:0:0:
256,192,37810,1,2,0:0:0:0:
256,192,37906,1,0,0:0:0:0:
256,192,38003,1,2,0:0:0:0:
256,192,38100,1,2,0:0:0:0:
256,192,38197,1,2,0:0:0:0:
256,192,38294,1,0,0:0:0:0:
256,192,38390,1,0,0:0:0:0:
256,192,38487,1,2,0:0:0:0:
256,192,38681,1,0,0:0:0:0:
256,192,38874,1,2,0:0:0:0:
256,192,39068,1,0,0:0:0:0:
256,192,39165,1,2,0:0:0:0:
256,192,39261,1,2,0:0:0:0:
256,192,39390,1,0,0:0:0:0:
256,192,39519,1,2,0:0:0:0:
256,192,39648,1,0,0:0:0:0:
256,192,39745,1,2,0:0:0:0:
256,192,39842,1,0,0:0:0:0:
256,192,39939,1,2,0:0:0:0:
256,192,40035,1,0,0:0:0:0:
256,192,40132,1,2,0:0:0:0:
256,192,40229,1,0,0:0:0:0:
256,192,40294,1,2,0:0:0:0:
256,192,40358,1,0,0:0:0:0:
256,192,40423,1,2,0:0:0:0:
256,192,40487,1,0,0:0:0:0:
256,192,40552,1,2,0:0:0:0:
256,192,40616,1,0,0:0:0:0:
256,192,40713,1,2,0:0:0:0:
256,192,40810,1,0,0:0:0:0:
256,192,41003,1,0,0:0:0:0:
256,192,41197,1,2,0:0:0:0:
256,192,41390,1,0,0:0:0:0:
256,192,41584,1,2,0:0:0:0:
256,192,41874,1,2,0:0:0:0:
256,192,41975,1,0,0:0:0:0:
256,192,42168,1,0,0:0:0:0:
256,192,42362,1,2,0:0:0:0:
256,192,42555,1,2,0:0:0:0:
256,192,42620,1,0,0:0:0:0:
256,192,42684,1,2,0:0:0:0:
256,192,42749,1,2,0:0:0:0:
256,192,42942,1,0,0:0:0:0:
256,192,43136,1,2,0:0:0:0:
256,192,43329,1,2,0:0:0:0:
256,192,43394,1,2,0:0:0:0:
256,192,43458,1,0,0:0:0:0:
256,192,43523,1,2,0:0:0:0:
256,192,43652,1,2,0:0:0:0:
256,192,43781,1,2,0:0:0:0:
256,192,43910,1,0,0:0:0:0:
256,192,44039,1,0,0:0:0:0:
256,192,44168,1,2,0:0:0:0:
256,192,44297,1,0,0:0:0:0:
256,192,44362,1,0,0:0:0:0:
256,192,44426,1,0,0:0:0:0:
256,192,44491,1,2,0:0:0:0:
256,192,44555,1,2,0:0:0:0:
256,192,44620,1,0,0:0:0:0:
256,192,44684,1,2,0:0:0:0:
256,192,44749,1,2,0:0:0:0:
256,192,44813,1,0,0:0:0:0:
256,192,44878,1,2,0:0:0:0:
256,192,44942,1,0,0:0:0:0:
256,192,45007,1,0,0:0:0:0:
256,192,45071,1,6,0:0:0:0:
256,192,45264,1,0,0:0:0:0:
256,192,45361,1,0,0:0:0:0:
256,192,45458,1,2,0:0:0:0:
256,192,45651,1,0,0:0:0:0:
256,192,45845,1,2,0:0:0:0:
256,192,46038,1,0,0:0:0:0:
256,192,46232,1,2,0:0:0:0:
256,192,46425,1,2,0:0:0:0:
256,192,46522,1,2,0:0:0:0:
256,192,46619,1,0,0:0:0:0:
256,192,46812,1,2,0:0:0:0:
256,192,47006,1,2,0:0:0:0:
256,192,47103,1,0,0:0:0:0:
256,192,47200,1,2,0:0:0:0:
256,192,47296,1,2,0:0:0:0:
256,192,47393,1,0,0:0:0:0:
256,192,47587,1,2,0:0:0:0:
256,192,47780,1,2,0:0:0:0:
256,192,47845,1,2,0:0:0:0:
256,192,47909,1,2,0:0:0:0:
256,192,47974,1,0,0:0:0:0:
256,192,48167,1,2,0:0:0:0:
256,192,48361,1,0,0:0:0:0:
256,192,48458,1,2,0:0:0:0:
256,192,48554,1,0,0:0:0:0:
256,192,48748,1,2,0:0:0:0:
256,192,48941,1,0,0:0:0:0:
256,192,49038,1,0,0:0:0:0:
256,192,49135,1,2,0:0:0:0:
256,192,49329,1,2,0:0:0:0:
256,192,49522,1,0,0:0:0:0:
256,192,49619,1,2,0:0:0:0:
256,192,49716,1,0,0:0:0:0:
256,192,49909,1,2,0:0:0:0:
256,192,50006,1,0,0:0:0:0:
256,192,50103,1,2,0:0:0:0:
256,192,50200,1,0,0:0:0:0:
256,192,50296,1,2,0:0:0:0:
256,192,50393,1,2,0:0:0:0:
256,192,50490,1,0,0:0:0:0:
256,192,50683,1,2,0:0:0:0:
256,192,50780,1,2,0:0:0:0:
256,192,50877,1,0,0:0:0:0:
256,192,50974,1,2,0:0:0:0:
256,192,51167,1,2,0:0:0:0:
256,192,51264,1,4,0:0:0:0:
256,192,51458,1,2,0:0:0:0:
256,192,51554,1,2,0:0:0:0:
256,192,51651,1,0,0:0:0:0:
256,192,51716,1,0,0:0:0:0:
256,192,51780,1,0,0:0:0:0:
256,192,51845,1,2,0:0:0:0:
256,192,51909,1,0,0:0:0:0:
256,192,51974,1,0,0:0:0:0:
256,192,52038,1,2,0:0:0:0:
256,192,52103,1,2,0:0:0:0:
256,192,52167,1,2,0:0:0:0:
256,192,52232,1,0,0:0:0:0:
256,192,52296,1,0,0:0:0:0:
256,192,52361,1,0,0:0:0:0:
256,192,52425,1,2,0:0:0:0:
256,192,52619,1,0,0:0:0:0:
256,192,52812,1,2,0:0:0:0:
256,192,52941,1,0,0:0:0:0:
256,192,53006,1,2,0:0:0:0:
256,192,53071,1,0,0:0:0:0:
256,192,53200,1,2,0:0:0:0:
256,192,53329,1,2,0:0:0:0:
256,192,53393,1,2,0:0:0:0:
256,192,53458,1,0,0:0:0:0:
256,192,53587,1,2,0:0:0:0:
256,192,53716,1,0,0:0:0:0:
256,192,53780,1,0,0:0:0:0:
256,192,53845,1,2,0:0:0:0:
256,192,53974,1,0,0:0:0:0:
256,192,54038,1,0,0:0:0:0:
256,192,54103,1,2,0:0:0:0:
256,192,54167,1,0,0:0:0:0:
256,192,54232,1,2,0:0:0:0:
256,192,54361,1,2,0:0:0:0:
256,192,54554,1,0,0:0:0:0:
256,192,54748,1,0,0:0:0:0:
256,192,54812,1,2,0:0:0:0:
256,192,54877,1,0,0:0:0:0:
256,192,54941,1,2,0:0:0:0:
256,192,55006,1,2,0:0:0:0:
256,192,55071,1,0,0:0:0:0:
256,192,55135,1,2,0:0:0:0:
256,192,55264,1,2,0:0:0:0:
256,192,55329,1,2,0:0:0:0:
256,192,55393,1,0,0:0:0:0:
256,192,55522,1,2,0:0:0:0:
256,192,55651,1,0,0:0:0:0:
256,192,55716,1,2,0:0:0:0:
256,192,55780,1,2,0:0:0:0:
256,192,55909,1,0,0:0:0:0:
256,192,56038,1,2,0:0:0:0:
256,192,56167,1,2,0:0:0:0:
256,192,56296,1,0,0:0:0:0:
256,192,56425,1,0,0:0:0:0:
256,192,56554,1,2,0:0:0:0:
256,192,56683,1,0,0:0:0:0:
256,192,56748,1,0,0:0:0:0:
256,192,56812,1,0,0:0:0:0:
256,192,56877,1,2,0:0:0:0:
256,192,56941,1,2,0:0:0:0:
256,192,57006,1,0,0:0:0:0:
256,192,57071,1,2,0:0:0:0:
256,192,57135,1,2,0:0:0:0:
256,192,57200,1,2,0:0:0:0:
256,192,57264,1,0,0:0:0:0:
256,192,57329,1,0,0:0:0:0:
256,192,57393,1,0,0:0:0:0:
256,192,57458,1,6,0:0:0:0:
256,192,57651,1,2,0:0:0:0:
256,192,57748,1,0,0:0:0:0:
256,192,57845,1,2,0:0:0:0:
256,192,58038,1,0,0:0:0:0:
256,192,58232,1,2,0:0:0:0:
256,192,58425,1,0,0:0:0:0:
256,192,58619,1,2,0:0:0:0:
256,192,58812,1,2,0:0:0:0:
256,192,58909,1,2,0:0:0:0:
256,192,59006,1,0,0:0:0:0:
256,192,59200,1,2,0:0:0:0:
256,192,59393,1,2,0:0:0:0:
256,192,59490,1,0,0:0:0:0:
256,192,59587,1,2,0:0:0:0:
256,192,59683,1,2,0:0:0:0:
256,192,59780,1,0,0:0:0:0:
256,192,59974,1,2,0:0:0:0:
256,192,60167,1,2,0:0:0:0:
256,192,60232,1,2,0:0:0:0:
256,192,60296,1,2,0:0:0:0:
256,192,60361,1,0,0:0:0:0:
256,192,60554,1,2,0:0:0:0:
256,192,60748,1,0,0:0:0:0:
256,192,60845,1,2,0:0:0:0:
256,192,60941,1,0,0:0:0:0:
256,192,61135,1,2,0:0:0:0:
256,192,61329,1,0,0:0:0:0:
256,192,61425,1,0,0:0:0:0:
256,192,61522,1,2,0:0:0:0:
256,192,61716,1,2,0:0:0:0:
256,192,61909,1,0,0:0:0:0:
256,192,62006,1,2,0:0:0:0:
256,192,62103,1,2,0:0:0:0:
256,192,62296,1,2,0:0:0:0:
256,192,62393,1,0,0:0:0:0:
256,192,62490,1,0,0:0:0:0:
256,192,62587,1,2,0:0:0:0:
256,192,62683,1,2,0:0:0:0:
256,192,62780,1,2,0:0:0:0:
256,192,62877,1,0,0:0:0:0:
256,192,62974,1,0,0:0:0:0:
256,192,63071,1,2,0:0:0:0:
256,192,63167,1,2,0:0:0:0:
256,192,63264,1,0,0:0:0:0:
256,192,63361,1,2,0:0:0:0:
256,192,63554,1,2,0:0:0:0:
256,192,63651,1,4,0:0:0:0:
256,192,63845,1,2,0:0:0:0:
256,192,63941,1,2,0:0:0:0:
256,192,64038,1,0,0:0:0:0:
256,192,64103,1,0,0:0:0:0:
256,192,64167,1,0,0:0:0:0:
256,192,64232,1,2,0:0:0:0:
256,192,64296,1,2,0:0:0:0:
256,192,64361,1,0,0:0:0:0:
256,192,64425,1,2,0:0:0:0:
256,192,64490,1,2,0:0:0:0:
256,192,64554,1,2,0:0:0:0:
256,192,64619,1,0,0:0:0:0:
256,192,64683,1,0,0:0:0:0:
256,192,64748,1,0,0:0:0:0:
256,192,64812,1,2,0:0:0:0:
256,192,65006,1,0,0:0:0:0:
256,192,65200,1,2,0:0:0:0:
256,192,65329,1,0,0:0:0:0:
256,192,65393,1,2,0:0:0:0:
256,192,65458,1,0,0:0:0:0:
256,192,65587,1,2,0:0:0:0:
256,192,65716,1,2,0:0:0:0:
256,192,65780,1,2,0:0:0:0:
256,192,65845,1,0,0:0:0:0:
256,192,65974,1,2,0:0:0:0:
256,192,66103,1,0,0:0:0:0:
256,192,66167,1,0,0:0:0:0:
256,192,66232,1,2,0:0:0:0:
256,192,66361,1,0,0:0:0:0:
256,192,66425,1,0,0:0:0:0:
256,192,66490,1,2,0:0:0:0:
256,192,66554,1,0,0:0:0:0:
256,192,66619,1,2,0:0:0:0:
256,192,66748,1,2,0:0:0:0:
256,192,66845,1,0,0:0:0:0:
256,192,66941,1,2,0:0:0:0:
256,192,67038,1,2,0:0:0:0:
256,192,67135,1,0,0:0:0:0:
256,192,67200,1,2,0:0:0:0:
256,192,67264,1,0,0:0:0:0:
256,192,67329,1,0,0:0:0:0:
256,192,67393,1,2,0:0:0:0:
256,192,67458,1,0,0:0:0:0:
256,192,67522,1,2,0:0:0:0:
256,192,67651,1,2,0:0:0:0:
256,192,67716,1,2,0:0:0:0:
256,192,67780,1,0,0:0:0:0:
256,192,67909,1,2,0:0:0:0:
256,192,68038,1,0,0:0:0:0:
256,192,68103,1,2,0:0:0:0:
256,192,68167,1,0,0:0:0:0:
256,192,68296,1,2,0:0:0:0:
256,192,68393,1,0,0:0:0:0:
256,192,68490,1,2,0:0:0:0:
256,192,68587,1,2,0:0:0:0:
256,192,68683,1,0,0:0:0:0:
256,192,68780,1,2,0:0:0:0:
256,192,68877,1,0,0:0:0:0:
256,192,68974,1,0,0:0:0:0:
256,192,69071,1,2,0:0:0:0:
256,192,69200,1,0,0:0:0:0:
256,192,69329,1,2,0:0:0:0:
256,192,69458,1,0,0:0:0:0:
256,192,69522,1,0,0:0:0:0:
256,192,69587,1,2,0:0:0:0:
256,192,69651,1,0,0:0:0:0:
256,192,69716,1,2,0:0:0:0:
256,192,69845,1,0,0:0:0:0:
256,192,70038,1,0,0:0:0:0:
256,192,70232,1,2,0:0:0:0:
256,192,70425,1,0,0:0:0:0:
256,192,70619,1,2,0:0:0:0:
256,192,71006,1,2,0:0:0:0:
256,192,71200,1,0,0:0:0:0:
256,192,71393,1,2,0:0:0:0:
256,192,71587,1,2,0:0:0:0:
256,192,71780,1,2,0:0:0:0:
256,192,71877,1,0,0:0:0:0:
256,192,71974,1,2,0:0:0:0:
256,192,72071,1,2,0:0:0:0:
256,192,72167,1,2,0:0:0:0:
256,192,72361,1,0,0:0:0:0:
256,192,72425,1,2,0:0:0:0:
256,192,72490,1,2,0:0:0:0:
256,192,72554,1,0,0:0:0:0:
256,192,72748,1,2,0:0:0:0:
256,192,72941,1,0,0:0:0:0:
256,192,73135,1,0,0:0:0:0:
256,192,73329,1,2,0:0:0:0:
256,192,73522,1,0,0:0:0:0:
256,192,73716,1,2,0:0:0:0:
256,192,73909,1,0,0:0:0:0:
256,192,73974,1,2,0:0:0:0:
256,192,74038,1,2,0:0:0:0:
256,192,74103,1,0,0:0:0:0:
256,192,74296,1,0,0:0:0:0:
256,192,74490,1,2,0:0:0:0:
256,192,74683,1,0,0:0:0:0:
256,192,74877,1,2,0:0:0:0:
256,192,75071,1,2,0:0:0:0:
256,192,75264,1,0,0:0:0:0:
256,192,75458,1,0,0:0:0:0:
256,192,75522,1,2,0:0:0:0:
256,192,75587,1,2,0:0:0:0:
256,192,75651,1,0,0:0:0:0:
256,192,75716,1,2,0:0:0:0:
256,192,75780,1,0,0:0:0:0:
256,192,75845,1,2,0:0:0:0:
256,192,76038,1,0,0:0:0:0:
256,192,76232,1,2,0:0:0:0:
256,192,76425,1,0,0:0:0:0:
256,192,76490,1,2,0:0:0:0:
256,192,76554,1,2,0:0:0:0:
256,192,76619,1,0,0:0:0:0:
256,192,76812,1,2,0:0:0:0:
256,192,77006,1,0,0:0:0:0:
256,192,77200,1,2,0:0:0:0:
256,192,77393,1,0,0:0:0:0:
256,192,77587,1,2,0:0:0:0:
256,192,77780,1,0,0:0:0:0:
256,192,77974,1,2,0:0:0:0:
256,192,78167,1,2,0:0:0:0:
256,192,78361,1,0,0:0:0:0:
256,192,78554,1,0,0:0:0:0:
256,192,78619,1,2,0:0:0:0:
256,192,78683,1,0,0:0:0:0:
256,192,78748,1,2,0:0:0:0:
256,192,78812,1,2,0:0:0:0:
256,192,78877,1,0,0:0:0:0:
256,192,78941,1,2,0:0:0:0:
256,192,79135,1,0,0:0:0:0:
256,192,79329,1,2,0:0:0:0:
256,192,79393,1,2,0:0:0:0:
256,192,79458,1,0,0:0:0:0:
256,192,79522,1,2,0:0:0:0:
256,192,79716,1,0,0:0:0:0:
256,192,79909,1,2,0:0:0:0:
256,192,80103,1,0,0:0:0:0:
256,192,80296,1,2,0:0:0:0:
256,192,80361,1,2,0:0:0:0:
256,192,80425,1,2,0:0:0:0:
256,192,80490,1,0,0:0:0:0:
256,192,80683,1,0,0:0:0:0:
256,192,80877,1,2,0:0:0:0:
256,192,81071,1,0,0:0:0:0:
256,192,81264,1,2,0:0:0:0:
256,192,81458,1,0,0:0:0:0:
256,192,81587,1,0,0:0:0:0:
256,192,81716,1,2,0:0:0:0:
256,192,81845,1,0,0:0:0:0:
256,192,81974,1,2,0:0:0:0:
256,192,82103,1,2,0:0:0:0:
256,192,82232,1,0,0:0:0:0:
256,192,82296,1,0,0:0:0:0:
256,192,82361,1,0,0:0:0:0:
256,192,82425,1,2,0:0:0:0:
256,192,82490,1,2,0:0:0:0:
256,192,82554,1,0,0:0:0:0:
256,192,82619,1,2,0:0:0:0:
256,192,83006,1,0,0:0:0:0:
256,192,83071,1,0,0:0:0:0:
256,192,83135,1,2,0:0:0:0:
256,192,83200,1,2,0:0:0:0:
256,192,83264,1,2,0:0:0:0:
256,192,83780,1,0,0:0:0:0:
256,192,83845,1,0,0:0:0:0:
256,192,83909,1,0,0:0:0:0:
256,192,83974,1,2,0:0:0:0:
256,192,84038,1,2,0:0:0:0:
256,192,84361,1,0,0:0:0:0:
256,192,84554,1,0,0:0:0:0:
256,192,85329,1,6,0:0:0:0:
256,192,85522,1,0,0:0:0:0:
256,192,85716,1,2,0:0:0:0:
256,192,85909,1,2,0:0:0:0:
256,192,86103,1,0,0:0:0:0:
256,192,86296,1,0,0:0:0:0:
256,192,86393,1,0,0:0:0:0:
256,192,86490,1,2,0:0:0:0:
256,192,86683,1,2,0:0:0:0:
256,192,86780,1,0,0:0:0:0:
256,192,86877,1,0,0:0:0:0:
256,192,87070,1,0,0:0:0:0:
256,192,87264,1,2,0:0:0:0:
256,192,87458,1,0,0:0:0:0:
256,192,87651,1,2,0:0:0:0:
256,192,87845,1,2,0:0:0:0:
256,192,88038,1,0,0:0:0:0:
256,192,88232,1,0,0:0:0:0:
256,192,88296,1,2,0:0:0:0:
256,192,88361,1,2,0:0:0:0:
256,192,88425,1,2,0:0:0:0:
256,192,88619,1,0,0:0:0:0:
256,192,88812,1,2,0:0:0:0:
256,192,89006,1,2,0:0:0:0:
256,192,89199,1,0,0:0:0:0:
256,192,89393,1,0,0:0:0:0:
256,192,89587,1,2,0:0:0:0:
256,192,89780,1,0,0:0:0:0:
256,192,89877,1,0,0:0:0:0:
256,192,89974,1,2,0:0:0:0:
256,192,90167,1,0,0:0:0:0:
256,192,90264,1,0,0:0:0:0:
256,192,90361,1,2,0:0:0:0:
256,192,90554,1,2,0:0:0:0:
256,192,90651,1,0,0:0:0:0:
256,192,90748,1,2,0:0:0:0:
256,192,90941,1,0,0:0:0:0:
256,192,91038,1,0,0:0:0:0:
256,192,91135,1,2,0:0:0:0:
256,192,91232,1,2,0:0:0:0:
256,192,91329,1,0,0:0:0:0:
256,192,91425,1,2,0:0:0:0:
256,192,91522,1,4,0:0:0:0:
256,192,91716,1,0,0:0:0:0:
256,192,91909,1,2,0:0:0:0:
256,192,92103,1,2,0:0:0:0:
256,192,92296,1,0,0:0:0:0:
256,192,92490,1,0,0:0:0:0:
256,192,92683,1,2,0:0:0:0:
256,192,92748,1,0,0:0:0:0:
256,192,92812,1,0,0:0:0:0:
256,192,92877,1,2,0:0:0:0:
256,192,92941,1,2,0:0:0:0:
256,192,93006,1,0,0:0:0:0:
256,192,93070,1,2,0:0:0:0:
256,192,93264,1,0,0:0:0:0:
256,192,93361,1,0,0:0:0:0:
256,192,93458,1,2,0:0:0:0:
256,192,93651,1,2,0:0:0:0:
256,192,93845,1,0,0:0:0:0:
256,192,94038,1,2,0:0:0:0:
256,192,94232,1,2,0:0:0:0:
256,192,94425,1,0,0:0:0:0:
256,192,94619,1,2,0:0:0:0:
256,192,94812,1,2,0:0:0:0:
256,192,95006,1,2,0:0:0:0:
256,192,95199,1,0,0:0:0:0:
256,192,95393,1,0,0:0:0:0:
256,192,95587,1,2,0:0:0:0:
256,192,95780,1,2,0:0:0:0:
256,192,95974,1,0,0:0:0:0:
256,192,96167,1,2,0:0:0:0:
256,192,96361,1,0,0:0:0:0:
256,192,96554,1,2,0:0:0:0:
256,192,96748,1,0,0:0:0:0:
256,192,96941,1,2,0:0:0:0:
256,192,97135,1,2,0:0:0:0:
256,192,97232,1,2,0:0:0:0:
256,192,97329,1,2,0:0:0:0:
256,192,97425,1,2,0:0:0:0:
256,192,97619,1,2,0:0:0:0:
256,192,97716,1,0,0:0:0:0:
256,192,97909,1,0,0:0:0:0:
256,192,98103,1,2,0:0:0:0:
256,192,98296,1,0,0:0:0:0:
256,192,98490,1,2,0:0:0:0:
256,192,98683,1,2,0:0:0:0:
256,192,98877,1,2,0:0:0:0:
256,192,99070,1,0,0:0:0:0:
256,192,99264,1,0,0:0:0:0:
256,192,99458,1,0,0:0:0:0:
256,192,99651,1,2,0:0:0:0:
256,192,99845,1,0,0:0:0:0:
256,192,100038,1,0,0:0:0:0:
256,192,100812,1,0,0:0:0:0:
256,192,101006,1,2,0:0:0:0:
256,192,101199,1,2,0:0:0:0:
256,192,101393,1,0,0:0:0:0:
256,192,101587,1,2,0:0:0:0:
256,192,101780,1,0,0:0:0:0:
256,192,101845,1,2,0:0:0:0:
256,192,101909,1,2,0:0:0:0:
256,192,101974,1,0,0:0:0:0:
256,192,102167,1,0,0:0:0:0:
256,192,102362,1,2,0:0:0:0:
256,192,103136,1,0,0:0:0:0:
256,192,103329,1,0,0:0:0:0:
256,192,103523,1,2,0:0:0:0:
256,192,103716,1,2,0:0:0:0:
256,192,103910,1,0,0:0:0:0:
256,192,104684,1,2,0:0:0:0:
256,192,105071,1,2,0:0:0:0:
256,192,105458,1,0,0:0:0:0:
256,192,105845,1,2,0:0:0:0:
256,192,106039,1,0,0:0:0:0:
256,192,106426,1,0,0:0:0:0:
256,192,106813,1,0,0:0:0:0:
256,192,107007,1,2,0:0:0:0:
256,192,107974,1,0,0:0:0:0:
256,192,108168,1,2,0:0:0:0:
256,192,108362,1,2,0:0:0:0:
256,192,108555,1,0,0:0:0:0:
256,192,109716,1,0,0:0:0:0:
256,192,109910,1,0,0:0:0:0:
256,192,110103,1,2,0:0:0:0:
256,192,110491,1,0,0:0:0:0:
256,192,110878,1,0,0:0:0:0:
256,192,111265,1,2,0:0:0:0:
256,192,111652,1,2,0:0:0:0:
256,192,112039,1,2,0:0:0:0:
256,192,112426,1,0,0:0:0:0:
256,192,112813,1,0,0:0:0:0:
256,192,113200,1,2,0:0:0:0:
256,192,113781,1,2,0:0:0:0:
256,192,113878,1,2,0:0:0:0:
256,192,113974,1,2,0:0:0:0:
256,192,114749,1,0,0:0:0:0:
256,192,114845,1,0,0:0:0:0:
256,192,114942,1,2,0:0:0:0:
256,192,115039,1,2,0:0:0:0:
256,192,115136,1,0,0:0:0:0:
256,192,115232,1,2,0:0:0:0:
256,192,115329,1,0,0:0:0:0:
256,192,115426,1,0,0:0:0:0:
256,192,115523,1,2,0:0:0:0:
256,192,115620,1,2,0:0:0:0:
256,192,115716,1,0,0:0:0:0:
256,192,115813,1,2,0:0:0:0:
256,192,115910,1,0,0:0:0:0:
256,192,116007,1,0,0:0:0:0:
256,192,116103,1,2,0:0:0:0:
256,192,116200,1,2,0:0:0:0:
256,192,116297,1,4,0:0:0:0:
256,192,116587,1,0,0:0:0:0:
256,192,116684,1,2,0:0:0:0:
256,192,116781,1,0,0:0:0:0:
256,192,116878,1,2,0:0:0:0:
256,192,116974,1,2,0:0:0:0:
256,192,117071,1,0,0:0:0:0:
256,192,117265,1,0,0:0:0:0:
256,192,117362,1,0,0:0:0:0:
256,192,117458,1,2,0:0:0:0:
256,192,117652,1,2,0:0:0:0:
256,192,117845,1,0,0:0:0:0:
256,192,118039,1,2,0:0:0:0:
256,192,118136,1,0,0:0:0:0:
256,192,118232,1,2,0:0:0:0:
256,192,118426,1,0,0:0:0:0:
256,192,118620,1,2,0:0:0:0:
256,192,118813,1,2,0:0:0:0:
256,192,119007,1,0,0:0:0:0:
256,192,119200,1,2,0:0:0:0:
256,192,119297,1,2,0:0:0:0:
256,192,119394,1,2,0:0:0:0:
256,192,119587,1,0,0:0:0:0:
256,192,119684,1,2,0:0:0:0:
256,192,119781,1,0,0:0:0:0:
256,192,119878,1,2,0:0:0:0:
256,192,119974,1,2,0:0:0:0:
256,192,120168,1,2,0:0:0:0:
256,192,120265,1,2,0:0:0:0:
256,192,120361,1,0,0:0:0:0:
256,192,120458,1,2,0:0:0:0:
256,192,120555,1,0,0:0:0:0:
256,192,120652,1,0,0:0:0:0:
256,192,120749,1,2,0:0:0:0:
256,192,120813,1,0,0:0:0:0:
256,192,120878,1,0,0:0:0:0:
256,192,120942,1,6,0:0:0:0:
256,192,121136,1,0,0:0:0:0:
256,192,121232,1,0,0:0:0:0:
256,192,121329,1,2,0:0:0:0:
256,192,121394,1,0,0:0:0:0:
256,192,121458,1,0,0:0:0:0:
256,192,121523,1,2,0:0:0:0:
256,192,121587,1,0,0:0:0:0:
256,192,121652,1,2,0:0:0:0:
256,192,121716,1,2,0:0:0:0:
256,192,121781,1,2,0:0:0:0:
256,192,121845,1,0,0:0:0:0:
256,192,121910,1,2,0:0:0:0:
256,192,121974,1,2,0:0:0:0:
256,192,122039,1,0,0:0:0:0:
256,192,122103,1,2,0:0:0:0:
256,192,122297,1,0,0:0:0:0:
256,192,122491,1,2,0:0:0:0:
256,192,122620,1,0,0:0:0:0:
256,192,122684,1,2,0:0:0:0:
256,192,122749,1,0,0:0:0:0:
256,192,122878,1,2,0:0:0:0:
256,192,123007,1,2,0:0:0:0:
256,192,123071,1,2,0:0:0:0:
256,192,123136,1,0,0:0:0:0:
256,192,123265,1,2,0:0:0:0:
256,192,123394,1,0,0:0:0:0:
256,192,123458,1,0,0:0:0:0:
256,192,123523,1,2,0:0:0:0:
256,192,123652,1,0,0:0:0:0:
256,192,123716,1,0,0:0:0:0:
256,192,123781,1,2,0:0:0:0:
256,192,123845,1,0,0:0:0:0:
256,192,123910,1,2,0:0:0:0:
256,192,124039,1,2,0:0:0:0:
256,192,124136,1,0,0:0:0:0:
256,192,124232,1,2,0:0:0:0:
256,192,124329,1,2,0:0:0:0:
256,192,124426,1,0,0:0:0:0:
256,192,124491,1,2,0:0:0:0:
256,192,124555,1,2,0:0:0:0:
256,192,124684,1,0,0:0:0:0:
256,192,124813,1,2,0:0:0:0:
256,192,124942,1,2,0:0:0:0:
256,192,125071,1,0,0:0:0:0:
256,192,125200,1,2,0:0:0:0:
256,192,125329,1,0,0:0:0:0:
256,192,125458,1,0,0:0:0:0:
256,192,125587,1,2,0:0:0:0:
256,192,125684,1,2,0:0:0:0:
256,192,125781,1,0,0:0:0:0:
256,192,125878,1,0,0:0:0:0:
256,192,125974,1,2,0:0:0:0:
256,192,126071,1,0,0:0:0:0:
256,192,126168,1,2,0:0:0:0:
256,192,126265,1,0,0:0:0:0:
256,192,126362,1,2,0:0:0:0:
256,192,126426,1,2,0:0:0:0:
256,192,126491,1,2,0:0:0:0:
256,192,126555,1,0,0:0:0:0:
256,192,126620,1,0,0:0:0:0:
256,192,126684,1,0,0:0:0:0:
256,192,126749,1,2,0:0:0:0:
256,192,126813,1,2,0:0:0:0:
256,192,126878,1,0,0:0:0:0:
256,192,126942,1,2,0:0:0:0:
256,192,127007,1,0,0:0:0:0:
256,192,127071,1,0,0:0:0:0:
256,192,127136,1,6,0:0:0:0:
256,192,127232,1,0,0:0:0:0:
256,192,127329,1,2,0:0:0:0:
256,192,127426,1,2,0:0:0:0:
256,192,127523,1,0,0:0:0:0:
256,192,127620,1,2,0:0:0:0:
256,192,127716,1,0,0:0:0:0:
256,192,127813,1,0,0:0:0:0:
256,192,127910,1,2,0:0:0:0:
256,192,128007,1,0,0:0:0:0:
256,192,128103,1,2,0:0:0:0:
256,192,128200,1,2,0:0:0:0:
256,192,128297,1,0,0:0:0:0:
256,192,128394,1,0,0:0:0:0:
256,192,128491,1,2,0:0:0:0:
256,192,128587,1,0,0:0:0:0:
256,192,128684,1,2,0:0:0:0:
256,192,128781,1,2,0:0:0:0:
256,192,128878,1,2,0:0:0:0:
256,192,128974,1,2,0:0:0:0:
256,192,129071,1,0,0:0:0:0:
256,192,129168,1,0,0:0:0:0:
256,192,129265,1,2,0:0:0:0:
256,192,129362,1,2,0:0:0:0:
256,192,129458,1,0,0:0:0:0:
256,192,129555,1,2,0:0:0:0:
256,192,129652,1,0,0:0:0:0:
256,192,129749,1,2,0:0:0:0:
256,192,129845,1,0,0:0:0:0:
256,192,129942,1,2,0:0:0:0:
256,192,129991,1,2,0:0:0:0:
256,192,130039,1,0,0:0:0:0:
256,192,130136,1,0,0:0:0:0:
256,192,130184,1,2,0:0:0:0:
256,192,130232,1,0,0:0:0:0:
256,192,130329,1,0,0:0:0:0:
256,192,130426,1,2,0:0:0:0:
256,192,130491,1,2,0:0:0:0:
256,192,130555,1,0,0:0:0:0:
256,192,130620,1,2,0:0:0:0:
256,192,130813,1,2,0:0:0:0:
256,192,130878,1,0,0:0:0:0:
256,192,130942,1,2,0:0:0:0:
256,192,131007,1,0,0:0:0:0:
256,192,131055,1,0,0:0:0:0:
256,192,131103,1,2,0:0:0:0:
256,192,131152,1,0,0:0:0:0:
256,192,131200,1,2,0:0:0:0:
256,192,131249,1,2,0:0:0:0:
256,192,131297,1,0,0:0:0:0:
256,192,131345,1,0,0:0:0:0:
256,192,131394,1,2,0:0:0:0:
256,192,131491,1,2,0:0:0:0:
256,192,131587,1,0,0:0:0:0:
256,192,131684,1,2,0:0:0:0:
256,192,131781,1,0,0:0:0:0:
256,192,131878,1,0,0:0:0:0:
256,192,131974,1,2,0:0:0:0:
256,192,132071,1,0,0:0:0:0:
256,192,132168,1,0,0:0:0:0:
256,192,132265,1,2,0:0:0:0:
256,192,132362,1,0,0:0:0:0:
256,192,132458,1,0,0:0:0:0:
256,192,132555,1,2,0:0:0:0:
256,192,132620,1,2,0:0:0:0:
256,192,132684,1,0,0:0:0:0:
256,192,132749,1,2,0:0:0:0:
256,192,132845,1,0,0:0:0:0:
256,192,132942,1,2,0:0:0:0:
256,192,133039,1,2,0:0:0:0:
256,192,133232,1,2,0:0:0:0:
256,192,133329,1,4,0:0:0:0:
256,192,133523,1,0,0:0:0:0:
256,192,133620,1,0,0:0:0:0:
256,192,133716,1,2,0:0:0:0:
256,192,133781,1,0,0:0:0:0:
256,192,133845,1,0,0:0:0:0:
256,192,133910,1,2,0:0:0:0:
256,192,133974,1,2,0:0:0:0:
256,192,134039,1,0,0:0:0:0:
256,192,134103,1,2,0:0:0:0:
256,192,134297,1,2,0:0:0:0:
256,192,134362,1,2,0:0:0:0:
256,192,134426,1,0,0:0:0:0:
256,192,134491,1,2,0:0:0:0:
256,192,134684,1,2,0:0:0:0:
256,192,134878,1,2,0:0:0:0:
256,192,135071,1,2,0:0:0:0:
256,192,135136,1,2,0:0:0:0:
256,192,135200,1,0,0:0:0:0:
256,192,135265,1,2,0:0:0:0:
256,192,135458,1,2,0:0:0:0:
256,192,135523,1,0,0:0:0:0:
256,192,135587,1,2,0:0:0:0:
256,192,135652,1,2,0:0:0:0:
256,192,135781,1,0,0:0:0:0:
256,192,135845,1,0,0:0:0:0:
256,192,135910,1,2,0:0:0:0:
256,192,136039,1,0,0:0:0:0:
256,192,136168,1,2,0:0:0:0:
256,192,136232,1,2,0:0:0:0:
256,192,136297,1,0,0:0:0:0:
256,192,136426,1,2,0:0:0:0:
256,192,136555,1,2,0:0:0:0:
256,192,136684,1,2,0:0:0:0:
256,192,136813,1,0,0:0:0:0:
256,192,136942,1,2,0:0:0:0:
256,192,137071,1,2,0:0:0:0:
256,192,137200,1,0,0:0:0:0:
256,192,137329,1,0,0:0:0:0:
256,192,137458,1,2,0:0:0:0:
256,192,137587,1,0,0:0:0:0:
256,192,137716,1,2,0:0:0:0:
256,192,137749,1,0,0:0:0:0:
256,192,137845,1,2,0:0:0:0:
256,192,137974,1,2,0:0:0:0:
256,192,138168,1,0,0:0:0:0:
256,192,138232,1,2,0:0:0:0:
256,192,138362,1,0,0:0:0:0:
256,192,138491,1,2,0:0:0:0:
256,192,138620,1,0,0:0:0:0:
256,192,138749,1,2,0:0:0:0:
256,192,138942,1,2,0:0:0:0:
256,192,139039,1,2,0:0:0:0:
256,192,139136,1,0,0:0:0:0:
256,192,139200,1,2,0:0:0:0:
256,192,139265,1,0,0:0:0:0:
256,192,139329,1,2,0:0:0:0:
256,192,139394,1,0,0:0:0:0:
256,192,139458,1,2,0:0:0:0:
256,192,140297,1,4,0:0:0:0:
256,192,140491,12,0,144168,0:0:0:0:
