osu file format v14

[General]
AudioFilename: audio.mp3
AudioLeadIn: 0
PreviewTime: 114357
Countdown: 0
SampleSet: Normal
StackLeniency: 0.7
Mode: 1
LetterboxInBreaks: 0
WidescreenStoryboard: 1

[Editor]
DistanceSpacing: 0.81
BeatDivisor: 6
GridSize: 32
TimelineZoom: 2.899999

[Metadata]
Title:Crescent Sakura
TitleUnicode:Crescent Sakura
Artist:m108
ArtistUnicode:m108
Creator:Antti
Version:Oni
Source:G2R2018 Climax
Tags:fa featured artist mg mpg mappers' guild electronic instrumental -GO BACK 2 TO YOUR ROOTS 2018 climax-
BeatmapID:2981380
BeatmapSetID:1449942

[Difficulty]
HPDrainRate:6
CircleSize:2
OverallDifficulty:5.5
ApproachRate:10
SliderMultiplier:1.4
SliderTickRate:1

[Events]
//Background and Video events
0,0,"pexels-elia-clerici-2004630.jpg",0,-24
//Break Periods
//Storyboard Layer 0 (Background)
//Storyboard Layer 1 (Fail)
//Storyboard Layer 2 (Pass)
//Storyboard Layer 3 (Foreground)
//Storyboard Layer 4 (Overlay)
//Storyboard Sound Samples

[TimingPoints]
164,387.096774193548,3,1,0,80,1,0
3250,-100,3,1,0,90,0,0
4799,-95.2380952380952,3,1,0,90,0,0
22218,-94.7867298578199,3,1,0,90,0,0
22412,-93.9914994087935,3,1,0,90,0,0
22605,-93.2095882839276,3,1,0,90,0,0
22992,-91.6840713595464,3,1,0,90,0,0
23186,-90.9398451112558,3,1,0,90,0,0
39637,-90.9090909090909,3,1,0,90,0,0
39734,-90.703770555742,3,1,0,90,0,0
39831,-90.4994574557526,3,1,0,90,0,0
39928,-90.2959811967649,3,1,0,90,0,0
40024,-90.0934178649842,3,1,0,90,0,0
40218,-89.6910859617306,3,1,0,90,0,0
40412,-89.2923314852797,3,1,0,90,0,0
40508,-89.0942412155306,3,1,0,90,0,0
40605,-88.897106932552,3,1,0,90,0,0
40702,-88.7007644231878,3,1,0,90,0,0
40799,-88.5052873058636,3,1,0,90,0,0
40992,-90.0900900900901,3,1,0,90,0,0
41186,-92.1658986175115,3,1,0,90,0,0
41379,-94.3396226415094,3,1,0,90,0,0
41573,-97.0873786407767,3,1,0,90,0,0
41970,387.096774193548,4,1,0,80,1,0
43314,-95.2380952380952,4,1,0,90,0,0
43411,-94.4916115071885,4,1,0,90,0,0
43508,-93.7567387655988,4,1,0,90,0,0
43766,-91.8518246364964,4,1,0,90,0,0
43895,-90.9281031488402,4,1,0,90,0,0
44024,-90.0228568033424,4,1,0,90,0,0
44282,-88.2652264135455,4,1,0,90,0,0
44379,-87.6236808254852,4,1,0,90,0,0
44476,-86.9913939413974,4,1,0,90,0,0
44572,-86.3681667665658,4,1,0,90,0,0
44669,-85.7538059682934,4,1,0,90,0,0
44863,-84.5509372894153,4,1,0,90,0,0
44960,-83.962069295575,4,1,0,90,0,0
45066,-83.3813470923674,4,1,0,95,0,1
51637,-90.9090909090909,4,1,0,95,0,1
51734,-90.2255910452905,4,1,0,95,0,1
51830,-89.5522120739665,4,1,0,95,0,1
51927,-88.8888888888889,4,1,0,95,0,1
52024,-88.2353200692118,4,1,0,95,0,1
52218,-86.9565217391304,4,1,0,95,0,1
52314,-86.3309600952403,4,1,0,95,0,1
52411,-85.7142612244968,4,1,0,95,0,1
52605,-84.5070660583285,4,1,0,95,0,1
52798,-83.3333333333333,4,1,0,95,0,1
56669,-86.4197530864198,3,1,0,95,0,1
56766,-85.8895705521472,3,1,0,95,0,1
56863,-85.3658536585366,3,1,0,95,0,1
56959,-84.8484848484848,3,1,0,95,0,1
57056,-84.3373493975904,3,1,0,95,0,1
57153,-83.8323353293413,3,1,0,95,0,1
57250,-83.3333333333333,3,1,0,95,0,1
64024,-90.9090909090909,3,1,0,95,0,1
64121,-90.2255910452905,3,1,0,95,0,1
64218,-89.5522120739665,3,1,0,95,0,1
64314,-88.8888888888889,3,1,0,95,0,1
64411,-88.2353200692118,3,1,0,95,0,1
64605,-86.9565217391304,3,1,0,95,0,1
64701,-86.3309600952403,3,1,0,95,0,1
64798,-85.7142612244968,3,1,0,95,0,1
64992,-84.5070660583285,3,1,0,95,0,1
65185,-83.3333333333333,3,1,0,95,0,1
68379,-83.989501312336,3,1,0,95,0,1
68476,-84.6560846560847,3,1,0,95,0,1
68572,-85.3333333333333,3,1,0,95,0,1
68669,-86.0215053763441,3,1,0,95,0,1
68863,-87.431693989071,3,1,0,95,0,1
68959,-88.1542699724518,3,1,0,95,0,1
69056,-88.8888888888889,3,1,0,95,0,1
69250,-90.3954802259887,3,1,0,95,0,1
69443,-91.9540229885058,3,1,0,95,0,1
69572,-93.0232558139535,3,1,0,95,0,1
69701,-94.1176470588235,3,1,0,95,0,1
69840,-95.2380952380952,3,1,0,80,0,0
84347,-83.3333333333333,3,1,0,100,0,0
85314,-90.9090909090909,3,1,0,90,0,0
97121,-90.9090909090909,3,1,0,90,0,0
97218,-91.6030254647251,3,1,0,90,0,0
97314,-92.3077207100679,3,1,0,90,0,0
97411,-93.0232558139535,3,1,0,90,0,0
97508,-93.7499707031342,3,1,0,90,0,0
97701,-95.2380952380952,3,1,0,85,0,0
100798,-95.2380952380952,3,1,0,90,0,0
101766,-95.2380952380952,3,1,0,90,0,0
101863,-95.9894641964098,3,1,0,90,0,0
101959,-96.7527830938057,3,1,0,90,0,0
102153,-98.3165261231926,3,1,0,90,0,0
102347,-99.9315468903801,3,1,0,75,0,0
113766,-95.2380952380952,3,1,0,85,0,0
114734,-90.9090909090909,3,1,0,90,0,0
114830,-90.3954802259887,3,1,0,90,0,0
114927,-89.8876404494382,3,1,0,90,0,0
115024,-89.3854748603352,3,1,0,90,0,0
115121,-88.8888888888889,3,1,0,90,0,0
115314,-87.9120879120879,3,1,0,90,0,0
115508,-86.9565217391304,3,1,0,90,0,0
115701,-86.0215053763441,3,1,0,90,0,0
115798,-85.5614973262032,3,1,0,90,0,0
115895,-85.1063829787234,3,1,0,90,0,0
116089,-84.2105263157895,3,1,0,90,0,0
116292,-83.3333333333333,3,1,0,95,0,1
121314,-80,3,1,0,95,0,1
121411,-80.3978729938721,3,1,0,95,0,1
121508,-80.7996580558471,3,1,0,95,0,1
121605,-81.2055450394375,3,1,0,95,0,1
121701,-81.6154638451657,3,1,0,95,0,1
121895,-82.4479114707306,3,1,0,95,0,1
121992,-82.8705702572551,3,1,0,95,0,1
122089,-83.2975847865291,3,1,0,95,0,1
125572,-83.3333333333333,3,1,0,95,0,1
125669,-83.9860448787829,3,1,0,95,0,1
125766,-84.6491335737933,3,1,0,95,0,1
125863,-85.3227032621429,3,1,0,95,0,1
125959,-86.0071523547898,3,1,0,95,0,1
126153,-87.4094547310804,3,1,0,95,0,1
126250,-88.1278558933301,3,1,0,95,0,1
126347,-88.8581637105037,3,1,0,95,0,1
126540,-90.3557849387749,3,1,0,95,0,1
126734,-91.9047535895699,3,1,0,95,0,1
126830,-92.6993685319016,3,1,0,95,0,1
126927,-93.5077564683991,3,1,0,95,0,1
127131,-95.1676711614358,3,1,0,95,0,0
140292,-95.1676711614358,3,1,0,45,0,0
141066,-90.9090909090909,3,1,0,45,0,0
142615,-86.9565217391304,3,1,0,45,0,0
144163,-83.3333333333333,3,1,0,45,0,0

[HitObjects]
256,192,164,5,8,0:0:0:0:
256,192,293,5,0,0:0:0:0:
256,192,357,5,0,0:0:0:0:
256,192,422,5,8,0:0:0:0:
256,192,938,5,0,0:0:0:0:
256,192,1067,5,8,0:0:0:0:
256,192,1196,5,0,0:0:0:0:
256,192,1325,5,0,0:0:0:0:
256,192,1454,5,8,0:0:0:0:
256,192,1518,5,8,0:0:0:0:
256,192,1583,5,0,0:0:0:0:
256,192,1905,5,8,0:0:0:0:
256,192,2051,5,0,0:0:0:0:
256,192,2196,5,8,0:0:0:0:
256,192,2486,5,8,0:0:0:0:
256,192,2615,5,0,0:0:0:0:
256,192,2744,5,8,0:0:0:0:
256,192,2809,5,8,0:0:0:0:
256,192,2873,5,0,0:0:0:0:
256,192,3260,12,0,4615,0:0:0:0:
256,192,4809,5,0,0:0:0:0:
256,192,5067,5,0,0:0:0:0:
256,192,5196,5,8,0:0:0:0:
256,192,5454,5,0,0:0:0:0:
256,192,5583,5,8,0:0:0:0:
256,192,5776,5,0,0:0:0:0:
256,192,5841,5,8,0:0:0:0:
256,192,5970,5,0,0:0:0:0:
256,192,6228,5,8,0:0:0:0:
256,192,6357,5,8,0:0:0:0:
256,192,6744,5,8,0:0:0:0:
256,192,7131,5,0,0:0:0:0:
256,192,7389,5,8,0:0:0:0:
256,192,7518,5,0,0:0:0:0:
256,192,7712,5,8,0:0:0:0:
256,192,7905,5,8,0:0:0:0:
256,192,8099,5,0,0:0:0:0:
256,192,8293,5,0,0:0:0:0:
256,192,8422,5,0,0:0:0:0:
256,192,8551,5,0,0:0:0:0:
256,192,8680,5,8,0:0:0:0:
256,192,9067,5,8,0:0:0:0:
256,192,9454,5,0,0:0:0:0:
256,192,9712,5,0,0:0:0:0:
256,192,9841,5,8,0:0:0:0:
256,192,10099,5,0,0:0:0:0:
256,192,10228,5,8,0:0:0:0:
256,192,10422,5,0,0:0:0:0:
256,192,10486,5,8,0:0:0:0:
256,192,10615,5,0,0:0:0:0:
256,192,10873,5,0,0:0:0:0:
256,192,11002,5,8,0:0:0:0:
256,192,11389,5,8,0:0:0:0:
256,192,11776,5,0,0:0:0:0:
256,192,12034,5,8,0:0:0:0:
256,192,12163,5,0,0:0:0:0:
256,192,12357,5,8,0:0:0:0:
256,192,12551,5,8,0:0:0:0:
256,192,12744,5,0,0:0:0:0:
256,192,12938,5,8,0:0:0:0:
256,192,13325,5,8,0:0:0:0:
256,192,13712,5,8,0:0:0:0:
256,192,14099,5,0,0:0:0:0:
256,192,14357,5,0,0:0:0:0:
256,192,14486,5,8,0:0:0:0:
256,192,14744,5,0,0:0:0:0:
256,192,14873,5,8,0:0:0:0:
256,192,15067,5,0,0:0:0:0:
256,192,15131,5,8,0:0:0:0:
256,192,15260,5,0,0:0:0:0:
256,192,15518,5,8,0:0:0:0:
256,192,15647,5,8,0:0:0:0:
256,192,16034,5,8,0:0:0:0:
256,192,16422,5,0,0:0:0:0:
256,192,16680,5,8,0:0:0:0:
256,192,16809,5,0,0:0:0:0:
256,192,17002,5,8,0:0:0:0:
256,192,17196,5,8,0:0:0:0:
256,192,17389,5,0,0:0:0:0:
256,192,17583,5,0,0:0:0:0:
256,192,17712,5,0,0:0:0:0:
256,192,17841,5,0,0:0:0:0:
256,192,17970,5,8,0:0:0:0:
256,192,18357,5,8,0:0:0:0:
256,192,18744,5,0,0:0:0:0:
256,192,19002,5,0,0:0:0:0:
256,192,19131,5,8,0:0:0:0:
256,192,19389,5,0,0:0:0:0:
256,192,19518,5,8,0:0:0:0:
256,192,19712,5,0,0:0:0:0:
256,192,19776,5,8,0:0:0:0:
256,192,19905,5,0,0:0:0:0:
256,192,20099,5,8,0:0:0:0:
256,192,20293,5,8,0:0:0:0:
256,192,20551,5,0,0:0:0:0:
256,192,20680,5,8,0:0:0:0:
256,192,21067,5,0,0:0:0:0:
256,192,21260,5,8,0:0:0:0:
256,192,21454,5,8,0:0:0:0:
256,192,21841,5,8,0:0:0:0:
256,192,22034,5,0,0:0:0:0:
256,192,22099,5,8,0:0:0:0:
256,192,22228,5,0,0:0:0:0:
256,192,22422,5,8,0:0:0:0:
256,192,22615,5,8,0:0:0:0:
256,192,23002,5,8,0:0:0:0:
256,192,23196,5,0,0:0:0:0:
256,192,23293,5,0,0:0:0:0:
256,192,23389,5,8,0:0:0:0:
256,192,23486,5,8,0:0:0:0:
256,192,23583,5,0,0:0:0:0:
256,192,23776,5,8,0:0:0:0:
256,192,23970,5,0,0:0:0:0:
256,192,24163,5,8,0:0:0:0:
256,192,24260,5,8,0:0:0:0:
256,192,24357,5,8,0:0:0:0:
256,192,24454,5,8,0:0:0:0:
256,192,24551,5,0,0:0:0:0:
256,192,24841,5,0,0:0:0:0:
256,192,24938,5,8,0:0:0:0:
256,192,25325,5,8,0:0:0:0:
256,192,25518,5,8,0:0:0:0:
256,192,25615,5,8,0:0:0:0:
256,192,25712,5,0,0:0:0:0:
256,192,25905,5,0,0:0:0:0:
256,192,26293,5,8,0:0:0:0:
256,192,26680,5,8,0:0:0:0:
256,192,26873,5,0,0:0:0:0:
256,192,27260,5,8,0:0:0:0:
256,192,27454,5,0,0:0:0:0:
256,192,27551,5,8,0:0:0:0:
256,192,27647,5,8,0:0:0:0:
256,192,27841,5,0,0:0:0:0:
256,192,28034,5,8,0:0:0:0:
256,192,28131,5,0,0:0:0:0:
256,192,28228,5,0,0:0:0:0:
256,192,28325,5,0,0:0:0:0:
256,192,28422,5,8,0:0:0:0:
256,192,28809,5,8,0:0:0:0:
256,192,29002,5,8,0:0:0:0:
256,192,29196,5,0,0:0:0:0:
256,192,29583,5,0,0:0:0:0:
256,192,29873,5,8,0:0:0:0:
256,192,29970,5,0,0:0:0:0:
256,192,30163,5,8,0:0:0:0:
256,192,30260,5,8,0:0:0:0:
256,192,30357,5,0,0:0:0:0:
256,192,30744,5,8,0:0:0:0:
256,192,31131,5,8,0:0:0:0:
256,192,31422,5,0,0:0:0:0:
256,192,31518,5,8,0:0:0:0:
256,192,31905,5,8,0:0:0:0:
256,192,32293,5,8,0:0:0:0:
256,192,32486,5,0,0:0:0:0:
256,192,32680,5,8,0:0:0:0:
256,192,33067,5,8,0:0:0:0:
256,192,33454,5,0,0:0:0:0:
256,192,33841,5,8,0:0:0:0:
256,192,34228,5,8,0:0:0:0:
256,192,34422,5,0,0:0:0:0:
256,192,34518,5,8,0:0:0:0:
256,192,34615,5,8,0:0:0:0:
256,192,35002,5,0,0:0:0:0:
256,192,35389,5,8,0:0:0:0:
256,192,35583,5,8,0:0:0:0:
256,192,35680,5,0,0:0:0:0:
256,192,35776,5,0,0:0:0:0:
256,192,35873,5,8,0:0:0:0:
256,192,35970,5,0,0:0:0:0:
256,192,36163,5,8,0:0:0:0:
256,192,36551,5,8,0:0:0:0:
256,192,36647,5,0,0:0:0:0:
256,192,36744,5,0,0:0:0:0:
256,192,36841,5,0,0:0:0:0:
256,192,36938,5,8,0:0:0:0:
256,192,37131,5,0,0:0:0:0:
256,192,37325,5,8,0:0:0:0:
256,192,37518,5,8,0:0:0:0:
256,192,37712,5,0,0:0:0:0:
256,192,37905,5,0,0:0:0:0:
256,192,38002,5,8,0:0:0:0:
256,192,38099,5,0,0:0:0:0:
256,192,38293,5,8,0:0:0:0:
256,192,38486,5,0,0:0:0:0:
256,192,38873,5,8,0:0:0:0:
256,192,39067,5,8,0:0:0:0:
256,192,39163,5,0,0:0:0:0:
256,192,39260,5,8,0:0:0:0:
256,192,39454,5,8,0:0:0:0:
256,192,39647,5,8,0:0:0:0:
256,192,39744,5,0,0:0:0:0:
256,192,39841,5,0,0:0:0:0:
256,192,39938,5,0,0:0:0:0:
256,192,40034,5,8,0:0:0:0:
256,192,40228,5,8,0:0:0:0:
256,192,40422,5,0,0:0:0:0:
256,192,40518,5,0,0:0:0:0:
256,192,40615,5,8,0:0:0:0:
256,192,40712,5,8,0:0:0:0:
256,192,40809,5,0,0:0:0:0:
256,192,41002,5,8,0:0:0:0:
256,192,41196,5,0,0:0:0:0:
256,192,41389,5,8,0:0:0:0:
256,192,41583,5,8,0:0:0:0:
256,192,41970,5,0,0:0:0:0:
256,192,42163,5,8,0:0:0:0:
256,192,42357,5,8,0:0:0:0:
256,192,42550,5,8,0:0:0:0:
256,192,42647,5,8,0:0:0:0:
256,192,42744,5,0,0:0:0:0:
256,192,42937,5,8,0:0:0:0:
256,192,43131,5,8,0:0:0:0:
256,192,43324,5,8,0:0:0:0:
256,192,43421,5,8,0:0:0:0:
256,192,43518,5,0,0:0:0:0:
256,192,43776,5,8,0:0:0:0:
256,192,43905,5,0,0:0:0:0:
256,192,44034,5,0,0:0:0:0:
256,192,44292,5,0,0:0:0:0:
256,192,44389,5,8,0:0:0:0:
256,192,44486,5,8,0:0:0:0:
256,192,44582,5,0,0:0:0:0:
256,192,44679,5,8,0:0:0:0:
256,192,44873,5,8,0:0:0:0:
256,192,44970,5,0,0:0:0:0:
256,192,45066,5,12,0:0:0:0:
256,192,45453,5,8,0:0:0:0:
256,192,45647,5,0,0:0:0:0:
256,192,45840,5,8,0:0:0:0:
256,192,46034,5,8,0:0:0:0:
256,192,46228,5,0,0:0:0:0:
256,192,46421,5,8,0:0:0:0:
256,192,46615,5,0,0:0:0:0:
256,192,46808,5,0,0:0:0:0:
256,192,46905,5,0,0:0:0:0:
256,192,47002,5,8,0:0:0:0:
256,192,47099,5,8,0:0:0:0:
256,192,47195,5,0,0:0:0:0:
256,192,47389,5,8,0:0:0:0:
256,192,47582,5,0,0:0:0:0:
256,192,47776,5,8,0:0:0:0:
256,192,47873,5,8,0:0:0:0:
256,192,47969,5,0,0:0:0:0:
256,192,48163,5,0,0:0:0:0:
256,192,48550,5,8,0:0:0:0:
256,192,48744,5,0,0:0:0:0:
256,192,49131,5,0,0:0:0:0:
256,192,49518,5,8,0:0:0:0:
256,192,49615,5,8,0:0:0:0:
256,192,49711,5,0,0:0:0:0:
256,192,49905,5,0,0:0:0:0:
256,192,50099,5,8,0:0:0:0:
256,192,50195,5,8,0:0:0:0:
256,192,50292,5,8,0:0:0:0:
256,192,50389,5,0,0:0:0:0:
256,192,50486,5,8,0:0:0:0:
256,192,50679,5,0,0:0:0:0:
256,192,50776,5,0,0:0:0:0:
256,192,50873,5,8,0:0:0:0:
256,192,51066,5,8,0:0:0:0:
256,192,51260,5,4,0:0:0:0:
256,192,51647,5,8,0:0:0:0:
256,192,51744,5,8,0:0:0:0:
256,192,51840,5,0,0:0:0:0:
256,192,51937,5,0,0:0:0:0:
256,192,52034,5,8,0:0:0:0:
256,192,52228,5,8,0:0:0:0:
256,192,52324,5,8,0:0:0:0:
256,192,52421,5,0,0:0:0:0:
256,192,52615,5,8,0:0:0:0:
256,192,52808,5,8,0:0:0:0:
256,192,53066,5,8,0:0:0:0:
256,192,53195,5,0,0:0:0:0:
256,192,53324,5,8,0:0:0:0:
256,192,53453,5,0,0:0:0:0:
256,192,53582,5,8,0:0:0:0:
256,192,53969,5,0,0:0:0:0:
256,192,54066,5,0,0:0:0:0:
256,192,54163,5,8,0:0:0:0:
256,192,54260,5,0,0:0:0:0:
256,192,54357,5,8,0:0:0:0:
256,192,54744,5,8,0:0:0:0:
256,192,54937,5,8,0:0:0:0:
256,192,55034,5,8,0:0:0:0:
256,192,55131,5,0,0:0:0:0:
256,192,55324,5,8,0:0:0:0:
256,192,55518,5,0,0:0:0:0:
256,192,55711,5,8,0:0:0:0:
256,192,55905,5,0,0:0:0:0:
256,192,56034,5,8,0:0:0:0:
256,192,56163,5,8,0:0:0:0:
256,192,56292,5,0,0:0:0:0:
256,192,56421,5,8,0:0:0:0:
256,192,56679,5,0,0:0:0:0:
256,192,56776,5,0,0:0:0:0:
256,192,56873,5,8,0:0:0:0:
256,192,56969,5,0,0:0:0:0:
256,192,57066,5,8,0:0:0:0:
256,192,57163,5,8,0:0:0:0:
256,192,57260,5,0,0:0:0:0:
256,192,57453,5,4,0:0:0:0:
256,192,57840,5,8,0:0:0:0:
256,192,58034,5,8,0:0:0:0:
256,192,58228,5,0,0:0:0:0:
256,192,58421,5,8,0:0:0:0:
256,192,58615,5,0,0:0:0:0:
256,192,58808,5,8,0:0:0:0:
256,192,59002,5,0,0:0:0:0:
256,192,59195,5,8,0:0:0:0:
256,192,59389,5,0,0:0:0:0:
256,192,59486,5,8,0:0:0:0:
256,192,59582,5,8,0:0:0:0:
256,192,59679,5,0,0:0:0:0:
256,192,59776,5,8,0:0:0:0:
256,192,59969,5,8,0:0:0:0:
256,192,60163,5,8,0:0:0:0:
256,192,60260,5,8,0:0:0:0:
256,192,60357,5,0,0:0:0:0:
256,192,60550,5,0,0:0:0:0:
256,192,60937,5,8,0:0:0:0:
256,192,61131,5,0,0:0:0:0:
256,192,61518,5,8,0:0:0:0:
256,192,61905,5,0,0:0:0:0:
256,192,62002,5,8,0:0:0:0:
256,192,62099,5,8,0:0:0:0:
256,192,62292,5,0,0:0:0:0:
256,192,62389,5,0,0:0:0:0:
256,192,62486,5,8,0:0:0:0:
256,192,62582,5,8,0:0:0:0:
256,192,62679,5,0,0:0:0:0:
256,192,62873,5,8,0:0:0:0:
256,192,63066,5,0,0:0:0:0:
256,192,63163,5,8,0:0:0:0:
256,192,63260,5,0,0:0:0:0:
256,192,63453,5,8,0:0:0:0:
256,192,63647,5,4,0:0:0:0:
256,192,64034,5,0,0:0:0:0:
256,192,64131,5,8,0:0:0:0:
256,192,64228,5,0,0:0:0:0:
256,192,64324,5,8,0:0:0:0:
256,192,64421,5,8,0:0:0:0:
256,192,64615,5,8,0:0:0:0:
256,192,64711,5,8,0:0:0:0:
256,192,64808,5,0,0:0:0:0:
256,192,65002,5,8,0:0:0:0:
256,192,65195,5,0,0:0:0:0:
256,192,65324,5,8,0:0:0:0:
256,192,65453,5,8,0:0:0:0:
256,192,65582,5,0,0:0:0:0:
250,196,65711,5,8,0:0:0:0:
256,192,65969,5,0,0:0:0:0:
256,192,66099,5,0,0:0:0:0:
256,192,66228,5,8,0:0:0:0:
256,192,66357,5,0,0:0:0:0:
250,196,66486,5,8,0:0:0:0:
256,192,66744,5,8,0:0:0:0:
256,192,66840,5,0,0:0:0:0:
256,192,66937,5,8,0:0:0:0:
256,192,67034,5,8,0:0:0:0:
256,192,67131,5,0,0:0:0:0:
256,192,67389,5,8,0:0:0:0:
256,192,67518,5,0,0:0:0:0:
256,192,67647,5,8,0:0:0:0:
256,192,67776,5,8,0:0:0:0:
256,192,67905,5,0,0:0:0:0:
256,192,68292,5,8,0:0:0:0:
256,192,68389,5,0,0:0:0:0:
256,192,68486,5,0,0:0:0:0:
256,192,68582,5,8,0:0:0:0:
256,192,68679,5,0,0:0:0:0:
256,192,68873,5,8,0:0:0:0:
256,192,68969,5,0,0:0:0:0:
256,192,69066,5,8,0:0:0:0:
256,192,69260,5,8,0:0:0:0:
256,192,69453,5,0,0:0:0:0:
256,192,69582,5,8,0:0:0:0:
256,192,69711,5,8,0:0:0:0:
256,192,69840,5,0,0:0:0:0:
256,192,70034,5,0,0:0:0:0:
256,192,70228,5,8,0:0:0:0:
256,192,70421,5,0,0:0:0:0:
256,192,70615,5,8,0:0:0:0:
256,192,71002,5,8,0:0:0:0:
256,192,71389,5,8,0:0:0:0:
256,192,71582,5,8,0:0:0:0:
256,192,71776,5,8,0:0:0:0:
256,192,71873,5,8,0:0:0:0:
256,192,71969,5,0,0:0:0:0:
256,192,72066,5,0,0:0:0:0:
256,192,72163,5,8,0:0:0:0:
256,192,72357,5,8,0:0:0:0:
256,192,72453,5,8,0:0:0:0:
256,192,72550,5,0,0:0:0:0:
256,192,72744,5,8,0:0:0:0:
256,192,72937,5,0,0:0:0:0:
256,192,73324,5,8,0:0:0:0:
256,192,73518,5,0,0:0:0:0:
256,192,73711,5,8,0:0:0:0:
256,192,73905,5,8,0:0:0:0:
256,192,74002,5,8,0:0:0:0:
256,192,74099,5,0,0:0:0:0:
256,192,74292,5,0,0:0:0:0:
256,192,74486,5,8,0:0:0:0:
256,192,74679,5,0,0:0:0:0:
256,192,74873,5,0,0:0:0:0:
256,192,75066,5,8,0:0:0:0:
256,192,75260,5,0,0:0:0:0:
256,192,75453,5,8,0:0:0:0:
256,192,75550,5,8,0:0:0:0:
256,192,75647,5,0,0:0:0:0:
256,192,75744,5,0,0:0:0:0:
256,192,75840,5,8,0:0:0:0:
256,192,76034,5,0,0:0:0:0:
256,192,76421,5,0,0:0:0:0:
256,192,76518,5,8,0:0:0:0:
256,192,76615,5,0,0:0:0:0:
256,192,76808,5,8,0:0:0:0:
256,192,77195,5,8,0:0:0:0:
256,192,77389,5,0,0:0:0:0:
256,192,77486,5,8,0:0:0:0:
256,192,77582,5,8,0:0:0:0:
256,192,77776,5,0,0:0:0:0:
256,192,77969,5,8,0:0:0:0:
256,192,78163,5,8,0:0:0:0:
256,192,78357,5,0,0:0:0:0:
256,192,78550,5,8,0:0:0:0:
256,192,78647,5,0,0:0:0:0:
256,192,78744,5,8,0:0:0:0:
256,192,78840,5,8,0:0:0:0:
256,192,78937,5,0,0:0:0:0:
256,192,79131,5,8,0:0:0:0:
256,192,79324,5,0,0:0:0:0:
256,192,79421,5,0,0:0:0:0:
256,192,79518,5,8,0:0:0:0:
256,192,79711,5,0,0:0:0:0:
256,192,79905,5,8,0:0:0:0:
256,192,80292,5,8,0:0:0:0:
256,192,80389,5,8,0:0:0:0:
256,192,80486,5,0,0:0:0:0:
256,192,80679,5,8,0:0:0:0:
256,192,80873,5,8,0:0:0:0:
256,192,81066,5,0,0:0:0:0:
256,192,81260,5,8,0:0:0:0:
256,192,81453,5,0,0:0:0:0:
256,192,81582,5,8,0:0:0:0:
256,192,81711,5,0,0:0:0:0:
256,192,81840,5,8,0:0:0:0:
256,192,82228,5,0,0:0:0:0:
256,192,82357,5,8,0:0:0:0:
256,192,82421,5,0,0:0:0:0:
256,192,82486,5,8,0:0:0:0:
256,192,82550,5,0,0:0:0:0:
256,192,82615,5,8,0:0:0:0:
256,192,83002,5,8,0:0:0:0:
256,192,83066,5,8,0:0:0:0:
256,192,83131,5,0,0:0:0:0:
256,192,83195,5,0,0:0:0:0:
256,192,83260,5,8,0:0:0:0:
256,192,83776,5,0,0:0:0:0:
256,192,83840,5,0,0:0:0:0:
256,192,83905,5,0,0:0:0:0:
256,192,83969,5,0,0:0:0:0:
256,192,84034,5,8,0:0:0:0:
256,192,84357,5,12,0:0:0:0:
256,192,84550,5,12,0:0:0:0:
256,192,85324,5,12,0:0:0:0:
256,192,85518,5,0,0:0:0:0:
256,192,85711,5,0,0:0:0:0:
256,192,85905,5,8,0:0:0:0:
256,192,86099,5,8,0:0:0:0:
256,192,86292,5,0,0:0:0:0:
256,192,86486,5,8,0:0:0:0:
256,192,86873,5,8,0:0:0:0:
256,192,87066,5,0,0:0:0:0:
256,192,87260,5,8,0:0:0:0:
256,192,87453,5,8,0:0:0:0:
256,192,87647,5,8,0:0:0:0:
256,192,87840,5,0,0:0:0:0:
256,192,88034,5,8,0:0:0:0:
256,192,88421,5,8,0:0:0:0:
256,192,88615,5,0,0:0:0:0:
256,192,88808,5,0,0:0:0:0:
256,192,89002,5,8,0:0:0:0:
256,192,89195,5,8,0:0:0:0:
256,192,89389,5,0,0:0:0:0:
256,192,89582,5,8,0:0:0:0:
256,192,89969,5,8,0:0:0:0:
256,192,90163,5,0,0:0:0:0:
256,192,90357,5,8,0:0:0:0:
256,192,90550,5,0,0:0:0:0:
256,192,90744,5,8,0:0:0:0:
256,192,90937,5,8,0:0:0:0:
256,192,91034,5,8,0:0:0:0:
256,192,91131,5,0,0:0:0:0:
256,192,91228,5,0,0:0:0:0:
256,192,91324,5,8,0:0:0:0:
256,192,91518,5,12,0:0:0:0:
256,192,91711,5,0,0:0:0:0:
256,192,91905,5,0,0:0:0:0:
256,192,92099,5,8,0:0:0:0:
256,192,92292,5,8,0:0:0:0:
256,192,92486,5,0,0:0:0:0:
256,192,92679,5,8,0:0:0:0:
256,192,93066,5,8,0:0:0:0:
256,192,93260,5,0,0:0:0:0:
256,192,93453,5,8,0:0:0:0:
256,192,93647,5,0,0:0:0:0:
256,192,93840,5,0,0:0:0:0:
256,192,94034,5,8,0:0:0:0:
256,192,94228,5,8,0:0:0:0:
256,192,94615,5,8,0:0:0:0:
256,192,94808,5,8,0:0:0:0:
256,192,95002,5,8,0:0:0:0:
256,192,95195,5,0,0:0:0:0:
256,192,95389,5,0,0:0:0:0:
256,192,95582,5,8,0:0:0:0:
256,192,95776,5,8,0:0:0:0:
256,192,96163,5,8,0:0:0:0:
256,192,96357,5,8,0:0:0:0:
256,192,96550,5,8,0:0:0:0:
256,192,96744,5,0,0:0:0:0:
256,192,96937,5,8,0:0:0:0:
256,192,97131,5,8,0:0:0:0:
256,192,97228,5,8,0:0:0:0:
256,192,97324,5,0,0:0:0:0:
256,192,97421,5,0,0:0:0:0:
256,192,97518,5,8,0:0:0:0:
256,192,97711,5,0,0:0:0:0:
256,192,98099,5,0,0:0:0:0:
256,192,98292,5,8,0:0:0:0:
256,192,98486,5,8,0:0:0:0:
256,192,98679,5,0,0:0:0:0:
256,192,98873,5,8,0:0:0:0:
256,192,99066,5,0,0:0:0:0:
256,192,99260,5,0,0:0:0:0:
256,192,99647,5,8,0:0:0:0:
256,192,99840,5,0,0:0:0:0:
256,192,100034,5,0,0:0:0:0:
256,192,100808,5,0,0:0:0:0:
256,192,101002,5,8,0:0:0:0:
256,192,101195,5,8,0:0:0:0:
256,192,101389,5,0,0:0:0:0:
256,192,101582,5,0,0:0:0:0:
256,192,101776,5,8,0:0:0:0:
256,192,101873,5,8,0:0:0:0:
256,192,101969,5,0,0:0:0:0:
256,192,102163,5,8,0:0:0:0:
256,192,102357,5,0,0:0:0:0:
256,192,103131,5,0,0:0:0:0:
256,192,103324,5,0,0:0:0:0:
256,192,103518,5,8,0:0:0:0:
256,192,103711,5,8,0:0:0:0:
256,192,103905,5,0,0:0:0:0:
256,192,104679,5,0,0:0:0:0:
256,192,105066,5,8,0:0:0:0:
256,192,105260,5,8,0:0:0:0:
256,192,105453,5,0,0:0:0:0:
256,192,105840,5,8,0:0:0:0:
256,192,106034,5,0,0:0:0:0:
256,192,106421,5,0,0:0:0:0:
256,192,107002,5,0,0:0:0:0:
256,192,107776,5,0,0:0:0:0:
256,192,107969,5,8,0:0:0:0:
256,192,108163,5,8,0:0:0:0:
256,192,108357,5,0,0:0:0:0:
256,192,108550,5,8,0:0:0:0:
256,192,109324,5,0,0:0:0:0:
256,192,109518,5,8,0:0:0:0:
256,192,109711,5,0,0:0:0:0:
256,192,109905,5,8,0:0:0:0:
256,192,110099,5,8,0:0:0:0:
256,192,110486,5,0,0:0:0:0:
256,192,110873,5,0,0:0:0:0:
256,192,111260,5,8,0:0:0:0:
256,192,111647,5,8,0:0:0:0:
256,192,112034,5,0,0:0:0:0:
256,192,112421,5,8,0:0:0:0:
256,192,112808,5,0,0:0:0:0:
256,192,113195,5,0,0:0:0:0:
256,192,113776,5,0,0:0:0:0:
256,192,113873,5,8,0:0:0:0:
256,192,113969,5,8,0:0:0:0:
256,192,114744,5,8,0:0:0:0:
256,192,114840,5,8,0:0:0:0:
256,192,114937,5,0,0:0:0:0:
256,192,115034,5,0,0:0:0:0:
256,192,115131,5,8,0:0:0:0:
256,192,115324,5,0,0:0:0:0:
256,192,115518,5,8,0:0:0:0:
256,192,115711,5,0,0:0:0:0:
256,192,115808,5,8,0:0:0:0:
256,192,115905,5,0,0:0:0:0:
256,192,116099,5,8,0:0:0:0:
256,192,116292,5,4,0:0:0:0:
256,192,116582,5,0,0:0:0:0:
256,192,116679,5,8,0:0:0:0:
256,192,116776,5,0,0:0:0:0:
256,192,116873,5,8,0:0:0:0:
256,192,117066,5,0,0:0:0:0:
256,192,117260,5,8,0:0:0:0:
256,192,117357,5,0,0:0:0:0:
256,192,117453,5,8,0:0:0:0:
256,192,117647,5,0,0:0:0:0:
256,192,117840,5,8,0:0:0:0:
256,192,118228,5,8,0:0:0:0:
256,192,118421,5,0,0:0:0:0:
256,192,118808,5,8,0:0:0:0:
256,192,119195,5,0,0:0:0:0:
256,192,119292,5,8,0:0:0:0:
256,192,119389,5,8,0:0:0:0:
256,192,119582,5,0,0:0:0:0:
256,192,119776,5,8,0:0:0:0:
256,192,119873,5,8,0:0:0:0:
256,192,119969,5,0,0:0:0:0:
256,192,120163,5,8,0:0:0:0:
256,192,120260,5,8,0:0:0:0:
256,192,120357,5,8,0:0:0:0:
256,192,120453,5,0,0:0:0:0:
256,192,120550,5,8,0:0:0:0:
256,192,120744,5,8,0:0:0:0:
256,192,120937,5,4,0:0:0:0:
256,192,121324,5,8,0:0:0:0:
256,192,121421,5,8,0:0:0:0:
256,192,121518,5,0,0:0:0:0:
256,192,121615,5,0,0:0:0:0:
256,192,121711,5,8,0:0:0:0:
256,192,121905,5,8,0:0:0:0:
256,192,122002,5,8,0:0:0:0:
256,192,122099,5,0,0:0:0:0:
256,192,122486,5,8,0:0:0:0:
256,192,122615,5,0,0:0:0:0:
256,192,122744,5,0,0:0:0:0:
256,192,122873,5,8,0:0:0:0:
256,192,123002,5,8,0:0:0:0:
256,192,123260,5,8,0:0:0:0:
256,192,123389,5,0,0:0:0:0:
256,192,123518,5,8,0:0:0:0:
256,192,123647,5,8,0:0:0:0:
256,192,123776,5,0,0:0:0:0:
256,192,124034,5,0,0:0:0:0:
256,192,124131,5,8,0:0:0:0:
256,192,124228,5,8,0:0:0:0:
256,192,124324,5,8,0:0:0:0:
256,192,124421,5,0,0:0:0:0:
256,192,124679,5,8,0:0:0:0:
256,192,124808,5,0,0:0:0:0:
256,192,124937,5,8,0:0:0:0:
256,192,125066,5,0,0:0:0:0:
256,192,125195,5,0,0:0:0:0:
256,192,125582,5,0,0:0:0:0:
256,192,125679,5,8,0:0:0:0:
256,192,125776,5,0,0:0:0:0:
256,192,125873,5,8,0:0:0:0:
256,192,125969,5,8,0:0:0:0:
256,192,126163,5,8,0:0:0:0:
256,192,126260,5,8,0:0:0:0:
256,192,126357,5,0,0:0:0:0:
256,192,126550,5,0,0:0:0:0:
256,192,126744,5,8,0:0:0:0:
256,192,126840,5,0,0:0:0:0:
256,192,126937,5,8,0:0:0:0:
256,192,127131,5,4,0:0:0:0:
256,192,127324,5,8,0:0:0:0:
256,192,127421,5,0,0:0:0:0:
256,192,127518,5,8,0:0:0:0:
256,192,127615,5,8,0:0:0:0:
256,192,127711,5,0,0:0:0:0:
256,192,127905,5,0,0:0:0:0:
256,192,128292,5,8,0:0:0:0:
256,192,128679,5,0,0:0:0:0:
256,192,128873,5,0,0:0:0:0:
256,192,128969,5,8,0:0:0:0:
256,192,129066,5,8,0:0:0:0:
256,192,129163,5,0,0:0:0:0:
256,192,129260,5,8,0:0:0:0:
256,192,129453,5,0,0:0:0:0:
256,192,129647,5,8,0:0:0:0:
256,192,129744,5,0,0:0:0:0:
256,192,129840,5,8,0:0:0:0:
256,192,130034,5,8,0:0:0:0:
256,192,130228,5,0,0:0:0:0:
256,192,130324,5,0,0:0:0:0:
256,192,130421,5,0,0:0:0:0:
256,192,130518,5,0,0:0:0:0:
256,192,130615,5,8,0:0:0:0:
256,192,130808,5,0,0:0:0:0:
256,192,130905,5,8,0:0:0:0:
256,192,131002,5,8,0:0:0:0:
256,192,131099,5,0,0:0:0:0:
256,192,131195,5,8,0:0:0:0:
256,192,131389,5,8,0:0:0:0:
256,192,131776,5,0,0:0:0:0:
256,192,131969,5,8,0:0:0:0:
256,192,132066,5,8,0:0:0:0:
256,192,132163,5,0,0:0:0:0:
256,192,132260,5,0,0:0:0:0:
256,192,132357,5,8,0:0:0:0:
256,192,132550,5,0,0:0:0:0:
256,192,132744,5,8,0:0:0:0:
256,192,132840,5,0,0:0:0:0:
256,192,132937,5,8,0:0:0:0:
256,192,133034,5,8,0:0:0:0:
256,192,133131,5,0,0:0:0:0:
256,192,133324,5,4,0:0:0:0:
256,192,133711,5,0,0:0:0:0:
256,192,133808,5,8,0:0:0:0:
256,192,133905,5,0,0:0:0:0:
256,192,134099,5,8,0:0:0:0:
256,192,134292,5,8,0:0:0:0:
256,192,134389,5,0,0:0:0:0:
256,192,134486,5,8,0:0:0:0:
256,192,134679,5,0,0:0:0:0:
256,192,134873,5,8,0:0:0:0:
256,192,135066,5,8,0:0:0:0:
256,192,135163,5,8,0:0:0:0:
256,192,135260,5,0,0:0:0:0:
256,192,135453,5,8,0:0:0:0:
256,192,135647,5,8,0:0:0:0:
256,192,135776,5,0,0:0:0:0:
256,192,135905,5,8,0:0:0:0:
256,192,136034,5,8,0:0:0:0:
256,192,136421,5,8,0:0:0:0:
256,192,136550,5,0,0:0:0:0:
256,192,136679,5,8,0:0:0:0:
256,192,136808,5,8,0:0:0:0:
256,192,137066,5,8,0:0:0:0:
256,192,137195,5,0,0:0:0:0:
256,192,137453,5,0,0:0:0:0:
256,192,137582,5,0,0:0:0:0:
256,192,137711,5,8,0:0:0:0:
256,192,137969,5,8,0:0:0:0:
256,192,138228,5,8,0:0:0:0:
256,192,138357,5,0,0:0:0:0:
256,192,138486,5,8,0:0:0:0:
256,192,138615,5,0,0:0:0:0:
256,192,138744,5,8,0:0:0:0:
256,192,138937,5,8,0:0:0:0:
256,192,139034,5,8,0:0:0:0:
256,192,139131,5,0,0:0:0:0:
256,192,139228,5,8,0:0:0:0:
256,192,139421,5,8,0:0:0:0:
256,192,140292,12,0,144163,0:0:0:0:
