osu file format v14

[General]
AudioFilename: audio.mp3
AudioLeadIn: 0
PreviewTime: 114357
Countdown: 0
SampleSet: Normal
StackLeniency: 0.7
Mode: 1
LetterboxInBreaks: 0
WidescreenStoryboard: 1

[Editor]
DistanceSpacing: 0.81
BeatDivisor: 6
GridSize: 32
TimelineZoom: 2.999999

[Metadata]
Title:Crescent Sakura
TitleUnicode:Crescent Sakura
Artist:m108
ArtistUnicode:m108
Creator:Antti
Version:Inner Oni
Source:G2R2018 Climax
Tags:fa featured artist mg mpg mappers' guild electronic instrumental -GO BACK 2 TO YOUR ROOTS 2018 climax-
BeatmapID:2981326
BeatmapSetID:1449942

[Difficulty]
HPDrainRate:6.5
CircleSize:2
OverallDifficulty:6
ApproachRate:10
SliderMultiplier:1.4
SliderTickRate:1

[Events]
//Background and Video events
0,0,"pexels-elia-clerici-2004630.jpg",0,-24
//Break Periods
//Storyboard Layer 0 (Background)
//Storyboard Layer 1 (Fail)
//Storyboard Layer 2 (Pass)
//Storyboard Layer 3 (Foreground)
//Storyboard Layer 4 (Overlay)
//Storyboard Sound Samples

[TimingPoints]
164,387.096774193548,3,1,0,80,1,0
3250,-90.9090909090909,3,1,0,90,0,0
4799,-95.2380952380952,3,1,0,85,0,0
21057,-95.2380952380952,3,1,0,85,0,0
21250,-94.4205927535972,3,1,0,85,0,0
21444,-93.6170053417863,3,1,0,85,0,0
21831,-92.0501783932457,3,1,0,85,0,0
22024,-91.2862691758219,3,1,0,85,0,0
22089,-91.034470202142,3,1,0,85,0,0
22218,-90.5350166810768,3,1,0,85,0,0
22412,-89.7959476884727,3,1,0,85,0,0
22605,-89.0688475470885,3,1,0,85,0,0
22992,-87.6494093744549,3,1,0,85,0,0
23186,-86.9565217391304,3,1,0,85,0,0
37315,-86.9565217391304,3,1,0,85,0,0
37508,-86.5394018223467,3,1,0,85,0,0
37702,-86.1263387262776,3,1,0,85,0,0
37895,-85.7171266247681,3,1,0,85,0,0
37992,-85.5139387720198,3,1,0,85,0,0
38089,-85.311784714005,3,1,0,85,0,0
38283,-84.9102583479521,3,1,0,85,0,0
38476,-84.512565328213,3,1,0,85,0,0
38670,-84.1185095209535,3,1,0,85,0,0
38863,-83.7281113784829,3,1,0,85,0,0
39057,-83.3413202098534,3,1,0,85,0,0
39153,-83.1492962243568,3,1,0,85,0,0
39250,-82.9581550769976,3,1,0,85,0,0
39444,-82.5784288628124,3,1,0,85,0,0
39637,-82.202163067719,3,1,0,85,0,0
39734,-82.0153467116767,3,1,0,85,0,0
39831,-81.8293775648396,3,1,0,85,0,0
39928,-81.6441832193444,3,1,0,85,0,0
40024,-81.4598915931763,3,1,0,85,0,0
40121,-81.2763640205792,3,1,0,85,0,0
40218,-81.0937273190981,3,1,0,85,0,0
40315,-80.9119095857958,3,1,0,85,0,0
40412,-80.7308401497073,3,1,0,85,0,0
40476,-80.6106417332578,3,1,0,85,0,0
40541,-80.4907359187494,3,1,0,85,0,0
40605,-80.3712508820745,3,1,0,85,0,0
40702,-80.1925905254058,3,1,0,85,0,0
40799,-80.0147867325882,3,1,0,85,0,0
40992,-83.3333333333333,3,1,0,85,0,0
41186,-86.9565217391304,3,1,0,85,0,0
41379,-90.9090909090909,3,1,0,85,0,0
41573,-95.2380952380952,3,1,0,85,0,0
41970,387.096774193548,4,1,0,80,1,0
43508,-100,4,1,0,90,0,0
43637,-97.959215660152,4,1,0,90,0,0
43766,-95.9999692800098,4,1,0,90,0,0
43895,-94.1176470588235,4,1,0,90,0,0
44024,-92.3077207100679,4,1,0,90,0,0
44153,-90.5660103951667,4,1,0,90,0,0
44282,-88.8888888888889,4,1,0,90,0,0
44379,-87.6712328767123,4,1,0,90,0,0
44476,-86.4864864864865,4,1,0,90,0,0
44572,-85.3333333333333,4,1,0,90,0,0
44669,-84.2105263157895,4,1,0,90,0,0
44734,-83.4782376408382,4,1,0,90,0,0
44798,-82.7586435196258,4,1,0,90,0,0
44863,-82.0512820512821,4,1,0,90,0,0
44960,-81.0126582278481,4,1,0,90,0,0
45066,-80,4,1,0,95,0,1
46798,-77.3480662983425,3,1,0,95,0,1
46894,-77.7777777777778,3,1,0,95,0,1
46991,-78.2122905027933,3,1,0,95,0,1
47088,-78.6516853932584,3,1,0,95,0,1
47185,-79.0960451977401,3,1,0,95,0,1
47281,-79.5454545454545,3,1,0,95,0,1
47378,-80,3,1,0,95,0,1
47766,-77.6699029126214,3,1,0,95,0,1
47830,-78.4313725490196,3,1,0,95,0,1
47895,-79.2079207920792,3,1,0,95,0,1
47959,-80,3,1,0,95,0,1
51637,-74.0740740740741,3,1,0,95,0,1
51734,-74.7663551401869,3,1,0,95,0,1
51830,-75.4716981132076,3,1,0,95,0,1
51927,-76.1904761904762,3,1,0,95,0,1
52024,-76.9230769230769,3,1,0,95,0,1
52089,-77.4193348595265,3,1,0,95,0,1
52153,-77.9220981615839,3,1,0,95,0,1
52218,-78.4313725490196,3,1,0,95,0,1
52314,-79.2079207920792,3,1,0,95,0,1
52411,-80,3,1,0,95,0,1
52605,-83.3333333333333,3,1,0,95,0,1
52798,-86.9565217391304,3,1,0,95,0,1
52927,-86.334165019123,3,1,0,95,0,1
53056,-85.7206535342626,3,1,0,95,0,1
53185,-85.1158000459625,3,1,0,95,0,1
53314,-84.5193511280375,3,1,0,95,0,1
53443,-83.9312737158305,3,1,0,95,0,1
53572,-83.3513233272848,3,1,0,95,0,1
53701,-82.779332649576,3,1,0,95,0,1
53830,-82.2151389312525,3,1,0,95,0,1
53959,-81.6585838278441,3,1,0,95,0,1
54056,-81.2460544884789,3,1,0,95,0,1
54153,-80.8376722953938,3,1,0,95,0,1
54250,-80.4334397199629,3,1,0,95,0,1
54347,-80.0331657438843,3,1,0,95,0,1
54927,-77.6699029126214,3,1,0,95,0,1
54991,-78.4313725490196,3,1,0,95,0,1
55056,-79.2079207920792,3,1,0,95,0,1
55120,-80,3,1,0,95,0,1
55314,-83.3333333333333,3,1,0,95,0,1
55508,-86.9565217391304,3,1,0,95,0,1
55701,-90.9090909090909,3,1,0,95,0,1
55895,-90.9090909090909,3,1,0,95,0,1
56024,-89.8876404494382,3,1,0,95,0,1
56153,-88.8888888888889,3,1,0,95,0,1
56282,-87.9120879120879,3,1,0,95,0,1
56411,-86.9565217391304,3,1,0,95,0,1
56540,-86.0215053763441,3,1,0,95,0,1
56669,-85.1063829787234,3,1,0,95,0,1
56766,-84.4327176781003,3,1,0,95,0,1
56863,-83.7696335078534,3,1,0,95,0,1
56959,-83.1168831168831,3,1,0,95,0,1
57056,-82.4742268041237,3,1,0,95,0,1
57121,-82.0512820512821,3,1,0,95,0,1
57185,-81.6326530612245,3,1,0,95,0,1
57250,-81.2182741116751,3,1,0,95,0,1
57347,-80.6045340050378,3,1,0,95,0,1
57443,-80,3,1,0,95,0,1
59185,-77.3480662983425,3,1,0,80,0,1
59281,-77.7777777777778,3,1,0,80,0,1
59378,-78.2122905027933,3,1,0,80,0,1
59475,-78.6516853932584,3,1,0,80,0,1
59572,-79.0960451977401,3,1,0,80,0,1
59668,-79.5454545454545,3,1,0,80,0,1
59765,-80,3,1,0,80,0,1
60153,-77.6699029126214,3,1,0,80,0,1
60217,-78.4313725490196,3,1,0,80,0,1
60282,-79.2079207920792,3,1,0,80,0,1
60346,-80,3,1,0,80,0,1
64024,-74.0740740740741,3,1,0,95,0,1
64121,-74.7663551401869,3,1,0,95,0,1
64218,-75.4716981132076,3,1,0,95,0,1
64314,-76.1904761904762,3,1,0,95,0,1
64411,-76.9230769230769,3,1,0,95,0,1
64508,-77.6699029126214,3,1,0,95,0,1
64605,-78.4313725490196,3,1,0,95,0,1
64669,-78.9473476454348,3,1,0,95,0,1
64734,-79.4702197272105,3,1,0,95,0,1
64798,-80,3,1,0,95,0,1
64992,-83.3333333333333,3,1,0,95,0,1
65185,-86.9565217391304,3,1,0,95,0,1
65314,-86.2465253431102,3,1,0,95,0,1
65379,-85.8958203952754,3,1,0,95,0,1
65443,-85.5479560454602,3,1,0,95,0,1
65572,-84.8606842147247,3,1,0,95,0,1
65766,-83.8501296323004,3,1,0,95,0,1
65959,-82.8634286400869,3,1,0,95,0,1
66089,-82.2184511359301,3,1,0,95,0,1
66153,-81.8996794446547,3,1,0,95,0,1
66218,-81.5833700458498,3,1,0,95,0,1
66347,-80.9580904253295,3,1,0,95,0,1
66540,-80.037905952259,3,1,0,95,0,1
66734,-78.4313725490196,3,1,0,95,0,1
68282,-78.740157480315,3,1,0,95,0,1
68379,-79.4044665012407,3,1,0,95,0,1
68476,-80.0800800800801,3,1,0,95,0,1
68572,-80.7672892478546,3,1,0,95,0,1
68669,-81.4663951120163,3,1,0,95,0,1
68766,-82.1777092963534,3,1,0,95,0,1
68863,-82.9015544041451,3,1,0,95,0,1
68959,-83.6382645060115,3,1,0,95,0,1
69056,-84.3881856540084,3,1,0,95,0,1
69153,-85.1516764236296,3,1,0,95,0,1
69250,-85.9291084854995,3,1,0,95,0,1
69347,-86.7208672086721,3,1,0,95,0,1
69443,-87.527352297593,3,1,0,95,0,1
69572,-88.6263186488386,3,1,0,95,0,1
69701,-89.7531519063121,3,1,0,95,0,1
69840,-90.9090909090909,3,1,0,85,0,0
82218,-90.3225806451613,3,1,0,80,0,0
82282,-89.7435897435897,3,1,0,80,0,0
82347,-89.171974522293,3,1,0,80,0,0
82411,-88.6075949367089,3,1,0,80,0,0
82476,-88.0503144654088,3,1,0,80,0,0
82540,-87.5,3,1,0,80,0,0
82605,-86.9565217391304,3,1,0,80,0,0
82992,-88.1057268722467,3,1,0,80,0,0
83056,-87.3362445414847,3,1,0,80,0,0
83121,-86.5800865800866,3,1,0,80,0,0
83185,-85.8369098712446,3,1,0,80,0,0
83250,-85.1063829787234,3,1,0,80,0,0
83766,-86.2068965517241,3,1,0,80,0,0
83830,-85.4700854700855,3,1,0,80,0,0
83895,-84.7457627118644,3,1,0,80,0,0
83959,-84.0336134453782,3,1,0,80,0,0
84024,-83.3333333333333,3,1,0,80,0,0
84347,-76.9230769230769,3,1,0,100,0,0
85314,-90.9090909090909,3,1,0,90,0,0
97121,-91.5032679738562,3,1,0,85,0,0
97217,-92.1052631578947,3,1,0,85,0,0
97314,-92.7152317880795,3,1,0,85,0,0
97411,-93.3333333333333,3,1,0,85,0,0
97508,-93.9597315436242,3,1,0,85,0,0
97604,-94.5945945945946,3,1,0,85,0,0
97701,-95.2380952380952,3,1,0,80,0,0
100798,-95.2380952380952,3,1,0,80,0,0
100992,-95.8054459647704,3,1,0,80,0,0
101185,-96.3795039346932,3,1,0,80,0,0
101379,-96.9605767990793,3,1,0,80,0,0
101572,-97.5486035917396,3,1,0,80,0,0
101766,-98.1439025156245,3,1,0,80,0,0
101830,-98.3439856260431,3,1,0,79,0,0
101895,-98.5447890993696,3,1,0,78,0,0
101959,-98.7465117794714,3,1,0,77,0,0
102153,-99.3564681557552,3,1,0,76,0,0
102347,-99.974106706363,3,1,0,75,0,0
113766,-99.009900990099,3,1,0,80,0,0
113863,-98.0392156862745,3,1,0,80,0,0
113959,-97.0873786407767,3,1,0,80,0,0
114347,-96.1538461538461,3,1,0,85,0,0
114734,-95.2380952380952,3,1,0,90,0,0
114830,-94.1176470588235,3,1,0,90,0,0
114927,-93.0232558139535,3,1,0,90,0,0
115024,-91.9540229885058,3,1,0,90,0,0
115121,-90.9090909090909,3,1,0,90,0,0
115314,-88.8888888888889,3,1,0,90,0,0
115508,-86.9565217391304,3,1,0,90,0,0
115701,-85.1063829787234,3,1,0,90,0,0
115798,-84.2105263157895,3,1,0,90,0,0
115895,-83.3333333333333,3,1,0,90,0,0
116089,-81.6326530612245,3,1,0,90,0,0
116185,-80.8080808080808,3,1,0,90,0,0
116292,-80,3,1,0,95,0,1
116572,-77.4193548387097,3,1,0,95,0,1
116668,-77.9220779220779,3,1,0,95,0,1
116765,-78.4313725490196,3,1,0,95,0,1
116862,-78.9473684210526,3,1,0,95,0,1
116959,-79.4701986754967,3,1,0,95,0,1
117055,-80,3,1,0,95,0,1
117250,-77.6699029126214,3,1,0,95,0,1
117314,-78.4313725490196,3,1,0,95,0,1
117379,-79.2079207920792,3,1,0,95,0,1
117443,-80,3,1,0,95,0,1
121314,-86.9565217391304,3,1,0,95,0,1
121411,-86.0310520479262,3,1,0,95,0,1
121508,-85.1250742716273,3,1,0,95,0,1
121605,-84.2379790297975,3,1,0,95,0,1
121701,-83.3691125774812,3,1,0,95,0,1
121798,-82.5180549504231,3,1,0,95,0,1
121895,-81.6841974568442,3,1,0,95,0,1
121959,-81.1376142620453,3,1,0,95,0,1
122024,-80.5982323195688,3,1,0,95,0,1
122089,-80.0660384685288,3,1,0,95,0,1
122282,-83.3333333333333,3,1,0,95,0,1
122476,-86.9565217391304,3,1,0,95,0,1
124024,-86.9565217391304,3,1,0,95,0,1
124121,-86.3309600952403,3,1,0,95,0,1
124218,-85.7142612244968,3,1,0,95,0,1
124314,-85.1063829787234,3,1,0,95,0,1
124411,-84.5070660583285,3,1,0,95,0,1
124669,-82.9492781753813,3,1,0,95,0,1
124798,-82.1917583036279,3,1,0,95,0,1
124927,-81.4479490591947,3,1,0,95,0,1
124992,-81.0811029948927,3,1,0,95,0,1
125056,-80.7174815500017,3,1,0,95,0,1
125185,-80,3,1,0,95,0,1
125572,-80,3,1,0,95,0,1
125669,-80.6013505562299,3,1,0,95,0,1
125766,-81.2118760999134,3,1,0,95,0,1
125863,-81.8316542841735,3,1,0,95,0,1
125959,-82.4610330388375,3,1,0,95,0,1
126056,-83.1000990553181,3,1,0,95,0,1
126153,-83.749217991677,3,1,0,95,0,1
126250,-84.4084864292256,3,1,0,95,0,1
126347,-85.078216658485,3,1,0,95,0,1
126540,-86.4501493858581,3,1,0,95,0,1
126734,-87.8670536331709,3,1,0,94,0,1
126830,-88.5931060388605,3,1,0,93,0,1
126927,-89.3311774742503,3,1,0,92,0,1
127024,-90.0816500075669,3,1,0,91,0,1
127131,-90.8449213600938,3,1,0,90,0,0
132540,-90.4522613065326,3,1,0,90,0,0
132636,-90,3,1,0,90,0,0
132733,-89.5522388059701,3,1,0,90,0,0
132830,-89.1089108910891,3,1,0,90,0,0
132927,-88.6699507389163,3,1,0,90,0,0
133023,-88.2352941176471,3,1,0,90,0,0
133120,-87.8048780487805,3,1,0,90,0,0
133217,-87.378640776699,3,1,0,90,0,0
133314,-86.9565217391304,3,1,0,90,0,0
133701,-90.9090909090909,3,1,0,90,0,0
137959,-90.9090909090909,3,1,0,90,0,0
138218,-89.5017170904424,3,1,0,90,0,0
138347,-88.8142060098797,3,1,0,90,0,0
138476,-88.1371767018187,3,1,0,90,0,0
138605,-87.4704677833147,3,1,0,90,0,0
138734,-86.8136943393999,3,1,0,90,0,0
138863,-86.1667101808553,3,1,0,90,0,0
138992,-85.5293712137216,3,1,0,90,0,0
139121,-84.9013191966977,3,1,0,90,0,0
139185,-84.5907752067822,3,1,0,90,0,0
139250,-84.282494694417,3,1,0,90,0,0
139314,-83.9763824821907,3,1,0,90,0,0
139443,-83.3709197229751,3,1,0,90,0,0
139508,-82.9875518672199,3,1,0,90,0,0
140282,-100,3,1,0,45,0,0
141056,-90.9090909090909,3,1,0,45,0,0
142605,-83.3333333333333,3,1,0,45,0,0
144153,-76.9230769230769,3,1,0,45,0,0

[HitObjects]
256,192,164,5,8,0:0:0:0:
256,192,228,5,0,0:0:0:0:
256,192,293,5,0,0:0:0:0:
256,192,357,5,0,0:0:0:0:
256,192,422,5,8,0:0:0:0:
256,192,938,5,0,0:0:0:0:
256,192,1067,5,8,0:0:0:0:
256,192,1196,5,0,0:0:0:0:
256,192,1325,5,0,0:0:0:0:
256,192,1389,5,8,0:0:0:0:
256,192,1454,5,8,0:0:0:0:
256,192,1518,5,8,0:0:0:0:
256,192,1583,5,0,0:0:0:0:
256,192,1905,5,8,0:0:0:0:
256,192,2051,5,0,0:0:0:0:
256,192,2196,5,8,0:0:0:0:
256,192,2486,5,8,0:0:0:0:
256,192,2551,5,8,0:0:0:0:
256,192,2615,5,0,0:0:0:0:
256,192,2680,5,8,0:0:0:0:
256,192,2744,5,8,0:0:0:0:
256,192,2809,5,8,0:0:0:0:
256,192,2873,5,0,0:0:0:0:
256,192,3260,12,0,4615,0:0:0:0:
256,192,4809,5,0,0:0:0:0:
256,192,5067,5,0,0:0:0:0:
256,192,5196,5,8,0:0:0:0:
256,192,5454,5,0,0:0:0:0:
256,192,5583,5,8,0:0:0:0:
256,192,5776,5,0,0:0:0:0:
256,192,5841,5,8,0:0:0:0:
256,192,5970,5,0,0:0:0:0:
256,192,6228,5,8,0:0:0:0:
256,192,6357,5,8,0:0:0:0:
256,192,6744,5,8,0:0:0:0:
256,192,7131,5,0,0:0:0:0:
256,192,7389,5,8,0:0:0:0:
256,192,7518,5,0,0:0:0:0:
256,192,7712,5,8,0:0:0:0:
256,192,7905,5,8,0:0:0:0:
256,192,8099,5,0,0:0:0:0:
256,192,8293,5,0,0:0:0:0:
256,192,8357,5,8,0:0:0:0:
256,192,8422,5,0,0:0:0:0:
256,192,8551,5,0,0:0:0:0:
256,192,8680,5,8,0:0:0:0:
256,192,9067,5,8,0:0:0:0:
256,192,9454,5,0,0:0:0:0:
256,192,9712,5,0,0:0:0:0:
256,192,9841,5,8,0:0:0:0:
256,192,10099,5,0,0:0:0:0:
256,192,10228,5,8,0:0:0:0:
256,192,10422,5,0,0:0:0:0:
256,192,10486,5,8,0:0:0:0:
256,192,10615,5,0,0:0:0:0:
256,192,10873,5,0,0:0:0:0:
256,192,11002,5,8,0:0:0:0:
256,192,11389,5,8,0:0:0:0:
256,192,11776,5,0,0:0:0:0:
256,192,12034,5,8,0:0:0:0:
256,192,12163,5,0,0:0:0:0:
256,192,12357,5,8,0:0:0:0:
256,192,12551,5,8,0:0:0:0:
256,192,12744,5,0,0:0:0:0:
256,192,12809,5,8,0:0:0:0:
256,192,12938,5,8,0:0:0:0:
256,192,13325,5,8,0:0:0:0:
256,192,13712,5,8,0:0:0:0:
256,192,14099,5,0,0:0:0:0:
256,192,14357,5,0,0:0:0:0:
256,192,14486,5,8,0:0:0:0:
256,192,14744,5,0,0:0:0:0:
256,192,14873,5,8,0:0:0:0:
256,192,15067,5,0,0:0:0:0:
256,192,15131,5,8,0:0:0:0:
256,192,15260,5,0,0:0:0:0:
256,192,15518,5,8,0:0:0:0:
256,192,15647,5,8,0:0:0:0:
256,192,16034,5,8,0:0:0:0:
256,192,16422,5,0,0:0:0:0:
256,192,16680,5,8,0:0:0:0:
256,192,16809,5,0,0:0:0:0:
256,192,17002,5,8,0:0:0:0:
256,192,17196,5,8,0:0:0:0:
256,192,17389,5,0,0:0:0:0:
256,192,17583,5,0,0:0:0:0:
256,192,17647,5,8,0:0:0:0:
256,192,17712,5,0,0:0:0:0:
256,192,17841,5,0,0:0:0:0:
256,192,17970,5,8,0:0:0:0:
256,192,18357,5,8,0:0:0:0:
256,192,18551,5,0,0:0:0:0:
256,192,18615,5,8,0:0:0:0:
256,192,18744,5,0,0:0:0:0:
256,192,19002,5,0,0:0:0:0:
256,192,19131,5,8,0:0:0:0:
256,192,19389,5,0,0:0:0:0:
256,192,19518,5,8,0:0:0:0:
256,192,19712,5,0,0:0:0:0:
256,192,19776,5,8,0:0:0:0:
256,192,19905,5,0,0:0:0:0:
256,192,20099,5,8,0:0:0:0:
256,192,20293,5,8,0:0:0:0:
256,192,20551,5,0,0:0:0:0:
256,192,20680,5,8,0:0:0:0:
256,192,20873,5,0,0:0:0:0:
256,192,21067,5,0,0:0:0:0:
256,192,21260,5,8,0:0:0:0:
256,192,21454,5,8,0:0:0:0:
256,192,21841,5,8,0:0:0:0:
256,192,22034,5,0,0:0:0:0:
256,192,22099,5,8,0:0:0:0:
256,192,22228,5,0,0:0:0:0:
256,192,22422,5,8,0:0:0:0:
256,192,22615,5,8,0:0:0:0:
256,192,23002,5,8,0:0:0:0:
256,192,23196,5,0,0:0:0:0:
256,192,23293,5,0,0:0:0:0:
256,192,23389,5,8,0:0:0:0:
256,192,23486,5,8,0:0:0:0:
256,192,23583,5,8,0:0:0:0:
256,192,23680,5,0,0:0:0:0:
256,192,23776,5,8,0:0:0:0:
256,192,23970,5,0,0:0:0:0:
256,192,24163,5,8,0:0:0:0:
256,192,24260,5,8,0:0:0:0:
256,192,24357,5,8,0:0:0:0:
256,192,24454,5,8,0:0:0:0:
256,192,24551,5,0,0:0:0:0:
256,192,24841,5,0,0:0:0:0:
256,192,24938,5,8,0:0:0:0:
256,192,25131,5,0,0:0:0:0:
256,192,25325,5,8,0:0:0:0:
256,192,25518,5,8,0:0:0:0:
256,192,25615,5,8,0:0:0:0:
256,192,25712,5,0,0:0:0:0:
256,192,25905,5,0,0:0:0:0:
256,192,26099,5,8,0:0:0:0:
256,192,26293,5,8,0:0:0:0:
256,192,26486,5,0,0:0:0:0:
256,192,26680,5,8,0:0:0:0:
256,192,26776,5,0,0:0:0:0:
256,192,26873,5,8,0:0:0:0:
256,192,27260,5,8,0:0:0:0:
256,192,27454,5,0,0:0:0:0:
256,192,27551,5,8,0:0:0:0:
256,192,27647,5,8,0:0:0:0:
256,192,27841,5,0,0:0:0:0:
256,192,28034,5,8,0:0:0:0:
256,192,28131,5,0,0:0:0:0:
256,192,28228,5,0,0:0:0:0:
256,192,28325,5,0,0:0:0:0:
256,192,28422,5,8,0:0:0:0:
256,192,28809,5,8,0:0:0:0:
256,192,29002,5,8,0:0:0:0:
256,192,29196,5,0,0:0:0:0:
256,192,29583,5,0,0:0:0:0:
256,192,29873,5,8,0:0:0:0:
256,192,29970,5,0,0:0:0:0:
256,192,30163,5,8,0:0:0:0:
256,192,30260,5,8,0:0:0:0:
256,192,30357,5,0,0:0:0:0:
256,192,30744,5,8,0:0:0:0:
256,192,31131,5,8,0:0:0:0:
256,192,31422,5,0,0:0:0:0:
256,192,31518,5,8,0:0:0:0:
256,192,31905,5,8,0:0:0:0:
256,192,32293,5,8,0:0:0:0:
256,192,32486,5,0,0:0:0:0:
256,192,32680,5,8,0:0:0:0:
256,192,33067,5,8,0:0:0:0:
256,192,33454,5,0,0:0:0:0:
256,192,33841,5,8,0:0:0:0:
256,192,34228,5,8,0:0:0:0:
256,192,34422,5,0,0:0:0:0:
256,192,34518,5,8,0:0:0:0:
256,192,34615,5,8,0:0:0:0:
256,192,35002,5,0,0:0:0:0:
256,192,35389,5,8,0:0:0:0:
256,192,35583,5,8,0:0:0:0:
256,192,35680,5,0,0:0:0:0:
256,192,35776,5,0,0:0:0:0:
256,192,35873,5,8,0:0:0:0:
256,192,35970,5,0,0:0:0:0:
256,192,36067,5,8,0:0:0:0:
256,192,36163,5,8,0:0:0:0:
256,192,36551,5,8,0:0:0:0:
256,192,36647,5,0,0:0:0:0:
256,192,36744,5,0,0:0:0:0:
256,192,36841,5,0,0:0:0:0:
256,192,36938,5,8,0:0:0:0:
256,192,37131,5,0,0:0:0:0:
256,192,37325,5,8,0:0:0:0:
256,192,37518,5,8,0:0:0:0:
256,192,37712,5,0,0:0:0:0:
256,192,37905,5,0,0:0:0:0:
256,192,38002,5,8,0:0:0:0:
256,192,38099,5,0,0:0:0:0:
256,192,38293,5,8,0:0:0:0:
256,192,38486,5,0,0:0:0:0:
256,192,38680,5,8,0:0:0:0:
256,192,38873,5,8,0:0:0:0:
256,192,39067,5,8,0:0:0:0:
256,192,39163,5,0,0:0:0:0:
256,192,39260,5,8,0:0:0:0:
256,192,39454,5,8,0:0:0:0:
256,192,39647,5,8,0:0:0:0:
256,192,39744,5,0,0:0:0:0:
256,192,39841,5,8,0:0:0:0:
256,192,39938,5,8,0:0:0:0:
256,192,40034,5,8,0:0:0:0:
256,192,40131,5,0,0:0:0:0:
256,192,40228,5,8,0:0:0:0:
256,192,40325,5,8,0:0:0:0:
256,192,40422,5,0,0:0:0:0:
256,192,40486,5,0,0:0:0:0:
256,192,40551,5,0,0:0:0:0:
256,192,40615,5,8,0:0:0:0:
256,192,40712,5,8,0:0:0:0:
256,192,40809,5,0,0:0:0:0:
256,192,41002,5,8,0:0:0:0:
256,192,41196,5,0,0:0:0:0:
256,192,41389,5,8,0:0:0:0:
256,192,41583,5,8,0:0:0:0:
256,192,41970,5,0,0:0:0:0:
256,192,42163,5,8,0:0:0:0:
256,192,42357,5,8,0:0:0:0:
256,192,42550,5,8,0:0:0:0:
256,192,42615,5,0,0:0:0:0:
256,192,42679,5,8,0:0:0:0:
256,192,42744,5,0,0:0:0:0:
256,192,42937,5,8,0:0:0:0:
256,192,43131,5,8,0:0:0:0:
256,192,43324,5,8,0:0:0:0:
256,192,43389,5,0,0:0:0:0:
256,192,43453,5,8,0:0:0:0:
256,192,43518,5,0,0:0:0:0:
256,192,43647,5,8,0:0:0:0:
256,192,43776,5,8,0:0:0:0:
256,192,43905,5,0,0:0:0:0:
256,192,44034,5,0,0:0:0:0:
256,192,44163,5,8,0:0:0:0:
256,192,44292,5,0,0:0:0:0:
256,192,44389,5,8,0:0:0:0:
256,192,44486,5,8,0:0:0:0:
256,192,44582,5,0,0:0:0:0:
256,192,44679,5,8,0:0:0:0:
256,192,44744,5,0,0:0:0:0:
256,192,44809,5,0,0:0:0:0:
256,192,44873,5,8,0:0:0:0:
256,192,44970,5,0,0:0:0:0:
256,192,45066,5,12,0:0:0:0:
256,192,45453,5,8,0:0:0:0:
256,192,45647,5,0,0:0:0:0:
256,192,45840,5,8,0:0:0:0:
256,192,46034,5,8,0:0:0:0:
256,192,46228,5,0,0:0:0:0:
256,192,46421,5,8,0:0:0:0:
256,192,46615,5,0,0:0:0:0:
256,192,46808,5,0,0:0:0:0:
256,192,46905,5,0,0:0:0:0:
256,192,47002,5,8,0:0:0:0:
256,192,47099,5,8,0:0:0:0:
256,192,47195,5,0,0:0:0:0:
256,192,47292,5,8,0:0:0:0:
256,192,47389,5,8,0:0:0:0:
256,192,47582,5,0,0:0:0:0:
256,192,47776,5,8,0:0:0:0:
256,192,47840,5,8,0:0:0:0:
256,192,47905,5,8,0:0:0:0:
256,192,47969,5,0,0:0:0:0:
256,192,48163,5,0,0:0:0:0:
256,192,48357,5,0,0:0:0:0:
256,192,48453,5,0,0:0:0:0:
256,192,48550,5,8,0:0:0:0:
256,192,48744,5,0,0:0:0:0:
256,192,49131,5,0,0:0:0:0:
256,192,49324,5,8,0:0:0:0:
256,192,49518,5,8,0:0:0:0:
256,192,49615,5,8,0:0:0:0:
256,192,49711,5,0,0:0:0:0:
256,192,49905,5,0,0:0:0:0:
256,192,50002,5,0,0:0:0:0:
256,192,50099,5,8,0:0:0:0:
256,192,50195,5,8,0:0:0:0:
256,192,50292,5,8,0:0:0:0:
256,192,50389,5,0,0:0:0:0:
256,192,50486,5,8,0:0:0:0:
256,192,50679,5,0,0:0:0:0:
256,192,50776,5,0,0:0:0:0:
256,192,50873,5,8,0:0:0:0:
256,192,50969,5,8,0:0:0:0:
256,192,51066,5,8,0:0:0:0:
256,192,51163,5,8,0:0:0:0:
256,192,51260,5,4,0:0:0:0:
256,192,51647,5,8,0:0:0:0:
256,192,51744,5,0,0:0:0:0:
256,192,51840,5,8,0:0:0:0:
256,192,51937,5,0,0:0:0:0:
256,192,52034,5,8,0:0:0:0:
256,192,52099,5,0,0:0:0:0:
256,192,52163,5,0,0:0:0:0:
256,192,52228,5,8,0:0:0:0:
256,192,52324,5,8,0:0:0:0:
256,192,52421,5,0,0:0:0:0:
256,192,52615,5,8,0:0:0:0:
256,192,52808,5,8,0:0:0:0:
256,192,52937,5,0,0:0:0:0:
256,192,53066,5,8,0:0:0:0:
256,192,53195,5,0,0:0:0:0:
256,192,53324,5,8,0:0:0:0:
256,192,53453,5,0,0:0:0:0:
256,192,53582,5,8,0:0:0:0:
256,192,53711,5,0,0:0:0:0:
256,192,53840,5,8,0:0:0:0:
256,192,53969,5,0,0:0:0:0:
256,192,54066,5,0,0:0:0:0:
256,192,54163,5,8,0:0:0:0:
256,192,54260,5,8,0:0:0:0:
256,192,54357,5,8,0:0:0:0:
256,192,54744,5,8,0:0:0:0:
256,192,54937,5,8,0:0:0:0:
256,192,55002,5,8,0:0:0:0:
256,192,55066,5,8,0:0:0:0:
256,192,55131,5,0,0:0:0:0:
256,192,55324,5,8,0:0:0:0:
256,192,55518,5,0,0:0:0:0:
256,192,55711,5,8,0:0:0:0:
256,192,55905,5,0,0:0:0:0:
256,192,56034,5,8,0:0:0:0:
256,192,56163,5,8,0:0:0:0:
256,192,56292,5,0,0:0:0:0:
256,192,56421,5,8,0:0:0:0:
256,192,56550,5,8,0:0:0:0:
256,192,56679,5,0,0:0:0:0:
256,192,56776,5,8,0:0:0:0:
256,192,56873,5,8,0:0:0:0:
256,192,56969,5,0,0:0:0:0:
256,192,57066,5,8,0:0:0:0:
256,192,57131,5,0,0:0:0:0:
256,192,57195,5,0,0:0:0:0:
256,192,57260,5,8,0:0:0:0:
256,192,57357,5,8,0:0:0:0:
256,192,57453,5,4,0:0:0:0:
256,192,57840,5,8,0:0:0:0:
256,192,58034,5,8,0:0:0:0:
256,192,58228,5,0,0:0:0:0:
256,192,58421,5,8,0:0:0:0:
256,192,58615,5,0,0:0:0:0:
256,192,58808,5,8,0:0:0:0:
256,192,59002,5,0,0:0:0:0:
256,192,59195,5,8,0:0:0:0:
256,192,59292,5,0,0:0:0:0:
256,192,59389,5,8,0:0:0:0:
256,192,59486,5,8,0:0:0:0:
256,192,59582,5,8,0:0:0:0:
256,192,59679,5,0,0:0:0:0:
256,192,59776,5,8,0:0:0:0:
256,192,59969,5,8,0:0:0:0:
256,192,60163,5,8,0:0:0:0:
256,192,60228,5,8,0:0:0:0:
256,192,60292,5,8,0:0:0:0:
256,192,60357,5,0,0:0:0:0:
256,192,60550,5,0,0:0:0:0:
256,192,60744,5,0,0:0:0:0:
256,192,60840,5,0,0:0:0:0:
256,192,60937,5,8,0:0:0:0:
256,192,61131,5,0,0:0:0:0:
256,192,61518,5,8,0:0:0:0:
256,192,61711,5,8,0:0:0:0:
256,192,61905,5,0,0:0:0:0:
256,192,62002,5,8,0:0:0:0:
256,192,62099,5,8,0:0:0:0:
256,192,62292,5,0,0:0:0:0:
256,192,62389,5,0,0:0:0:0:
256,192,62486,5,8,0:0:0:0:
256,192,62582,5,8,0:0:0:0:
256,192,62679,5,0,0:0:0:0:
256,192,62873,5,8,0:0:0:0:
256,192,62969,5,0,0:0:0:0:
256,192,63066,5,0,0:0:0:0:
256,192,63163,5,8,0:0:0:0:
256,192,63260,5,0,0:0:0:0:
256,192,63357,5,8,0:0:0:0:
256,192,63453,5,8,0:0:0:0:
256,192,63647,5,4,0:0:0:0:
256,192,64034,5,0,0:0:0:0:
256,192,64131,5,8,0:0:0:0:
256,192,64228,5,0,0:0:0:0:
256,192,64324,5,8,0:0:0:0:
256,192,64421,5,8,0:0:0:0:
256,192,64518,5,0,0:0:0:0:
256,192,64615,5,8,0:0:0:0:
256,192,64679,5,8,0:0:0:0:
256,192,64744,5,8,0:0:0:0:
256,192,64808,5,0,0:0:0:0:
256,192,65002,5,8,0:0:0:0:
256,192,65195,5,0,0:0:0:0:
256,192,65324,5,8,0:0:0:0:
256,192,65389,5,0,0:0:0:0:
256,192,65453,5,8,0:0:0:0:
256,192,65582,5,0,0:0:0:0:
256,192,65776,5,8,0:0:0:0:
256,192,65969,5,0,0:0:0:0:
256,192,66099,5,0,0:0:0:0:
256,192,66163,5,8,0:0:0:0:
256,192,66228,5,8,0:0:0:0:
256,192,66357,5,0,0:0:0:0:
256,192,66550,5,8,0:0:0:0:
256,192,66744,5,8,0:0:0:0:
256,192,66840,5,0,0:0:0:0:
256,192,66937,5,0,0:0:0:0:
256,192,67034,5,8,0:0:0:0:
256,192,67131,5,0,0:0:0:0:
256,192,67228,5,0,0:0:0:0:
256,192,67324,5,8,0:0:0:0:
256,192,67421,5,0,0:0:0:0:
256,192,67518,5,8,0:0:0:0:
256,192,67647,5,8,0:0:0:0:
256,192,67776,5,8,0:0:0:0:
256,192,67905,5,0,0:0:0:0:
256,192,68099,5,8,0:0:0:0:
256,192,68292,5,8,0:0:0:0:
256,192,68389,5,0,0:0:0:0:
256,192,68486,5,0,0:0:0:0:
256,192,68582,5,8,0:0:0:0:
256,192,68679,5,0,0:0:0:0:
256,192,68776,5,0,0:0:0:0:
256,192,68873,5,8,0:0:0:0:
256,192,68969,5,8,0:0:0:0:
256,192,69066,5,0,0:0:0:0:
256,192,69163,5,8,0:0:0:0:
256,192,69260,5,8,0:0:0:0:
256,192,69357,5,8,0:0:0:0:
256,192,69453,5,0,0:0:0:0:
256,192,69582,5,8,0:0:0:0:
256,192,69711,5,8,0:0:0:0:
256,192,69840,5,0,0:0:0:0:
256,192,70034,5,0,0:0:0:0:
256,192,70228,5,8,0:0:0:0:
256,192,70421,5,0,0:0:0:0:
256,192,70615,5,8,0:0:0:0:
256,192,71002,5,8,0:0:0:0:
256,192,71195,5,0,0:0:0:0:
256,192,71389,5,8,0:0:0:0:
256,192,71582,5,8,0:0:0:0:
256,192,71776,5,8,0:0:0:0:
256,192,71873,5,8,0:0:0:0:
256,192,71969,5,0,0:0:0:0:
256,192,72066,5,0,0:0:0:0:
256,192,72163,5,8,0:0:0:0:
256,192,72357,5,8,0:0:0:0:
256,192,72421,5,8,0:0:0:0:
256,192,72486,5,8,0:0:0:0:
256,192,72550,5,0,0:0:0:0:
256,192,72744,5,8,0:0:0:0:
256,192,72937,5,0,0:0:0:0:
256,192,73131,5,0,0:0:0:0:
256,192,73324,5,8,0:0:0:0:
256,192,73518,5,0,0:0:0:0:
256,192,73711,5,8,0:0:0:0:
256,192,73905,5,8,0:0:0:0:
256,192,73969,5,8,0:0:0:0:
256,192,74034,5,8,0:0:0:0:
256,192,74099,5,0,0:0:0:0:
256,192,74292,5,0,0:0:0:0:
256,192,74486,5,8,0:0:0:0:
256,192,74679,5,0,0:0:0:0:
256,192,74873,5,0,0:0:0:0:
256,192,75066,5,8,0:0:0:0:
256,192,75260,5,0,0:0:0:0:
256,192,75453,5,8,0:0:0:0:
256,192,75518,5,8,0:0:0:0:
256,192,75582,5,8,0:0:0:0:
256,192,75647,5,0,0:0:0:0:
256,192,75744,5,0,0:0:0:0:
256,192,75840,5,8,0:0:0:0:
256,192,76034,5,0,0:0:0:0:
256,192,76421,5,0,0:0:0:0:
256,192,76486,5,8,0:0:0:0:
256,192,76550,5,8,0:0:0:0:
256,192,76615,5,0,0:0:0:0:
256,192,76808,5,8,0:0:0:0:
256,192,77002,5,0,0:0:0:0:
256,192,77195,5,8,0:0:0:0:
256,192,77389,5,0,0:0:0:0:
256,192,77486,5,8,0:0:0:0:
256,192,77582,5,8,0:0:0:0:
256,192,77776,5,0,0:0:0:0:
256,192,77969,5,8,0:0:0:0:
256,192,78163,5,8,0:0:0:0:
256,192,78357,5,0,0:0:0:0:
256,192,78550,5,8,0:0:0:0:
256,192,78615,5,0,0:0:0:0:
256,192,78679,5,0,0:0:0:0:
256,192,78744,5,8,0:0:0:0:
256,192,78840,5,8,0:0:0:0:
256,192,78937,5,0,0:0:0:0:
256,192,79131,5,8,0:0:0:0:
256,192,79324,5,0,0:0:0:0:
256,192,79389,5,0,0:0:0:0:
256,192,79453,5,0,0:0:0:0:
256,192,79518,5,8,0:0:0:0:
256,192,79711,5,0,0:0:0:0:
256,192,79905,5,8,0:0:0:0:
256,192,80099,5,0,0:0:0:0:
256,192,80292,5,8,0:0:0:0:
256,192,80357,5,8,0:0:0:0:
256,192,80421,5,8,0:0:0:0:
256,192,80486,5,0,0:0:0:0:
256,192,80679,5,8,0:0:0:0:
256,192,80873,5,8,0:0:0:0:
256,192,81066,5,0,0:0:0:0:
256,192,81260,5,8,0:0:0:0:
256,192,81453,5,0,0:0:0:0:
256,192,81582,5,8,0:0:0:0:
256,192,81711,5,0,0:0:0:0:
256,192,81840,5,8,0:0:0:0:
256,192,82228,5,0,0:0:0:0:
256,192,82292,5,8,0:0:0:0:
256,192,82357,5,8,0:0:0:0:
256,192,82421,5,0,0:0:0:0:
256,192,82486,5,8,0:0:0:0:
256,192,82550,5,0,0:0:0:0:
256,192,82615,5,8,0:0:0:0:
256,192,83002,5,0,0:0:0:0:
256,192,83066,5,8,0:0:0:0:
256,192,83131,5,0,0:0:0:0:
256,192,83195,5,0,0:0:0:0:
256,192,83260,5,8,0:0:0:0:
256,192,83776,5,0,0:0:0:0:
256,192,83840,5,8,0:0:0:0:
256,192,83905,5,8,0:0:0:0:
256,192,83969,5,0,0:0:0:0:
256,192,84034,5,8,0:0:0:0:
256,192,84357,5,12,0:0:0:0:
256,192,84550,5,12,0:0:0:0:
256,192,85324,5,12,0:0:0:0:
256,192,85518,5,0,0:0:0:0:
256,192,85711,5,0,0:0:0:0:
256,192,85905,5,8,0:0:0:0:
256,192,86099,5,8,0:0:0:0:
256,192,86292,5,0,0:0:0:0:
256,192,86486,5,8,0:0:0:0:
256,192,86679,5,0,0:0:0:0:
256,192,86873,5,8,0:0:0:0:
256,192,87066,5,0,0:0:0:0:
256,192,87260,5,8,0:0:0:0:
256,192,87453,5,8,0:0:0:0:
256,192,87647,5,8,0:0:0:0:
256,192,87840,5,0,0:0:0:0:
256,192,88034,5,8,0:0:0:0:
256,192,88228,5,0,0:0:0:0:
256,192,88421,5,8,0:0:0:0:
256,192,88615,5,0,0:0:0:0:
256,192,88808,5,0,0:0:0:0:
256,192,89002,5,8,0:0:0:0:
256,192,89195,5,8,0:0:0:0:
256,192,89389,5,0,0:0:0:0:
256,192,89582,5,8,0:0:0:0:
256,192,89776,5,0,0:0:0:0:
256,192,89969,5,8,0:0:0:0:
256,192,90163,5,0,0:0:0:0:
256,192,90357,5,8,0:0:0:0:
256,192,90550,5,0,0:0:0:0:
256,192,90744,5,8,0:0:0:0:
256,192,90937,5,8,0:0:0:0:
256,192,91034,5,8,0:0:0:0:
256,192,91131,5,0,0:0:0:0:
256,192,91228,5,0,0:0:0:0:
256,192,91324,5,8,0:0:0:0:
256,192,91421,5,0,0:0:0:0:
256,192,91518,5,12,0:0:0:0:
256,192,91711,5,0,0:0:0:0:
256,192,91905,5,0,0:0:0:0:
256,192,92099,5,8,0:0:0:0:
256,192,92292,5,8,0:0:0:0:
256,192,92486,5,0,0:0:0:0:
256,192,92679,5,8,0:0:0:0:
256,192,92873,5,0,0:0:0:0:
256,192,93066,5,8,0:0:0:0:
256,192,93260,5,0,0:0:0:0:
256,192,93453,5,8,0:0:0:0:
256,192,93647,5,0,0:0:0:0:
256,192,93840,5,0,0:0:0:0:
256,192,94034,5,8,0:0:0:0:
256,192,94228,5,8,0:0:0:0:
256,192,94421,5,0,0:0:0:0:
256,192,94615,5,8,0:0:0:0:
256,192,94808,5,8,0:0:0:0:
256,192,95002,5,8,0:0:0:0:
256,192,95195,5,0,0:0:0:0:
256,192,95389,5,0,0:0:0:0:
256,192,95582,5,8,0:0:0:0:
256,192,95776,5,8,0:0:0:0:
256,192,95969,5,0,0:0:0:0:
256,192,96163,5,8,0:0:0:0:
256,192,96357,5,8,0:0:0:0:
256,192,96550,5,8,0:0:0:0:
256,192,96744,5,0,0:0:0:0:
256,192,96937,5,8,0:0:0:0:
256,192,97131,5,8,0:0:0:0:
256,192,97228,5,8,0:0:0:0:
256,192,97324,5,0,0:0:0:0:
256,192,97421,5,0,0:0:0:0:
256,192,97518,5,0,0:0:0:0:
256,192,97615,5,8,0:0:0:0:
256,192,97711,5,0,0:0:0:0:
256,192,97905,5,8,0:0:0:0:
256,192,98099,5,0,0:0:0:0:
256,192,98292,5,8,0:0:0:0:
256,192,98486,5,8,0:0:0:0:
256,192,98679,5,0,0:0:0:0:
256,192,98873,5,8,0:0:0:0:
256,192,99066,5,0,0:0:0:0:
256,192,99260,5,0,0:0:0:0:
256,192,99453,5,8,0:0:0:0:
256,192,99647,5,8,0:0:0:0:
256,192,99840,5,0,0:0:0:0:
256,192,100034,5,0,0:0:0:0:
256,192,100808,5,0,0:0:0:0:
256,192,101002,5,8,0:0:0:0:
256,192,101195,5,8,0:0:0:0:
256,192,101389,5,0,0:0:0:0:
256,192,101582,5,0,0:0:0:0:
256,192,101776,5,8,0:0:0:0:
256,192,101840,5,8,0:0:0:0:
256,192,101905,5,8,0:0:0:0:
256,192,101969,5,0,0:0:0:0:
256,192,102163,5,8,0:0:0:0:
256,192,102357,5,0,0:0:0:0:
256,192,103131,5,0,0:0:0:0:
256,192,103324,5,0,0:0:0:0:
256,192,103518,5,8,0:0:0:0:
256,192,103711,5,8,0:0:0:0:
256,192,103905,5,0,0:0:0:0:
256,192,104679,5,0,0:0:0:0:
256,192,104873,5,8,0:0:0:0:
256,192,105066,5,8,0:0:0:0:
256,192,105260,5,8,0:0:0:0:
256,192,105453,5,0,0:0:0:0:
256,192,105840,5,8,0:0:0:0:
256,192,106034,5,0,0:0:0:0:
256,192,106421,5,0,0:0:0:0:
256,192,106808,5,8,0:0:0:0:
256,192,107002,5,0,0:0:0:0:
256,192,107776,5,0,0:0:0:0:
256,192,107969,5,8,0:0:0:0:
256,192,108163,5,8,0:0:0:0:
256,192,108357,5,0,0:0:0:0:
256,192,108550,5,8,0:0:0:0:
256,192,109324,5,0,0:0:0:0:
256,192,109518,5,8,0:0:0:0:
256,192,109711,5,0,0:0:0:0:
256,192,109905,5,8,0:0:0:0:
256,192,110099,5,8,0:0:0:0:
256,192,110486,5,0,0:0:0:0:
256,192,110873,5,8,0:0:0:0:
256,192,111260,5,0,0:0:0:0:
256,192,111453,5,8,0:0:0:0:
256,192,111647,5,8,0:0:0:0:
256,192,112034,5,0,0:0:0:0:
256,192,112421,5,8,0:0:0:0:
256,192,112615,5,8,0:0:0:0:
256,192,112808,5,0,0:0:0:0:
256,192,113002,5,8,0:0:0:0:
256,192,113195,5,0,0:0:0:0:
256,192,113776,5,0,0:0:0:0:
256,192,113873,5,8,0:0:0:0:
256,192,113969,5,8,0:0:0:0:
256,192,114357,5,8,0:0:0:0:
256,192,114744,5,8,0:0:0:0:
256,192,114840,5,8,0:0:0:0:
256,192,114937,5,0,0:0:0:0:
256,192,115034,5,0,0:0:0:0:
256,192,115131,5,8,0:0:0:0:
256,192,115324,5,0,0:0:0:0:
256,192,115518,5,8,0:0:0:0:
256,192,115711,5,0,0:0:0:0:
256,192,115808,5,8,0:0:0:0:
256,192,115905,5,0,0:0:0:0:
256,192,116099,5,8,0:0:0:0:
256,192,116195,5,8,0:0:0:0:
256,192,116292,5,4,0:0:0:0:
256,192,116582,5,0,0:0:0:0:
256,192,116679,5,8,0:0:0:0:
256,192,116776,5,0,0:0:0:0:
256,192,116873,5,8,0:0:0:0:
256,192,116969,5,0,0:0:0:0:
256,192,117066,5,0,0:0:0:0:
256,192,117260,5,8,0:0:0:0:
256,192,117324,5,0,0:0:0:0:
256,192,117389,5,0,0:0:0:0:
256,192,117453,5,8,0:0:0:0:
256,192,117647,5,0,0:0:0:0:
256,192,117840,5,8,0:0:0:0:
256,192,118034,5,8,0:0:0:0:
256,192,118131,5,0,0:0:0:0:
256,192,118228,5,8,0:0:0:0:
256,192,118421,5,0,0:0:0:0:
256,192,118808,5,8,0:0:0:0:
256,192,119002,5,0,0:0:0:0:
256,192,119195,5,0,0:0:0:0:
256,192,119292,5,8,0:0:0:0:
256,192,119389,5,8,0:0:0:0:
256,192,119582,5,0,0:0:0:0:
256,192,119679,5,8,0:0:0:0:
256,192,119776,5,8,0:0:0:0:
256,192,119873,5,8,0:0:0:0:
256,192,119969,5,0,0:0:0:0:
256,192,120163,5,8,0:0:0:0:
256,192,120260,5,8,0:0:0:0:
256,192,120357,5,8,0:0:0:0:
256,192,120453,5,0,0:0:0:0:
256,192,120550,5,8,0:0:0:0:
256,192,120744,5,8,0:0:0:0:
256,192,120840,5,8,0:0:0:0:
256,192,120937,5,4,0:0:0:0:
256,192,121324,5,8,0:0:0:0:
256,192,121421,5,8,0:0:0:0:
256,192,121518,5,0,0:0:0:0:
256,192,121615,5,0,0:0:0:0:
256,192,121711,5,8,0:0:0:0:
256,192,121808,5,0,0:0:0:0:
256,192,121905,5,8,0:0:0:0:
256,192,121969,5,8,0:0:0:0:
256,192,122034,5,8,0:0:0:0:
256,192,122099,5,0,0:0:0:0:
256,192,122292,5,8,0:0:0:0:
256,192,122486,5,8,0:0:0:0:
256,192,122615,5,0,0:0:0:0:
256,192,122744,5,0,0:0:0:0:
256,192,122873,5,8,0:0:0:0:
256,192,123002,5,8,0:0:0:0:
256,192,123131,5,0,0:0:0:0:
256,192,123260,5,8,0:0:0:0:
256,192,123389,5,0,0:0:0:0:
256,192,123518,5,8,0:0:0:0:
256,192,123647,5,8,0:0:0:0:
256,192,123776,5,0,0:0:0:0:
256,192,123905,5,8,0:0:0:0:
256,192,124034,5,0,0:0:0:0:
256,192,124131,5,8,0:0:0:0:
256,192,124228,5,8,0:0:0:0:
256,192,124324,5,8,0:0:0:0:
256,192,124421,5,0,0:0:0:0:
256,192,124679,5,8,0:0:0:0:
256,192,124808,5,0,0:0:0:0:
256,192,124937,5,8,0:0:0:0:
256,192,125002,5,8,0:0:0:0:
256,192,125066,5,0,0:0:0:0:
256,192,125195,5,0,0:0:0:0:
256,192,125582,5,0,0:0:0:0:
256,192,125679,5,8,0:0:0:0:
256,192,125776,5,0,0:0:0:0:
256,192,125873,5,8,0:0:0:0:
256,192,125969,5,8,0:0:0:0:
256,192,126066,5,0,0:0:0:0:
256,192,126163,5,8,0:0:0:0:
256,192,126260,5,8,0:0:0:0:
256,192,126357,5,0,0:0:0:0:
256,192,126550,5,0,0:0:0:0:
256,192,126744,5,8,0:0:0:0:
256,192,126840,5,0,0:0:0:0:
256,192,126937,5,8,0:0:0:0:
256,192,127034,5,8,0:0:0:0:
256,192,127131,5,0,0:0:0:0:
256,192,127228,5,0,0:0:0:0:
256,192,127324,5,8,0:0:0:0:
256,192,127421,5,0,0:0:0:0:
256,192,127518,5,8,0:0:0:0:
256,192,127615,5,8,0:0:0:0:
256,192,127711,5,0,0:0:0:0:
256,192,127808,5,8,0:0:0:0:
256,192,127905,5,8,0:0:0:0:
256,192,128002,5,0,0:0:0:0:
256,192,128099,5,8,0:0:0:0:
256,192,128195,5,0,0:0:0:0:
256,192,128292,5,8,0:0:0:0:
256,192,128486,5,8,0:0:0:0:
256,192,128679,5,0,0:0:0:0:
256,192,128776,5,8,0:0:0:0:
256,192,128873,5,0,0:0:0:0:
256,192,128969,5,8,0:0:0:0:
256,192,129066,5,8,0:0:0:0:
256,192,129163,5,0,0:0:0:0:
256,192,129260,5,8,0:0:0:0:
256,192,129357,5,0,0:0:0:0:
256,192,129453,5,0,0:0:0:0:
256,192,129550,5,8,0:0:0:0:
256,192,129647,5,8,0:0:0:0:
256,192,129744,5,0,0:0:0:0:
256,192,129840,5,8,0:0:0:0:
256,192,130034,5,8,0:0:0:0:
256,192,130228,5,0,0:0:0:0:
256,192,130324,5,0,0:0:0:0:
256,192,130421,5,0,0:0:0:0:
256,192,130518,5,0,0:0:0:0:
256,192,130615,5,8,0:0:0:0:
256,192,130808,5,0,0:0:0:0:
256,192,130905,5,8,0:0:0:0:
256,192,131002,5,0,0:0:0:0:
256,192,131099,5,0,0:0:0:0:
256,192,131195,5,8,0:0:0:0:
256,192,131389,5,0,0:0:0:0:
256,192,131486,5,8,0:0:0:0:
256,192,131582,5,0,0:0:0:0:
256,192,131679,5,8,0:0:0:0:
256,192,131776,5,0,0:0:0:0:
256,192,131969,5,8,0:0:0:0:
256,192,132066,5,0,0:0:0:0:
256,192,132163,5,8,0:0:0:0:
256,192,132260,5,8,0:0:0:0:
256,192,132357,5,8,0:0:0:0:
256,192,132453,5,0,0:0:0:0:
256,192,132550,5,0,0:0:0:0:
256,192,132647,5,0,0:0:0:0:
256,192,132744,5,8,0:0:0:0:
256,192,132840,5,0,0:0:0:0:
256,192,132937,5,8,0:0:0:0:
256,192,133034,5,8,0:0:0:0:
256,192,133131,5,0,0:0:0:0:
256,192,133228,5,8,0:0:0:0:
256,192,133324,5,4,0:0:0:0:
256,192,133711,5,0,0:0:0:0:
256,192,133808,5,8,0:0:0:0:
256,192,133905,5,0,0:0:0:0:
256,192,134002,5,8,0:0:0:0:
256,192,134099,5,8,0:0:0:0:
256,192,134292,5,8,0:0:0:0:
256,192,134357,5,0,0:0:0:0:
256,192,134421,5,0,0:0:0:0:
256,192,134486,5,8,0:0:0:0:
256,192,134679,5,0,0:0:0:0:
256,192,134873,5,8,0:0:0:0:
256,192,135066,5,8,0:0:0:0:
256,192,135131,5,8,0:0:0:0:
256,192,135195,5,8,0:0:0:0:
256,192,135260,5,0,0:0:0:0:
256,192,135453,5,8,0:0:0:0:
256,192,135550,5,0,0:0:0:0:
256,192,135647,5,8,0:0:0:0:
256,192,135776,5,0,0:0:0:0:
256,192,135905,5,8,0:0:0:0:
256,192,136034,5,8,0:0:0:0:
256,192,136292,5,0,0:0:0:0:
256,192,136421,5,8,0:0:0:0:
256,192,136550,5,0,0:0:0:0:
256,192,136679,5,8,0:0:0:0:
256,192,136808,5,8,0:0:0:0:
256,192,136937,5,0,0:0:0:0:
256,192,137066,5,8,0:0:0:0:
256,192,137195,5,0,0:0:0:0:
256,192,137453,5,0,0:0:0:0:
256,192,137582,5,0,0:0:0:0:
256,192,137711,5,8,0:0:0:0:
256,192,137840,5,0,0:0:0:0:
256,192,137969,5,8,0:0:0:0:
256,192,138228,5,8,0:0:0:0:
256,192,138357,5,0,0:0:0:0:
256,192,138486,5,8,0:0:0:0:
256,192,138615,5,0,0:0:0:0:
256,192,138744,5,8,0:0:0:0:
256,192,138873,5,8,0:0:0:0:
256,192,139002,5,0,0:0:0:0:
256,192,139131,5,8,0:0:0:0:
256,192,139195,5,8,0:0:0:0:
256,192,139260,5,8,0:0:0:0:
256,192,139324,5,0,0:0:0:0:
256,192,139453,5,8,0:0:0:0:
256,192,140292,12,0,144163,0:0:0:0:
