osu file format v14

[General]
AudioFilename: audio.mp3
AudioLeadIn: 0
PreviewTime: 114357
Countdown: 0
SampleSet: Normal
StackLeniency: 0.7
Mode: 1
LetterboxInBreaks: 0
WidescreenStoryboard: 1

[Editor]
DistanceSpacing: 0.81
BeatDivisor: 3
GridSize: 32
TimelineZoom: 1.6

[Metadata]
Title:Crescent Sakura
TitleUnicode:Crescent Sakura
Artist:m108
ArtistUnicode:m108
Creator:Antti
Version:Futsuu
Source:G2R2018 Climax
Tags:fa featured artist mg mpg mappers' guild electronic instrumental -GO BACK 2 TO YOUR ROOTS 2018 climax-
BeatmapID:2981183
BeatmapSetID:1449942

[Difficulty]
HPDrainRate:8
CircleSize:2
OverallDifficulty:4
ApproachRate:10
SliderMultiplier:1.4
SliderTickRate:1

[Events]
//Background and Video events
0,0,"pexels-elia-clerici-2004630.jpg",0,-24
//Break Periods
//Storyboard Layer 0 (Background)
//Storyboard Layer 1 (Fail)
//Storyboard Layer 2 (Pass)
//Storyboard Layer 3 (Foreground)
//Storyboard Layer 4 (Overlay)
//Storyboard Sound Samples

[TimingPoints]
164,387.096774193548,3,1,0,85,1,0
4799,-100,3,1,0,90,0,0
21057,-100,3,1,0,92,0,0
21444,-100,3,1,0,91,0,0
21831,-100,3,1,0,93,0,0
22218,-100,3,1,0,94,0,0
22605,-100,3,1,0,95,0,0
41970,387.096774193548,4,1,0,85,1,0
45066,-100,4,1,0,95,0,1
69840,-100,4,1,0,85,0,0
85314,-100,4,1,0,90,0,0
102347,-100,4,1,0,80,0,0
114734,-100,4,1,0,90,0,0
116292,-100,4,1,0,95,0,1
127131,-100,4,1,0,95,0,0
140292,-100,4,1,0,45,0,0

[HitObjects]
256,192,164,5,0,0:0:0:0:
256,192,422,5,8,0:0:0:0:
256,192,938,5,8,0:0:0:0:
256,192,1325,5,8,0:0:0:0:
256,192,1583,5,0,0:0:0:0:
256,192,1905,5,8,0:0:0:0:
256,192,2486,5,8,0:0:0:0:
256,192,2873,5,0,0:0:0:0:
256,192,3260,12,0,4615,0:0:0:0:
256,192,4809,5,0,0:0:0:0:
256,192,5067,5,0,0:0:0:0:
256,192,5196,5,8,0:0:0:0:
256,192,5583,5,8,0:0:0:0:
256,192,5970,5,0,0:0:0:0:
256,192,6228,5,8,0:0:0:0:
256,192,6357,5,8,0:0:0:0:
256,192,7131,5,0,0:0:0:0:
256,192,7389,5,8,0:0:0:0:
256,192,7518,5,0,0:0:0:0:
256,192,7905,5,8,0:0:0:0:
256,192,8293,5,0,0:0:0:0:
256,192,8551,5,0,0:0:0:0:
256,192,8680,5,8,0:0:0:0:
256,192,9454,5,0,0:0:0:0:
256,192,9712,5,0,0:0:0:0:
256,192,9841,5,8,0:0:0:0:
256,192,10228,5,8,0:0:0:0:
256,192,10615,5,0,0:0:0:0:
256,192,10873,5,0,0:0:0:0:
256,192,11002,5,8,0:0:0:0:
256,192,11776,5,0,0:0:0:0:
256,192,12163,5,0,0:0:0:0:
256,192,12357,5,8,0:0:0:0:
256,192,12551,5,8,0:0:0:0:
256,192,12744,5,0,0:0:0:0:
256,192,12938,5,8,0:0:0:0:
256,192,14099,5,0,0:0:0:0:
256,192,14357,5,0,0:0:0:0:
256,192,14486,5,8,0:0:0:0:
256,192,14873,5,8,0:0:0:0:
256,192,15260,5,0,0:0:0:0:
256,192,15518,5,8,0:0:0:0:
256,192,15647,5,8,0:0:0:0:
256,192,16422,5,0,0:0:0:0:
256,192,16680,5,8,0:0:0:0:
256,192,16809,5,0,0:0:0:0:
256,192,17196,5,8,0:0:0:0:
256,192,17583,5,0,0:0:0:0:
256,192,17841,5,0,0:0:0:0:
256,192,17970,5,8,0:0:0:0:
256,192,18744,5,0,0:0:0:0:
256,192,19002,5,0,0:0:0:0:
256,192,19131,5,8,0:0:0:0:
256,192,19518,5,8,0:0:0:0:
256,192,19905,5,0,0:0:0:0:
256,192,20163,5,8,0:0:0:0:
256,192,20293,5,8,0:0:0:0:
256,192,21067,5,0,0:0:0:0:
256,192,21325,5,0,0:0:0:0:
256,192,21454,5,8,0:0:0:0:
256,192,21841,5,8,0:0:0:0:
256,192,22228,5,0,0:0:0:0:
256,192,22422,5,8,0:0:0:0:
256,192,22615,5,8,0:0:0:0:
256,192,23389,5,8,0:0:0:0:
256,192,23776,5,8,0:0:0:0:
256,192,24163,5,0,0:0:0:0:
256,192,24551,5,8,0:0:0:0:
256,192,24938,5,0,0:0:0:0:
256,192,25325,5,8,0:0:0:0:
256,192,25712,5,8,0:0:0:0:
256,192,25905,5,0,0:0:0:0:
256,192,26293,5,8,0:0:0:0:
256,192,26873,5,0,0:0:0:0:
256,192,27647,5,0,0:0:0:0:
256,192,28034,5,8,0:0:0:0:
256,192,28228,5,0,0:0:0:0:
256,192,28422,5,8,0:0:0:0:
256,192,28809,5,8,0:0:0:0:
256,192,29196,5,0,0:0:0:0:
256,192,29970,5,8,0:0:0:0:
256,192,30163,5,8,0:0:0:0:
256,192,30357,5,0,0:0:0:0:
256,192,30744,5,8,0:0:0:0:
256,192,31131,5,8,0:0:0:0:
256,192,31518,5,8,0:0:0:0:
256,192,32293,5,0,0:0:0:0:
256,192,32680,5,8,0:0:0:0:
256,192,33454,5,0,0:0:0:0:
256,192,33841,5,8,0:0:0:0:
256,192,34228,5,8,0:0:0:0:
256,192,34422,5,0,0:0:0:0:
256,192,34615,5,8,0:0:0:0:
256,192,35002,5,0,0:0:0:0:
256,192,35583,5,0,0:0:0:0:
256,192,35776,5,8,0:0:0:0:
256,192,36163,5,8,0:0:0:0:
256,192,36938,5,8,0:0:0:0:
256,192,37325,5,8,0:0:0:0:
256,192,37518,5,0,0:0:0:0:
256,192,37712,5,8,0:0:0:0:
256,192,38099,5,8,0:0:0:0:
256,192,38486,5,0,0:0:0:0:
256,192,39260,5,0,0:0:0:0:
256,192,39647,5,8,0:0:0:0:
256,192,39841,5,8,0:0:0:0:
256,192,40034,5,0,0:0:0:0:
256,192,40422,5,8,0:0:0:0:
256,192,40615,5,0,0:0:0:0:
256,192,40809,5,8,0:0:0:0:
256,192,41970,5,0,0:0:0:0:
256,192,42163,5,8,0:0:0:0:
256,192,42357,5,8,0:0:0:0:
256,192,42744,5,8,0:0:0:0:
256,192,43131,5,0,0:0:0:0:
256,192,43518,5,8,0:0:0:0:
256,192,43905,5,0,0:0:0:0:
256,192,44292,5,0,0:0:0:0:
256,192,44679,5,8,0:0:0:0:
256,192,45066,5,12,0:0:0:0:
256,192,45840,5,0,0:0:0:0:
256,192,46034,5,8,0:0:0:0:
256,192,46228,5,8,0:0:0:0:
256,192,46421,5,0,0:0:0:0:
256,192,46615,5,8,0:0:0:0:
256,192,47776,5,8,0:0:0:0:
256,192,47969,5,0,0:0:0:0:
256,192,48163,5,0,0:0:0:0:
256,192,48550,5,8,0:0:0:0:
256,192,48744,5,0,0:0:0:0:
256,192,49131,5,0,0:0:0:0:
256,192,49518,5,8,0:0:0:0:
256,192,49711,5,0,0:0:0:0:
256,192,50486,5,0,0:0:0:0:
256,192,50679,5,0,0:0:0:0:
256,192,50873,5,8,0:0:0:0:
256,192,51066,5,8,0:0:0:0:
256,192,51260,5,4,0:0:0:0:
256,192,52034,5,0,0:0:0:0:
256,192,52421,5,8,0:0:0:0:
256,192,52615,5,0,0:0:0:0:
256,192,52808,5,8,0:0:0:0:
256,192,53195,5,0,0:0:0:0:
256,192,53582,5,8,0:0:0:0:
256,192,53969,5,8,0:0:0:0:
256,192,54357,5,8,0:0:0:0:
256,192,54744,5,0,0:0:0:0:
256,192,55131,5,0,0:0:0:0:
256,192,55518,5,0,0:0:0:0:
256,192,55905,5,8,0:0:0:0:
256,192,56679,5,0,0:0:0:0:
256,192,57453,5,4,0:0:0:0:
256,192,58228,5,0,0:0:0:0:
256,192,58421,5,8,0:0:0:0:
256,192,58615,5,0,0:0:0:0:
256,192,58808,5,8,0:0:0:0:
256,192,59002,5,0,0:0:0:0:
256,192,60163,5,8,0:0:0:0:
256,192,60550,5,0,0:0:0:0:
256,192,60937,5,8,0:0:0:0:
256,192,61131,5,0,0:0:0:0:
256,192,61518,5,8,0:0:0:0:
256,192,61905,5,0,0:0:0:0:
256,192,62099,5,8,0:0:0:0:
256,192,62873,5,8,0:0:0:0:
256,192,63066,5,0,0:0:0:0:
256,192,63260,5,0,0:0:0:0:
256,192,63453,5,8,0:0:0:0:
256,192,63647,5,4,0:0:0:0:
256,192,64421,5,8,0:0:0:0:
256,192,64808,5,0,0:0:0:0:
256,192,65002,5,8,0:0:0:0:
256,192,65195,5,8,0:0:0:0:
256,192,65582,5,0,0:0:0:0:
256,192,65969,5,0,0:0:0:0:
256,192,66357,5,8,0:0:0:0:
256,192,66744,5,8,0:0:0:0:
256,192,67518,5,8,0:0:0:0:
256,192,68292,5,0,0:0:0:0:
256,192,69066,5,8,0:0:0:0:
256,192,69260,5,8,0:0:0:0:
256,192,69453,5,8,0:0:0:0:
256,192,69840,5,0,0:0:0:0:
256,192,70228,5,8,0:0:0:0:
256,192,70421,5,0,0:0:0:0:
256,192,70615,5,8,0:0:0:0:
256,192,71002,5,8,0:0:0:0:
256,192,71389,5,0,0:0:0:0:
256,192,71776,5,8,0:0:0:0:
256,192,71969,5,0,0:0:0:0:
256,192,72163,5,0,0:0:0:0:
256,192,72937,5,0,0:0:0:0:
256,192,73324,5,8,0:0:0:0:
256,192,73518,5,0,0:0:0:0:
256,192,73711,5,8,0:0:0:0:
256,192,74099,5,0,0:0:0:0:
256,192,74486,5,8,0:0:0:0:
256,192,74873,5,0,0:0:0:0:
256,192,75066,5,8,0:0:0:0:
256,192,75260,5,0,0:0:0:0:
256,192,76034,5,8,0:0:0:0:
256,192,76421,5,8,0:0:0:0:
256,192,76615,5,0,0:0:0:0:
256,192,76808,5,8,0:0:0:0:
256,192,77195,5,0,0:0:0:0:
256,192,77582,5,8,0:0:0:0:
256,192,77969,5,0,0:0:0:0:
256,192,78357,5,8,0:0:0:0:
256,192,78744,5,0,0:0:0:0:
256,192,79131,5,8,0:0:0:0:
256,192,80292,5,0,0:0:0:0:
256,192,80679,5,8,0:0:0:0:
256,192,81453,5,8,0:0:0:0:
256,192,82228,5,0,0:0:0:0:
256,192,83002,5,0,0:0:0:0:
256,192,83776,5,0,0:0:0:0:
256,192,84357,5,12,0:0:0:0:
256,192,84550,5,12,0:0:0:0:
256,192,85324,5,12,0:0:0:0:
256,192,85518,5,0,0:0:0:0:
256,192,85711,5,0,0:0:0:0:
256,192,86099,5,8,0:0:0:0:
256,192,86486,5,0,0:0:0:0:
256,192,86873,5,8,0:0:0:0:
256,192,87066,5,0,0:0:0:0:
256,192,87260,5,8,0:0:0:0:
256,192,87647,5,0,0:0:0:0:
256,192,88421,5,8,0:0:0:0:
256,192,88615,5,0,0:0:0:0:
256,192,88808,5,8,0:0:0:0:
256,192,89195,5,8,0:0:0:0:
256,192,89582,5,0,0:0:0:0:
256,192,89969,5,8,0:0:0:0:
256,192,90357,5,8,0:0:0:0:
256,192,90550,5,0,0:0:0:0:
256,192,90744,5,8,0:0:0:0:
256,192,91518,5,12,0:0:0:0:
256,192,91711,5,0,0:0:0:0:
256,192,91905,5,8,0:0:0:0:
256,192,92292,5,8,0:0:0:0:
256,192,92679,5,0,0:0:0:0:
256,192,93066,5,0,0:0:0:0:
256,192,93260,5,0,0:0:0:0:
256,192,93453,5,8,0:0:0:0:
256,192,93840,5,0,0:0:0:0:
256,192,94615,5,8,0:0:0:0:
256,192,94808,5,8,0:0:0:0:
256,192,95002,5,8,0:0:0:0:
256,192,95389,5,0,0:0:0:0:
256,192,96163,5,8,0:0:0:0:
256,192,96357,5,8,0:0:0:0:
256,192,96550,5,8,0:0:0:0:
256,192,96937,5,8,0:0:0:0:
256,192,97711,5,0,0:0:0:0:
256,192,98099,5,8,0:0:0:0:
256,192,98486,5,8,0:0:0:0:
256,192,99260,5,8,0:0:0:0:
256,192,100034,5,0,0:0:0:0:
256,192,100808,5,0,0:0:0:0:
256,192,101195,5,8,0:0:0:0:
256,192,101582,5,8,0:0:0:0:
256,192,101776,5,8,0:0:0:0:
256,192,101969,5,0,0:0:0:0:
256,192,102357,5,0,0:0:0:0:
256,192,103131,5,0,0:0:0:0:
256,192,103518,5,8,0:0:0:0:
256,192,103905,5,0,0:0:0:0:
256,192,105066,5,8,0:0:0:0:
256,192,105453,5,0,0:0:0:0:
256,192,105840,5,8,0:0:0:0:
256,192,106421,5,0,0:0:0:0:
256,192,107002,5,0,0:0:0:0:
256,192,107776,5,0,0:0:0:0:
256,192,108163,5,8,0:0:0:0:
256,192,108550,5,0,0:0:0:0:
256,192,109324,5,0,0:0:0:0:
256,192,109711,5,8,0:0:0:0:
256,192,110099,5,8,0:0:0:0:
256,192,110873,5,0,0:0:0:0:
256,192,111260,5,0,0:0:0:0:
256,192,111647,5,8,0:0:0:0:
256,192,112421,5,8,0:0:0:0:
256,192,112808,5,0,0:0:0:0:
256,192,113195,5,0,0:0:0:0:
256,192,113969,5,8,0:0:0:0:
256,192,114744,5,12,0:0:0:0:
256,192,115518,5,0,0:0:0:0:
256,192,115711,5,0,0:0:0:0:
256,192,115905,5,8,0:0:0:0:
256,192,116099,5,8,0:0:0:0:
256,192,116292,5,4,0:0:0:0:
256,192,116873,5,8,0:0:0:0:
256,192,117066,5,0,0:0:0:0:
256,192,117453,5,8,0:0:0:0:
256,192,117840,5,0,0:0:0:0:
256,192,118228,5,8,0:0:0:0:
256,192,118421,5,0,0:0:0:0:
256,192,118808,5,8,0:0:0:0:
256,192,119195,5,0,0:0:0:0:
256,192,119389,5,8,0:0:0:0:
256,192,120163,5,8,0:0:0:0:
256,192,120357,5,0,0:0:0:0:
256,192,120550,5,0,0:0:0:0:
256,192,120744,5,8,0:0:0:0:
256,192,120937,5,4,0:0:0:0:
256,192,121711,5,8,0:0:0:0:
256,192,122099,5,0,0:0:0:0:
256,192,122292,5,8,0:0:0:0:
256,192,122486,5,8,0:0:0:0:
256,192,122873,5,0,0:0:0:0:
256,192,123260,5,0,0:0:0:0:
256,192,123647,5,8,0:0:0:0:
256,192,124034,5,8,0:0:0:0:
256,192,124808,5,0,0:0:0:0:
256,192,125582,5,8,0:0:0:0:
256,192,126357,5,0,0:0:0:0:
256,192,126744,5,8,0:0:0:0:
256,192,127131,5,4,0:0:0:0:
256,192,127518,5,8,0:0:0:0:
256,192,127711,5,8,0:0:0:0:
256,192,127905,5,0,0:0:0:0:
256,192,128292,5,8,0:0:0:0:
256,192,128679,5,8,0:0:0:0:
256,192,129066,5,8,0:0:0:0:
256,192,129453,5,0,0:0:0:0:
256,192,130228,5,0,0:0:0:0:
256,192,130615,5,8,0:0:0:0:
256,192,130808,5,0,0:0:0:0:
256,192,131002,5,0,0:0:0:0:
256,192,131389,5,8,0:0:0:0:
256,192,131776,5,0,0:0:0:0:
256,192,132550,5,8,0:0:0:0:
256,192,132937,5,0,0:0:0:0:
256,192,133131,5,8,0:0:0:0:
256,192,133324,5,4,0:0:0:0:
256,192,134099,5,8,0:0:0:0:
256,192,134486,5,8,0:0:0:0:
256,192,134679,5,0,0:0:0:0:
256,192,134873,5,8,0:0:0:0:
256,192,135260,5,0,0:0:0:0:
256,192,135647,5,8,0:0:0:0:
256,192,136421,5,8,0:0:0:0:
256,192,136808,5,8,0:0:0:0:
256,192,137195,5,0,0:0:0:0:
256,192,137582,5,8,0:0:0:0:
256,192,137969,5,8,0:0:0:0:
256,192,138357,5,0,0:0:0:0:
256,192,138744,5,0,0:0:0:0:
256,192,139131,5,8,0:0:0:0:
256,192,139421,5,8,0:0:0:0:
256,192,140292,12,0,144163,0:0:0:0:
