osu file format v14

[General]
AudioFilename: audio.mp3
AudioLeadIn: 0
PreviewTime: 114357
Countdown: 0
SampleSet: Normal
StackLeniency: 0.7
Mode: 1
LetterboxInBreaks: 0
WidescreenStoryboard: 0

[Editor]
DistanceSpacing: 0.81
BeatDivisor: 4
GridSize: 32
TimelineZoom: 3.499999

[Metadata]
Title:Crescent Sakura
TitleUnicode:Crescent Sakura
Artist:m108
ArtistUnicode:m108
Creator:Antti
Version:Blossom
Source:G2R2018 Climax
Tags:fa featured artist mg mpg mappers' guild electronic instrumental -GO BACK 2 TO YOUR ROOTS 2018 climax-
BeatmapID:2981035
BeatmapSetID:1449942

[Difficulty]
HPDrainRate:7
CircleSize:2
OverallDifficulty:6.5
ApproachRate:10
SliderMultiplier:1.4
SliderTickRate:1

[Events]
//Background and Video events
0,0,"pexels-elia-clerici-2004630.jpg",0,-24
//Break Periods
//Storyboard Layer 0 (Background)
//Storyboard Layer 1 (Fail)
//Storyboard Layer 2 (Pass)
//Storyboard Layer 3 (Foreground)
//Storyboard Layer 4 (Overlay)
//Storyboard Sound Samples

[TimingPoints]
164,387.096774193548,3,1,0,80,1,0
164,-86.9565217391304,3,1,0,80,0,0
218,-87.719298245614,3,1,0,80,0,0
283,-88.4955752212389,3,1,0,80,0,0
347,-89.2857142857143,3,1,0,80,0,0
412,-90.0900900900901,3,1,0,80,0,0
3250,-86.9565217391304,3,1,0,90,0,0
4799,-94.9868073878628,3,1,0,90,0,0
5057,-93.9947780678851,3,1,0,90,0,0
5186,-93.5064935064935,3,1,0,90,0,0
5444,-92.5449871465296,3,1,0,90,0,0
5573,-92.0716112531969,3,1,0,90,0,0
5766,-91.3705583756345,3,1,0,90,0,0
5831,-91.1392405063291,3,1,0,90,0,0
5960,-90.6801007556675,3,1,0,90,0,0
6218,-89.7755610972569,3,1,0,90,0,0
6347,-89.3300248138958,3,1,0,90,0,0
6734,-88.0195599022005,3,1,0,90,0,0
6928,-87.378640776699,3,1,0,90,0,0
6992,-87.1670702179177,3,1,0,90,0,0
7121,-87.1613663133098,3,1,0,90,0,0
7379,-87.9904875148633,3,1,0,90,0,0
7508,-88.4109916367981,3,1,0,90,0,0
7701,-89.0493381468111,3,1,0,90,0,0
7895,-89.6969696969697,3,1,0,90,0,0
8088,-90.3540903540904,3,1,0,90,0,0
8153,-90.5752753977968,3,1,0,90,0,0
8282,-91.0209102091021,3,1,0,90,0,0
8346,-91.2453760789149,3,1,0,90,0,0
8411,-91.4709517923362,3,1,0,90,0,0
8540,-91.9254658385093,3,1,0,90,0,0
8669,-92.3845193508115,3,1,0,90,0,0
8927,-93.3165195460277,3,1,0,90,0,0
9056,-93.7896070975919,3,1,0,90,0,0
9250,-94.5083014048531,3,1,0,90,0,0
9314,-94.7503201024328,3,1,0,90,0,0
9444,-94.9868073878628,3,1,0,90,0,0
9702,-93.9947780678851,3,1,0,90,0,0
9831,-93.5064935064935,3,1,0,90,0,0
10089,-92.5449871465296,3,1,0,90,0,0
10218,-92.0716112531969,3,1,0,90,0,0
10411,-91.3705583756345,3,1,0,90,0,0
10476,-91.1392405063291,3,1,0,90,0,0
10605,-90.6801007556675,3,1,0,90,0,0
10863,-89.7755610972569,3,1,0,90,0,0
10992,-89.3300248138958,3,1,0,90,0,0
11379,-88.0195599022005,3,1,0,90,0,0
11573,-87.378640776699,3,1,0,90,0,0
11637,-87.1670702179177,3,1,0,90,0,0
11766,-87.1670702179177,3,1,0,90,0,0
12024,-88.0195599022005,3,1,0,90,0,0
12153,-88.4520884520884,3,1,0,90,0,0
12346,-89.1089108910891,3,1,0,90,0,0
12540,-89.7755610972569,3,1,0,90,0,0
12733,-90.4522613065326,3,1,0,90,0,0
12798,-90.6801007556675,3,1,0,90,0,0
12927,-91.1392405063291,3,1,0,90,0,0
13185,-92.0716112531969,3,1,0,90,0,0
13314,-92.5449871465296,3,1,0,90,0,0
13701,-93.9947780678851,3,1,0,90,0,0
13895,-94.7368421052632,3,1,0,90,0,0
13959,-94.9868073878628,3,1,0,90,0,0
14089,-94.9868073878628,3,1,0,90,0,0
14347,-93.9947780678851,3,1,0,90,0,0
14476,-93.5064935064935,3,1,0,90,0,0
14734,-92.5449871465296,3,1,0,90,0,0
14863,-92.0716112531969,3,1,0,90,0,0
15056,-91.3705583756345,3,1,0,90,0,0
15121,-91.1392405063291,3,1,0,90,0,0
15250,-90.6801007556675,3,1,0,90,0,0
15508,-89.7755610972569,3,1,0,90,0,0
15637,-89.3335715561908,3,1,0,90,0,0
16024,-88.0195599022005,3,1,0,90,0,0
16218,-87.378640776699,3,1,0,90,0,0
16282,-87.1670702179177,3,1,0,90,0,0
16412,-87.1670702179177,3,1,0,90,0,0
16670,-88.0195599022005,3,1,0,90,0,0
16799,-88.4520884520884,3,1,0,90,0,0
16992,-89.1089108910891,3,1,0,90,0,0
17186,-89.7755610972569,3,1,0,90,0,0
17379,-90.4522613065326,3,1,0,90,0,0
17444,-90.6801007556675,3,1,0,90,0,0
17573,-91.1392405063291,3,1,0,90,0,0
17637,-91.3705583756345,3,1,0,90,0,0
17702,-91.6030534351145,3,1,0,90,0,0
17831,-92.0716112531969,3,1,0,90,0,0
17960,-92.5449871465296,3,1,0,90,0,0
18347,-93.9947780678851,3,1,0,90,0,0
18541,-94.7368421052632,3,1,0,90,0,0
18605,-94.9868073878628,3,1,0,90,0,0
18734,-95.2380952380952,3,1,0,90,0,0
18992,-94.1866138216972,3,1,0,90,0,0
19121,-93.6696197575455,3,1,0,90,0,0
19379,-92.6523018537873,3,1,0,90,0,0
19508,-92.1518847364226,3,1,0,90,0,0
19702,-91.411354752842,3,1,0,90,0,0
19766,-91.1671768989667,3,1,0,90,0,0
19895,-90.6826316462434,3,1,0,90,0,0
20089,-89.9654352797655,3,1,0,90,0,0
20283,-89.2594146367588,3,1,0,90,0,0
20541,-88.3352428468329,3,1,0,90,0,0
20670,-87.8802578758287,3,1,0,90,0,0
20863,-89.2857142857143,3,1,0,90,0,0
20928,-90.0900900900901,3,1,0,90,0,0
21057,-90.9090909090909,3,1,0,90,0,0
21250,-90.4977375565611,3,1,0,90,0,0
21444,-90.0900900900901,3,1,0,90,0,0
21831,-89.2857142857143,3,1,0,90,0,0
22024,-88.8888888888889,3,1,0,90,0,0
22089,-88.7573701901272,3,1,0,90,0,0
22218,-88.495575221239,3,1,0,90,0,0
22412,-88.1057268722467,3,1,0,90,0,0
22605,-87.719298245614,3,1,0,90,0,0
22992,-88.4955752212389,3,1,0,90,0,0
23186,-84.7457627118644,3,1,0,90,0,0
23283,-86.2068965517241,3,1,0,90,0,0
23379,-87.3362445414847,3,1,0,90,0,0
23476,-88.1057268722467,3,1,0,90,0,0
23573,-88.4955752212389,3,1,0,90,0,0
23670,-88.6917960088692,3,1,0,90,0,0
23766,-88.809946714032,3,1,0,90,0,0
23959,-90.9090909090909,3,1,0,90,0,0
24153,-83.988443190217,3,1,0,90,0,0
24249,-84.6539347148856,3,1,0,90,0,0
24346,-85.3300566591576,3,1,0,90,0,0
24443,-86.0170657858519,3,1,0,90,0,0
24540,-86.7152271938952,3,1,0,90,0,0
24830,-86.6336633663366,3,1,0,90,0,0
24927,-86.6068666872874,3,1,0,90,0,0
25121,-86.5538581382265,3,1,0,90,0,0
25314,-86.4998455359901,3,1,0,90,0,0
25508,-83.3333333333333,3,1,0,90,0,0
25604,-84.7457627118644,3,1,0,90,0,0
25701,-86.3930885529158,3,1,0,90,0,0
25895,-86.3398088189948,3,1,0,90,0,0
26088,-86.286594761171,3,1,0,90,0,0
26282,-86.2334462580844,3,1,0,90,0,0
26475,-86.1803631886734,3,1,0,90,0,0
26669,-86.1273454321747,3,1,0,90,0,0
26766,-86.0992724611477,3,1,0,90,0,0
26862,-86.0743928681217,3,1,0,90,0,0
27249,-85.9686828369666,3,1,0,90,0,0
27444,-83.3333333333333,3,1,0,90,0,0
27540,-84.7457627118644,3,1,0,90,0,0
27637,-85.8663918942126,3,1,0,90,0,0
27830,-85.8106037388906,3,1,0,90,0,0
28024,-85.755938598748,3,1,0,90,0,0
28121,-85.7307215183254,3,1,0,90,0,0
28218,-85.7055192640296,3,1,0,90,0,0
28315,-85.6803318227891,3,1,0,90,0,0
28412,-85.6552325496736,3,1,0,90,0,0
28798,-85.5484265200122,3,1,0,90,0,0
28991,-85.4961832061069,3,1,0,90,0,0
29185,-85.4440036618859,3,1,0,90,0,0
29572,-85.3398354160317,3,1,0,90,0,0
29862,-84.0336134453781,3,1,0,90,0,0
29959,-85.4700854700855,3,1,0,90,0,0
30153,-81.9672131147541,3,1,0,90,0,0
30249,-83.4724540901503,3,1,0,90,0,0
30346,-85.1322590453025,3,1,0,90,0,0
30733,-85.0288490737929,3,1,0,90,0,0
31120,-84.9256900212314,3,1,0,90,0,0
31411,-84.8484848484848,3,1,0,90,0,0
31507,-84.6740050804403,3,1,0,90,0,0
31895,-84.7201210287443,3,1,0,90,0,0
32282,-84.6177092777274,3,1,0,90,0,0
32475,-84.5665961945032,3,1,0,90,0,0
32669,-84.5155448234229,3,1,0,90,0,0
33056,-84.4136267711788,3,1,0,90,0,0
33443,-84.3119542306534,3,1,0,90,0,0
33830,-84.2105263157895,3,1,0,90,0,0
34217,-84.1093421447882,3,1,0,90,0,0
34412,-81.3008130081301,3,1,0,90,0,0
34508,-82.6446280991736,3,1,0,90,0,0
34605,-84.005376344086,3,1,0,90,0,0
34991,-83.9077015283189,3,1,0,90,0,0
35378,-83.8072433403173,3,1,0,90,0,0
35573,-77.5193798449612,3,1,0,90,0,0
35669,-78.4313725490196,3,1,0,90,0,0
35766,-79.3650793650794,3,1,0,90,0,0
35863,-80.3212851405623,3,1,0,90,0,0
35960,-81.3008130081301,3,1,0,90,0,0
36056,-82.3045267489712,3,1,0,90,0,0
36153,-83.6050497450046,3,1,0,90,0,0
36541,-79.3650793650794,3,1,0,90,0,0
36637,-80.3212851405623,3,1,0,90,0,0
36734,-81.3008130081301,3,1,0,90,0,0
36831,-82.3045267489712,3,1,0,90,0,0
36928,-83.4097923096171,3,1,0,90,0,0
37120,-83.3581423042572,3,1,0,90,0,0
37315,-82.6446280991736,3,1,0,90,0,0
37508,-82.0895399866358,3,1,0,90,0,0
37702,-81.5418586977439,3,1,0,90,0,0
37895,-81.0015025778728,3,1,0,90,0,0
37992,-80.733968655844,3,1,0,90,0,0
38089,-80.4681961524937,3,1,0,90,0,0
38283,-79.9418662748449,3,1,0,90,0,0
38476,-79.4223769370125,3,1,0,90,0,0
38670,-78.909595643559,3,1,0,90,0,0
38863,-78.403393298862,3,1,0,90,0,0
39057,-77.9037047885849,3,1,0,90,0,0
39153,-77.6562112932322,3,1,0,90,0,0
39250,-77.4102853497939,3,1,0,90,0,0
39444,-76.9230769230769,3,1,0,90,0,0
39637,-76.3358778625954,3,1,0,90,0,0
39734,-75.4304817594009,3,1,0,90,0,0
39831,-74.546311150339,3,1,0,90,0,0
39928,-73.6826282888241,3,1,0,90,0,0
40024,-72.8386761716283,3,1,0,90,0,0
40121,-72.0138900391107,3,1,0,90,0,0
40218,-71.2075736375321,3,1,0,90,0,0
40283,-70.6799695793411,3,1,0,90,0,0
40347,-70.1601756810799,3,1,0,90,0,0
40412,-69.6479227855269,3,1,0,90,0,0
40476,-69.1430957853135,3,1,0,90,0,0
40541,-68.64553436773,3,1,0,90,0,0
40605,-68.1551292527949,3,1,0,90,0,0
40702,-67.4324293341857,3,1,0,90,0,0
40799,-66.6666666666667,3,1,0,90,0,0
40992,-69.6864111498258,3,1,0,90,0,0
41186,-72.992700729927,3,1,0,90,0,0
41379,-76.6283524904215,3,1,0,90,0,0
41573,-80.6451612903226,3,1,0,90,0,0
41863,-87.527352297593,3,1,0,90,0,0
41970,387.096774193548,4,1,0,100,1,0
41970,-90.09009009009,3,1,0,90,0,0
42153,-90,3,1,0,85,0,0
42347,-89.5522388059701,3,1,0,85,0,0
42540,-85.9697386519945,3,1,0,85,0,0
42604,-86.8507903421921,3,1,0,85,0,0
42669,-87.7500877500878,3,1,0,85,0,0
42733,-88.6682035821954,3,1,0,85,0,0
42927,-88.2352941176471,3,1,0,85,0,0
43121,-87.8048780487805,3,1,0,85,0,0
43314,-82.6446280991736,3,1,0,90,0,0
43378,-84.0336134453781,3,1,0,90,0,0
43443,-85.4700854700855,3,1,0,90,0,0
43507,-86.9565217391304,3,1,0,90,0,0
43637,-86.0420650095602,3,1,0,90,0,0
43766,-85.348506401138,3,1,0,90,0,0
43895,-84.6660395108185,3,1,0,90,0,0
44024,-83.9944003733084,3,1,0,90,0,0
44088,-83.6625610039507,3,1,0,90,0,0
44153,-83.3333333333333,3,1,0,90,0,0
44282,-81.6582914572864,3,1,0,95,0,0
44346,-80.6952203600248,3,1,0,95,0,0
44411,-79.7546012269939,3,1,0,95,0,0
44475,-78.83565797453,3,1,0,95,0,0
44540,-77.9376498800959,3,1,0,95,0,0
44604,-77.0598695909899,3,1,0,95,0,0
44669,-76.2016412661196,3,1,0,95,0,0
44733,-75.3623188405797,3,1,0,95,0,0
44798,-74.5412844036697,3,1,0,95,0,0
44862,-73.7379466817924,3,1,0,95,0,0
44927,-72.9517396184063,3,1,0,95,0,0
44991,-72.1821210438645,3,1,0,95,0,0
45066,-71.4285714285714,4,1,0,95,0,1
46798,-67.1140939597315,3,1,0,95,0,1
46894,-67.7966101694915,3,1,0,95,0,1
46991,-68.4931506849315,3,1,0,95,0,1
47088,-69.204152249135,3,1,0,95,0,1
47185,-69.9300699300699,3,1,0,95,0,1
47281,-70.6713780918728,3,1,0,95,0,1
47378,-71.4285714285714,3,1,0,95,0,1
47766,-68.4931506849315,3,1,0,95,0,1
47830,-69.4444444444444,3,1,0,95,0,1
47895,-70.4225352112676,3,1,0,95,0,1
47959,-71.4285714285714,3,1,0,95,0,1
49508,-71.0900473933649,3,1,0,95,0,1
49605,-71.2589073634204,3,1,0,95,0,1
49701,-71.4285714285714,3,1,0,95,0,1
50669,-71.4285714285714,3,1,0,95,0,1
50766,-70.5996309051296,3,1,0,95,0,1
50863,-69.7896609408903,3,1,0,95,0,1
50959,-68.9981129016121,3,1,0,95,0,1
51056,-68.2243188313447,3,1,0,95,0,1
51153,-67.4676425186481,3,1,0,95,0,1
51250,-66.727611218246,3,1,0,95,0,1
51637,-65.359477124183,3,1,0,95,0,1
51701,-66.006600660066,3,1,0,95,0,1
51766,-66.6666666666667,3,1,0,95,0,1
51830,-67.3400673400673,3,1,0,95,0,1
51895,-68.0272108843537,3,1,0,95,0,1
51959,-68.7285223367698,3,1,0,95,0,1
52024,-69.4444444444444,3,1,0,95,0,1
52088,-70.1754385964912,3,1,0,95,0,1
52153,-70.9219858156028,3,1,0,95,0,1
52217,-71.6845878136201,3,1,0,95,0,1
52282,-72.463768115942,3,1,0,95,0,1
52346,-73.2600732600733,3,1,0,95,0,1
52411,-74.0740740740741,3,1,0,95,0,1
52605,-73.8007380073801,3,1,0,95,0,1
52798,-73.3496332518337,3,1,0,95,0,1
52927,-73.1707317073171,3,1,0,95,0,1
53056,-72.992700729927,3,1,0,95,0,1
53185,-72.4639431496211,3,1,0,95,0,1
53314,-72.1155579700913,3,1,0,95,0,1
53443,-71.7705066280063,3,1,0,95,0,1
53572,-71.1237553342817,3,1,0,95,0,1
53701,-70.5218617771509,3,1,0,95,0,1
53765,-70.2247191011236,3,1,0,95,0,1
53830,-69.9300699300699,3,1,0,95,0,1
53959,-69.060773480663,3,1,0,95,0,1
54023,-68.6813186813187,3,1,0,95,0,1
54088,-68.3060109289617,3,1,0,95,0,1
54152,-67.9347826086957,3,1,0,95,0,1
54217,-67.5675675675676,3,1,0,95,0,1
54347,-66.6666666666667,3,1,0,95,0,1
54540,-67.1140939597315,3,1,0,95,0,1
54637,-67.5675675675676,3,1,0,95,0,1
54734,-68.4931506849315,3,1,0,95,0,1
54798,-68.9655172413793,3,1,0,95,0,1
54863,-69.4444444444444,3,1,0,95,0,1
54927,-69.9300699300699,3,1,0,95,0,1
54992,-70.4225352112676,3,1,0,95,0,1
55056,-70.9219858156028,3,1,0,95,0,1
55131,-71.4285714285714,3,1,0,95,0,1
55260,-72.2195300386302,3,1,0,95,0,1
55324,-72.6216412490922,3,1,0,95,0,1
55389,-73.0282553622822,3,1,0,95,0,1
55518,-73.8552437223043,3,1,0,95,0,1
55647,-74.7011766182329,3,1,0,95,0,1
55711,-75.1314800901578,3,1,0,95,0,1
55776,-75.5667696641737,3,1,0,95,0,1
55905,-76.4525993883792,3,1,0,95,0,1
56024,-76.2388818297332,3,1,0,95,0,1
56153,-76.0456273764259,3,1,0,95,0,1
56282,-75.3768844221106,3,1,0,95,0,1
56411,-75,3,1,0,95,0,1
56540,-74.6268656716418,3,1,0,95,0,1
56669,-73.983102259444,3,1,0,95,0,1
56733,-73.2600732600733,3,1,0,95,0,1
56798,-72.463768115942,3,1,0,95,0,1
56862,-71.6845878136201,3,1,0,95,0,1
56927,-70.9219858156028,3,1,0,95,0,1
56991,-70.1754385964912,3,1,0,95,0,1
57056,-69.4444444444444,3,1,0,95,0,1
57120,-68.7285223367698,3,1,0,95,0,1
57185,-68.0272108843537,3,1,0,95,0,1
57249,-67.3400673400673,3,1,0,95,0,1
57314,-66.6666666666667,3,1,0,95,0,1
57378,-66.006600660066,3,1,0,95,0,1
57443,-64.9350649350649,3,1,0,95,0,1
57637,-65.7894736842105,3,1,0,95,0,1
57830,-66.6666666666667,3,1,0,95,0,1
58024,-67.5675675675676,3,1,0,95,0,1
58218,-68.4931506849315,3,1,0,95,0,1
58411,-69.4444444444444,3,1,0,95,0,1
58605,-70.4225352112676,3,1,0,95,0,1
58798,-71.4285714285714,3,1,0,95,0,1
58992,-72.463768115942,3,1,0,95,0,1
59185,-65.7894736842105,3,1,0,95,0,1
59281,-66.4451827242525,3,1,0,95,0,1
59378,-67.1140939597315,3,1,0,95,0,1
59475,-67.7966101694915,3,1,0,95,0,1
59572,-68.4931506849315,3,1,0,95,0,1
59668,-69.204152249135,3,1,0,95,0,1
59765,-70.1754385964912,3,1,0,95,0,1
60153,-67.1140939597315,3,1,0,95,0,1
60217,-68.0272108843537,3,1,0,95,0,1
60282,-68.9655172413793,3,1,0,95,0,1
60346,-70.1754385964912,3,1,0,95,0,1
61895,-69.6055684454756,3,1,0,95,0,1
61991,-69.284064665127,3,1,0,95,0,1
62088,-68.9655172413793,3,1,0,95,0,1
62282,-66.6666666666667,3,1,0,95,0,1
62378,-67.3400673400673,3,1,0,95,0,1
62475,-68.0272108843537,3,1,0,95,0,1
62572,-68.7285223367698,3,1,0,95,0,1
62669,-69.4444444444444,3,1,0,95,0,1
62863,-64.5161290322581,3,1,0,95,0,1
62959,-65.359477124183,3,1,0,95,0,1
63056,-66.2251655629139,3,1,0,95,0,1
63153,-67.1140939597315,3,1,0,95,0,1
63250,-68.0272108843537,3,1,0,95,0,1
63346,-68.9655172413793,3,1,0,95,0,1
63443,-69.9300699300699,3,1,0,95,0,1
63540,-70.9219858156028,3,1,0,95,0,1
63637,-71.9424460431655,3,1,0,95,0,1
64024,-62.5,3,1,0,95,0,1
64088,-63.0914826498423,3,1,0,95,0,1
64153,-63.6942675159236,3,1,0,95,0,1
64217,-64.5161290322581,3,1,0,95,0,1
64282,-65.1465798045603,3,1,0,95,0,1
64346,-65.7894736842105,3,1,0,95,0,1
64411,-66.4451827242525,3,1,0,95,0,1
64475,-67.1140939597315,3,1,0,95,0,1
64540,-67.7966101694915,3,1,0,95,0,1
64604,-68.4931506849315,3,1,0,95,0,1
64669,-69.204152249135,3,1,0,95,0,1
64733,-69.9300699300699,3,1,0,95,0,1
64798,-70.6713780918728,3,1,0,95,0,1
64992,-71.6845878136201,3,1,0,95,0,1
65185,-73.1528895391368,3,1,0,95,0,1
65314,-72.9394602479942,3,1,0,95,0,1
65378,-72.463768115942,3,1,0,95,0,1
65443,-71.9424460431655,3,1,0,95,0,1
65572,-72.4112961622013,3,1,0,95,0,1
65701,-71.9942404607631,3,1,0,95,0,1
65765,-71.1743772241993,3,1,0,95,0,1
65830,-70.4225352112676,3,1,0,95,0,1
65959,-70.97232079489,3,1,0,95,0,1
66088,-70.3729767769177,3,1,0,95,0,1
66152,-69.4444444444444,3,1,0,95,0,1
66217,-68.4931506849315,3,1,0,95,0,1
66347,-70.4225352112676,3,1,0,95,0,1
66411,-69.204152249135,3,1,0,95,0,1
66476,-68.0272108843537,3,1,0,95,0,1
66540,-66.8896321070234,3,1,0,95,0,1
66605,-65.7894736842105,3,1,0,95,0,1
66734,-64.5161290322581,3,1,0,95,0,1
66830,-64.8011705683451,3,1,0,95,0,1
66927,-65.0887419908303,3,1,0,95,0,1
67024,-65.3789198748647,3,1,0,95,0,1
67121,-65.671653553132,3,1,0,95,0,1
67185,-65.8682555846401,3,1,0,95,0,1
67250,-66.0660819377975,3,1,0,95,0,1
67314,-66.265056249093,3,1,0,95,0,1
67379,-66.4652768777271,3,1,0,95,0,1
67443,-66.6666666666667,3,1,0,95,0,1
67508,-66.8692805868448,3,1,0,95,0,1
67637,-67.2782710022579,3,1,0,95,0,1
67701,-67.4846708570148,3,1,0,95,0,1
67766,-67.6922951952686,3,1,0,95,0,1
67895,-68.1114466735051,3,1,0,95,0,1
68024,-68.5358212750267,3,1,0,95,0,1
68089,-68.7500214843817,3,1,0,95,0,1
68153,-68.9655172413793,3,1,0,95,0,1
68282,-69.4444444444444,3,1,0,95,0,1
68379,-70.1083313936695,3,1,0,95,0,1
68476,-70.785084450145,3,1,0,95,0,1
68572,-71.4749791114373,3,1,0,95,0,1
68669,-72.1784540096936,3,1,0,95,0,1
68766,-72.8959672492998,3,1,0,95,0,1
68863,-73.6278348557115,3,1,0,95,0,1
68959,-74.3746025607176,3,1,0,95,0,1
69056,-75.1366171541405,3,1,0,95,0,1
69153,-75.914408023242,3,1,0,95,0,1
69250,-76.70852906793,3,1,0,95,0,1
69347,-77.5193798449612,3,1,0,95,0,1
69443,-78.3475560263373,3,1,0,95,0,1
69508,-78.909595643559,3,1,0,95,0,1
69572,-79.4797573006131,3,1,0,95,0,1
69637,-80.0582183363742,3,1,0,95,0,1
69701,-80.6451612903226,3,1,0,95,0,1
69840,-81.6023436193088,3,1,0,93,0,0
70024,-83.081596097159,3,1,0,91,0,0
70218,-84.6153976331381,3,1,0,89,0,0
70411,-86.2068965517241,3,1,0,87,0,0
70605,-87.8594108850781,3,1,0,85,0,0
70992,-91.3621641869453,3,1,0,84,0,0
71185,-93.2203626831431,3,1,0,83,0,0
71379,-95.155717574024,3,1,0,81,0,0
72347,-91.9540229885057,3,1,0,80,0,0
72411,-93.0232558139535,3,1,0,80,0,0
72476,-94.1176470588235,3,1,0,80,0,0
72540,-95.2380952380952,3,1,0,80,0,0
73895,-91.9540229885057,3,1,0,80,0,0
73959,-93.0232558139535,3,1,0,80,0,0
74024,-94.1176470588235,3,1,0,80,0,0
74088,-95.2380952380952,3,1,0,80,0,0
75443,-88.0503144654088,3,1,0,80,0,0
75507,-89.171974522293,3,1,0,80,0,0
75572,-90.3225806451613,3,1,0,80,0,0
75636,-91.5032679738562,3,1,0,80,0,0
75701,-92.7152317880795,3,1,0,80,0,0
75765,-93.9597315436242,3,1,0,80,0,0
75830,-95.2380952380952,3,1,0,80,0,0
76411,-91.9540229885057,3,1,0,80,0,0
76475,-93.0232558139535,3,1,0,80,0,0
76540,-94.1176470588235,3,1,0,80,0,0
76604,-95.2380952380952,3,1,0,80,0,0
78540,-88.0503144654088,3,1,0,80,0,0
78604,-89.171974522293,3,1,0,80,0,0
78669,-90.3225806451613,3,1,0,80,0,0
78733,-91.5032679738562,3,1,0,80,0,0
78798,-92.7152317880795,3,1,0,80,0,0
78862,-93.9597315436242,3,1,0,80,0,0
78927,-95.2380952380952,3,1,0,80,0,0
79314,-91.9540229885057,3,1,0,80,0,0
79378,-93.0232558139535,3,1,0,80,0,0
79443,-94.1176470588235,3,1,0,80,0,0
79507,-95.2380952380952,3,1,0,80,0,0
80282,-91.9540229885057,3,1,0,80,0,0
80346,-93.0232558139535,3,1,0,80,0,0
80411,-94.1176470588235,3,1,0,80,0,0
80475,-95.2380952380952,3,1,0,80,0,0
81443,-94.6372239747634,3,1,0,80,0,0
81572,-94.0438871473354,3,1,0,80,0,0
81701,-93.4579439252337,3,1,0,80,0,0
81830,-91.4634146341463,3,1,0,80,0,0
81959,-90.3614457831325,3,1,0,80,0,0
82088,-89.2857142857143,3,1,0,80,0,0
82218,-86.7947923124613,3,1,0,80,0,0
82282,-85.8895705521472,3,1,0,80,0,0
82347,-85.003035822708,3,1,0,80,0,0
82411,-84.1346153846154,3,1,0,80,0,0
82476,-83.283759666865,3,1,0,80,0,0
82540,-82.4499411071849,3,1,0,80,0,0
82605,-81.6326530612245,3,1,0,80,0,0
82992,-85.2514919011083,3,1,0,80,0,0
83056,-84.3170320404722,3,1,0,80,0,0
83121,-83.4028356964137,3,1,0,80,0,0
83185,-82.5082508250825,3,1,0,80,0,0
83250,-81.6326530612245,3,1,0,80,0,0
83766,-83.7520938023451,3,1,0,80,0,0
83830,-82.7814569536424,3,1,0,80,0,0
83895,-81.8330605564648,3,1,0,80,0,0
83959,-80.9061488673139,3,1,0,80,0,0
84024,-80,3,1,0,80,0,0
84347,-66.6666666666667,3,1,0,100,0,0
85314,-81.2182741116751,3,1,0,90,0,0
85507,-82.4742268041237,3,1,0,90,0,0
85701,-83.7696335078534,3,1,0,90,0,0
85894,-85.1063829787234,3,1,0,90,0,0
86088,-86.4864864864865,3,1,0,90,0,0
86281,-87.9120879120879,3,1,0,90,0,0
86475,-89.3854748603352,3,1,0,90,0,0
86668,-90.9090909090909,3,1,0,90,0,0
86863,-82.687338501292,3,1,0,90,0,0
87056,-83.7696335078534,3,1,0,90,0,0
87250,-84.8806366047745,3,1,0,90,0,0
87443,-86.0215053763441,3,1,0,90,0,0
87637,-87.1934604904632,3,1,0,90,0,0
87830,-88.3977900552486,3,1,0,90,0,0
88024,-89.6358543417367,3,1,0,90,0,0
88217,-90.9090909090909,3,1,0,90,0,0
88411,-83.594566353187,3,1,0,90,0,0
88604,-84.5665961945032,3,1,0,90,0,0
88798,-85.5614973262032,3,1,0,90,0,0
88991,-86.5800865800866,3,1,0,90,0,0
89185,-87.6232201533406,3,1,0,90,0,0
89378,-88.6917960088692,3,1,0,90,0,0
89572,-89.7867564534231,3,1,0,90,0,0
89765,-90.9090909090909,3,1,0,90,0,0
89959,-85.1063829787234,3,1,0,90,0,0
90152,-85.8369098712446,3,1,0,90,0,0
90346,-86.5800865800866,3,1,0,90,0,0
90539,-87.3362445414847,3,1,0,90,0,0
90733,-88.1057268722467,3,1,0,90,0,0
90926,-88.8888888888889,3,1,0,90,0,0
91023,-89.2857142857143,3,1,0,90,0,0
91120,-89.6860986547085,3,1,0,90,0,0
91217,-90.0900900900901,3,1,0,90,0,0
91313,-90.4977375565611,3,1,0,90,0,0
91410,-90.9090909090909,3,1,0,90,0,0
91508,-84.2105263157895,3,1,0,90,0,0
91701,-85.1063829787234,3,1,0,90,0,0
91895,-86.0215053763441,3,1,0,90,0,0
92088,-86.9565217391304,3,1,0,90,0,0
92282,-87.9120879120879,3,1,0,90,0,0
92475,-88.8888888888889,3,1,0,90,0,0
92669,-89.8876404494382,3,1,0,90,0,0
92863,-90.4761904761905,3,1,0,90,0,0
92959,-90.0473933649289,3,1,0,90,0,0
93056,-89.6226415094339,3,1,0,90,0,0
93250,-88.785046728972,3,1,0,90,0,0
93443,-87.962962962963,3,1,0,90,0,0
93637,-87.1559633027523,3,1,0,90,0,0
93830,-86.3636363636364,3,1,0,90,0,0
94024,-85.5855855855856,3,1,0,90,0,0
94217,-84.8214285714286,3,1,0,90,0,0
94411,-84.070796460177,3,1,0,90,0,0
94605,-83.3333333333333,3,1,0,90,0,0
94798,-84.0336134453782,3,1,0,90,0,0
94992,-84.7457627118644,3,1,0,90,0,0
95185,-85.4700854700855,3,1,0,90,0,0
95379,-86.2068965517241,3,1,0,90,0,0
95572,-86.9565217391304,3,1,0,90,0,0
95766,-87.719298245614,3,1,0,90,0,0
95959,-88.495575221239,3,1,0,90,0,0
96153,-83.3333333333333,3,1,0,90,0,0
96347,-84.2105263157895,3,1,0,90,0,0
96540,-85.1063829787234,3,1,0,90,0,0
96734,-86.0215053763441,3,1,0,90,0,0
96927,-86.9565217391304,3,1,0,90,0,0
97121,-87.9120879120879,3,1,0,90,0,0
97218,-88.3977900552486,3,1,0,90,0,0
97314,-88.8888888888889,3,1,0,90,0,0
97411,-89.3854748603352,3,1,0,90,0,0
97508,-89.8876404494382,3,1,0,90,0,0
97605,-90.3954802259887,3,1,0,90,0,0
97701,-90.9090909090909,3,1,0,90,0,0
100798,-91.8367346938775,3,1,0,90,0,0
100991,-92.7835051546392,3,1,0,90,0,0
101185,-93.75,3,1,0,90,0,0
101378,-94.7368421052632,3,1,0,90,0,0
101572,-95.7446808510638,3,1,0,90,0,0
101766,-95.8722215031806,3,1,0,90,0,0
101830,-96.5148488094894,3,1,0,90,0,0
101895,-97.1661492569219,3,1,0,90,0,0
101959,-97.8262996223905,3,1,0,90,0,0
102152,-98.9010989010989,3,1,0,90,0,0
102346,-100,3,1,0,75,0,0
113766,-99.009900990099,3,1,0,85,0,0
113863,-98.0392156862745,3,1,0,85,0,0
113959,-97.0873786407767,3,1,0,85,0,0
114347,-93.4579439252336,3,1,0,85,0,0
114734,-88.9586603872318,3,1,0,90,0,0
114830,-87.8552971576227,3,1,0,90,0,0
114927,-86.7789688616641,3,1,0,90,0,0
115024,-85.7286938981341,3,1,0,90,0,0
115121,-84.7035376183358,3,1,0,90,0,0
115314,-82.7250608272506,3,1,0,90,0,0
115508,-80.8368996671422,3,1,0,90,0,0
115701,-79.0330079033008,3,1,0,90,0,0
115798,-78.1609195402299,3,1,0,90,0,0
115895,-77.3078672123692,3,1,0,90,0,0
116088,-75.6564307966177,3,1,0,90,0,0
116185,-74.8568912373404,3,1,0,90,0,0
116292,-74.0740740740741,3,1,0,95,0,1
116572,-70.1754385964912,3,1,0,95,0,1
116668,-70.9219858156028,3,1,0,95,0,1
116765,-71.6845878136201,3,1,0,95,0,1
116862,-72.463768115942,3,1,0,95,0,1
116959,-73.2600732600733,3,1,0,95,0,1
117055,-74.0740740740741,3,1,0,95,0,1
117250,-70.9219858156028,3,1,0,95,0,1
117314,-71.9424460431655,3,1,0,95,0,1
117379,-72.992700729927,3,1,0,95,0,1
117443,-74.0740740740741,3,1,0,95,0,1
119185,-72.992700729927,3,1,0,95,0,1
119281,-73.5294117647059,3,1,0,95,0,1
119378,-74.0740740740741,3,1,0,95,0,1
119572,-70.9219858156028,3,1,0,95,0,1
119668,-71.6845878136201,3,1,0,95,0,1
119765,-72.463768115942,3,1,0,95,0,1
119862,-73.2600732600733,3,1,0,95,0,1
119959,-74.0740740740741,3,1,0,95,0,1
120153,-66.2251655629139,3,1,0,95,0,1
120249,-67.1140939597315,3,1,0,95,0,1
120346,-68.0272108843537,3,1,0,95,0,1
120443,-68.9655172413793,3,1,0,95,0,1
120540,-69.9300699300699,3,1,0,95,0,1
120636,-70.9219858156028,3,1,0,95,0,1
120733,-71.9424460431655,3,1,0,95,0,1
120830,-72.992700729927,3,1,0,95,0,1
120927,-74.0740740740741,3,1,0,95,0,1
121314,-76.9230769230769,3,1,0,95,0,1
121378,-76.0456273764259,3,1,0,95,0,1
121443,-75.187969924812,3,1,0,95,0,1
121507,-74.3494423791822,3,1,0,95,0,1
121572,-73.5294117647059,3,1,0,95,0,1
121636,-72.992700729927,3,1,0,95,0,1
121701,-72.202166064982,3,1,0,95,0,1
121765,-71.4285714285714,3,1,0,95,0,1
121830,-70.6713780918728,3,1,0,95,0,1
121894,-69.9300699300699,3,1,0,95,0,1
121959,-69.204152249135,3,1,0,95,0,1
122023,-68.4931506849315,3,1,0,95,0,1
122088,-67.7966101694915,3,1,0,95,0,1
122282,-68.4931506849315,3,1,0,95,0,1
122476,-69.4444444444444,3,1,0,95,0,1
122605,-70.0116849502182,3,1,0,95,0,1
122734,-70.588218685125,3,1,0,95,0,1
122863,-71.1743772241993,3,1,0,95,0,1
122992,-71.7703520981704,3,1,0,95,0,1
123121,-72.3763395955755,3,1,0,95,0,1
123250,-72.992700729927,3,1,0,95,0,1
123379,-73.6196499680123,3,1,0,95,0,1
123508,-74.2574073620279,3,1,0,95,0,1
123637,-74.9063670411985,3,1,0,95,0,1
123766,-75.5667696641737,3,1,0,95,0,1
123895,-76.2388624551811,3,1,0,95,0,1
124024,-76.9230769230769,3,1,0,95,0,1
124121,-76.4419629684555,3,1,0,95,0,1
124218,-75.9668298434172,3,1,0,95,0,1
124314,-75.4976237122936,3,1,0,95,0,1
124411,-75.0341217668735,3,1,0,95,0,1
124476,-74.7282507162703,3,1,0,95,0,1
124540,-74.4249186535639,3,1,0,95,0,1
124669,-73.8255281293718,3,1,0,95,0,1
124798,-73.2356613729489,3,1,0,95,0,1
124927,-72.6551987700928,3,1,0,95,0,1
124992,-72.3684305747935,3,1,0,95,0,1
125056,-72.083865252189,3,1,0,95,0,1
125185,-71.5214471363528,3,1,0,95,0,1
125314,-70.9677373569202,3,1,0,95,0,1
125443,-70.4225352112676,3,1,0,95,0,1
125582,-70.4225352112676,3,1,0,95,0,1
125679,-71.4232657002623,3,1,0,95,0,1
125776,-72.4529001809149,3,1,0,95,0,1
125873,-73.5126011625283,3,1,0,95,0,1
125969,-74.6037607755807,3,1,0,95,0,1
126066,-75.727858310148,3,1,0,95,0,1
126163,-76.8862897905771,3,1,0,95,0,1
126260,-78.0807745612837,3,1,0,95,0,1
126357,-79.312896514912,3,1,0,95,0,1
126550,-81.8976672268467,3,1,0,95,0,1
126744,-84.656514657429,3,1,0,95,0,1
126808,-85.6179777204898,3,1,0,95,0,1
126873,-86.6014557704715,3,1,0,94,0,1
126937,-87.6077904351567,3,1,0,93,0,1
127002,-88.6377878844553,3,1,0,92,0,1
127066,-89.6923730987459,3,1,0,91,0,1
127131,-90.7722723386024,3,1,0,90,0,0
129927,-89.2857142857143,3,1,0,90,0,0
129976,-90.0900900900901,3,1,0,90,0,0
130024,-90.9090909090909,3,1,0,90,0,0
130179,-80,3,1,0,90,0,0
130228,-80.7043227656403,3,1,0,90,0,0
130324,-82.1508404441732,3,1,0,90,0,0
130421,-83.6501583079246,3,1,0,90,0,0
130469,-84.4206003148888,3,1,0,90,0,0
130518,-85.2052936344829,3,1,0,90,0,0
130615,-86.8192717946759,3,1,0,90,0,0
130808,-71.4285714285714,3,1,0,90,0,0
130873,-72.5646224245001,3,1,0,90,0,0
130937,-73.7373945923944,3,1,0,90,0,0
131002,-74.9486414434509,3,1,0,90,0,0
131050,-75.8835885045469,3,1,0,90,0,0
131099,-76.8420971745161,3,1,0,90,0,0
131147,-77.8251300457923,3,1,0,90,0,0
131195,-78.8337026692303,3,1,0,90,0,0
131389,-83.1434890333738,3,1,0,90,0,0
132550,-81.3008130081301,3,1,0,90,0,0
132615,-81.9672131147541,3,1,0,90,0,0
132679,-82.6446280991736,3,1,0,90,0,0
132744,-83.3333333333333,3,1,0,90,0,0
133701,-80.6451612903226,3,1,0,90,0,0
133765,-81.6326530612245,3,1,0,90,0,0
133830,-82.6446280991736,3,1,0,90,0,0
133894,-83.6820083682008,3,1,0,90,0,0
133959,-84.7457627118644,3,1,0,90,0,0
134023,-85.8369098712446,3,1,0,90,0,0
134088,-86.9565217391304,3,1,0,90,0,0
134282,-79.3650793650794,3,1,0,90,0,0
134346,-80.6451612903226,3,1,0,90,0,0
134411,-81.9672131147541,3,1,0,90,0,0
134475,-83.3333333333333,3,1,0,90,0,0
135056,-79.3650793650794,3,1,0,90,0,0
135120,-80.6451612903226,3,1,0,90,0,0
135185,-81.9672131147541,3,1,0,90,0,0
135249,-83.3333333333333,3,1,0,90,0,0
135443,-80.6451612903226,3,1,0,90,0,0
135508,-81.9672131147541,3,1,0,90,0,0
135572,-83.3333333333333,3,1,0,90,0,0
135637,-84.7457627118644,3,1,0,90,0,0
135766,-85.7244011936266,3,1,0,90,0,0
135895,-85.2413181717442,3,1,0,90,0,0
136024,-84.7635774298327,3,1,0,90,0,0
136218,-84.0569940042146,3,1,0,90,0,0
136282,-83.8240533120979,3,1,0,90,0,0
136411,-83.3620237631785,3,1,0,90,0,0
137959,-82.6446280991736,3,1,0,90,0,0
138218,-80.459261464439,3,1,0,90,0,0
138347,-79.4093847599097,3,1,0,90,0,0
138476,-78.3864924396228,3,1,0,90,0,0
138605,-77.3896771457449,3,1,0,90,0,0
138734,-76.417837451618,3,1,0,90,0,0
138863,-75.4701602306972,3,1,0,90,0,0
138992,-74.5456998685759,3,1,0,90,0,0
139121,-73.6435592815923,3,1,0,90,0,0
139185,-72.992700729927,3,1,0,90,0,0
139250,-72.463768115942,3,1,0,90,0,0
139314,-71.9424460431655,3,1,0,90,0,0
139379,-71.4285714285714,3,1,0,90,0,0
139443,-70.9219858156028,3,1,0,90,0,0
139508,-70.4225352112676,3,1,0,90,0,0
140282,-100,3,1,0,45,0,0
141056,-71.4285714285714,3,1,0,45,0,0
142605,-55.5555555555556,3,1,0,45,0,0
144153,-45.4545454545455,3,1,0,45,0,0

[HitObjects]
256,192,164,5,8,0:0:0:0:
256,192,228,5,0,0:0:0:0:
256,192,293,5,0,0:0:0:0:
256,192,357,5,0,0:0:0:0:
256,192,422,5,8,0:0:0:0:
256,192,938,5,0,0:0:0:0:
256,192,1067,5,8,0:0:0:0:
256,192,1196,5,0,0:0:0:0:
256,192,1325,5,0,0:0:0:0:
256,192,1389,5,8,0:0:0:0:
256,192,1454,5,8,0:0:0:0:
256,192,1518,5,8,0:0:0:0:
256,192,1583,5,0,0:0:0:0:
256,192,1905,5,8,0:0:0:0:
256,192,2051,5,0,0:0:0:0:
256,192,2196,5,8,0:0:0:0:
256,192,2486,5,8,0:0:0:0:
256,192,2551,5,8,0:0:0:0:
256,192,2615,5,0,0:0:0:0:
256,192,2680,5,8,0:0:0:0:
256,192,2744,5,8,0:0:0:0:
256,192,2809,5,8,0:0:0:0:
256,192,2873,5,0,0:0:0:0:
256,192,3260,12,0,4615,0:0:0:0:
256,192,4809,5,0,0:0:0:0:
256,192,5067,5,0,0:0:0:0:
256,192,5196,5,8,0:0:0:0:
256,192,5454,5,0,0:0:0:0:
256,192,5583,5,8,0:0:0:0:
256,192,5776,5,0,0:0:0:0:
256,192,5841,5,8,0:0:0:0:
256,192,5970,5,0,0:0:0:0:
256,192,6228,5,8,0:0:0:0:
256,192,6357,5,8,0:0:0:0:
256,192,6744,5,8,0:0:0:0:
256,192,6938,5,8,0:0:0:0:
256,192,7002,5,0,0:0:0:0:
256,192,7131,5,0,0:0:0:0:
256,192,7389,5,8,0:0:0:0:
256,192,7518,5,0,0:0:0:0:
256,192,7712,5,8,0:0:0:0:
256,192,7905,5,8,0:0:0:0:
256,192,8099,5,0,0:0:0:0:
256,192,8163,5,8,0:0:0:0:
256,192,8293,5,0,0:0:0:0:
256,192,8357,5,8,0:0:0:0:
256,192,8422,5,0,0:0:0:0:
256,192,8551,5,0,0:0:0:0:
256,192,8680,5,8,0:0:0:0:
256,192,8938,5,0,0:0:0:0:
256,192,9067,5,8,0:0:0:0:
256,192,9260,5,8,0:0:0:0:
256,192,9325,5,0,0:0:0:0:
256,192,9454,5,0,0:0:0:0:
256,192,9712,5,0,0:0:0:0:
256,192,9841,5,8,0:0:0:0:
256,192,10099,5,0,0:0:0:0:
256,192,10228,5,8,0:0:0:0:
256,192,10422,5,0,0:0:0:0:
256,192,10486,5,8,0:0:0:0:
256,192,10615,5,0,0:0:0:0:
256,192,10873,5,0,0:0:0:0:
256,192,11002,5,8,0:0:0:0:
256,192,11389,5,8,0:0:0:0:
256,192,11583,5,8,0:0:0:0:
256,192,11647,5,0,0:0:0:0:
256,192,11776,5,0,0:0:0:0:
256,192,12034,5,8,0:0:0:0:
256,192,12163,5,0,0:0:0:0:
256,192,12357,5,8,0:0:0:0:
256,192,12551,5,8,0:0:0:0:
256,192,12744,5,0,0:0:0:0:
256,192,12809,5,8,0:0:0:0:
256,192,12938,5,8,0:0:0:0:
256,192,13196,5,0,0:0:0:0:
256,192,13325,5,8,0:0:0:0:
256,192,13712,5,8,0:0:0:0:
256,192,13905,5,8,0:0:0:0:
256,192,13970,5,0,0:0:0:0:
256,192,14099,5,0,0:0:0:0:
256,192,14357,5,0,0:0:0:0:
256,192,14486,5,8,0:0:0:0:
256,192,14744,5,0,0:0:0:0:
256,192,14873,5,8,0:0:0:0:
256,192,15067,5,0,0:0:0:0:
256,192,15131,5,8,0:0:0:0:
256,192,15260,5,0,0:0:0:0:
256,192,15518,5,8,0:0:0:0:
256,192,15647,5,8,0:0:0:0:
256,192,16034,5,8,0:0:0:0:
256,192,16228,5,8,0:0:0:0:
256,192,16293,5,0,0:0:0:0:
256,192,16422,5,0,0:0:0:0:
256,192,16680,5,8,0:0:0:0:
256,192,16809,5,0,0:0:0:0:
256,192,17002,5,8,0:0:0:0:
256,192,17196,5,8,0:0:0:0:
256,192,17389,5,0,0:0:0:0:
256,192,17454,5,8,0:0:0:0:
256,192,17583,5,0,0:0:0:0:
256,192,17647,5,8,0:0:0:0:
256,192,17712,5,0,0:0:0:0:
256,192,17841,5,0,0:0:0:0:
256,192,17970,5,8,0:0:0:0:
256,192,18357,5,8,0:0:0:0:
256,192,18551,5,0,0:0:0:0:
256,192,18615,5,8,0:0:0:0:
256,192,18744,5,0,0:0:0:0:
256,192,19002,5,0,0:0:0:0:
256,192,19131,5,8,0:0:0:0:
256,192,19389,5,0,0:0:0:0:
256,192,19518,5,8,0:0:0:0:
256,192,19712,5,0,0:0:0:0:
256,192,19776,5,8,0:0:0:0:
256,192,19905,5,0,0:0:0:0:
256,192,20099,5,8,0:0:0:0:
256,192,20293,5,8,0:0:0:0:
256,192,20551,5,0,0:0:0:0:
256,192,20680,5,8,0:0:0:0:
256,192,20873,5,8,0:0:0:0:
256,192,20938,5,0,0:0:0:0:
256,192,21067,5,0,0:0:0:0:
256,192,21260,5,8,0:0:0:0:
256,192,21454,5,8,0:0:0:0:
256,192,21841,5,8,0:0:0:0:
256,192,22034,5,0,0:0:0:0:
256,192,22099,5,8,0:0:0:0:
256,192,22228,5,0,0:0:0:0:
256,192,22422,5,8,0:0:0:0:
256,192,22615,5,8,0:0:0:0:
256,192,23002,5,8,0:0:0:0:
256,192,23196,5,0,0:0:0:0:
256,192,23293,5,0,0:0:0:0:
256,192,23389,5,8,0:0:0:0:
256,192,23486,5,8,0:0:0:0:
256,192,23583,5,8,0:0:0:0:
256,192,23680,5,0,0:0:0:0:
256,192,23776,5,8,0:0:0:0:
256,192,23970,5,0,0:0:0:0:
256,192,24163,5,8,0:0:0:0:
256,192,24260,5,8,0:0:0:0:
256,192,24357,5,8,0:0:0:0:
256,192,24454,5,8,0:0:0:0:
256,192,24551,5,0,0:0:0:0:
256,192,24841,5,0,0:0:0:0:
256,192,24938,5,8,0:0:0:0:
256,192,25131,5,0,0:0:0:0:
256,192,25325,5,8,0:0:0:0:
256,192,25518,5,8,0:0:0:0:
256,192,25615,5,0,0:0:0:0:
256,192,25712,5,8,0:0:0:0:
256,192,25905,5,0,0:0:0:0:
256,192,26099,5,8,0:0:0:0:
256,192,26293,5,8,0:0:0:0:
256,192,26486,5,0,0:0:0:0:
256,192,26680,5,8,0:0:0:0:
256,192,26776,5,0,0:0:0:0:
256,192,26873,5,8,0:0:0:0:
256,192,27260,5,8,0:0:0:0:
256,192,27454,5,0,0:0:0:0:
256,192,27551,5,8,0:0:0:0:
256,192,27647,5,8,0:0:0:0:
256,192,27841,5,0,0:0:0:0:
256,192,28034,5,8,0:0:0:0:
256,192,28131,5,0,0:0:0:0:
256,192,28228,5,0,0:0:0:0:
256,192,28325,5,0,0:0:0:0:
256,192,28422,5,8,0:0:0:0:
256,192,28809,5,8,0:0:0:0:
256,192,29002,5,8,0:0:0:0:
256,192,29196,5,0,0:0:0:0:
256,192,29583,5,0,0:0:0:0:
256,192,29873,5,8,0:0:0:0:
256,192,29970,5,0,0:0:0:0:
256,192,30163,5,8,0:0:0:0:
256,192,30260,5,8,0:0:0:0:
256,192,30357,5,0,0:0:0:0:
256,192,30744,5,8,0:0:0:0:
256,192,31131,5,8,0:0:0:0:
256,192,31422,5,0,0:0:0:0:
256,192,31518,5,8,0:0:0:0:
256,192,31905,5,8,0:0:0:0:
256,192,32293,5,8,0:0:0:0:
256,192,32486,5,0,0:0:0:0:
256,192,32680,5,8,0:0:0:0:
256,192,33067,5,8,0:0:0:0:
256,192,33454,5,0,0:0:0:0:
256,192,33841,5,8,0:0:0:0:
256,192,34228,5,8,0:0:0:0:
256,192,34422,5,0,0:0:0:0:
256,192,34518,5,8,0:0:0:0:
256,192,34615,5,8,0:0:0:0:
256,192,35002,5,0,0:0:0:0:
256,192,35389,5,8,0:0:0:0:
256,192,35583,5,8,0:0:0:0:
256,192,35680,5,0,0:0:0:0:
256,192,35776,5,0,0:0:0:0:
256,192,35873,5,8,0:0:0:0:
256,192,35970,5,0,0:0:0:0:
256,192,36067,5,8,0:0:0:0:
256,192,36163,5,8,0:0:0:0:
256,192,36551,5,8,0:0:0:0:
256,192,36647,5,0,0:0:0:0:
256,192,36744,5,0,0:0:0:0:
256,192,36841,5,0,0:0:0:0:
256,192,36938,5,8,0:0:0:0:
256,192,37131,5,0,0:0:0:0:
256,192,37325,5,8,0:0:0:0:
256,192,37518,5,8,0:0:0:0:
256,192,37712,5,0,0:0:0:0:
256,192,37905,5,0,0:0:0:0:
256,192,38002,5,8,0:0:0:0:
256,192,38099,5,0,0:0:0:0:
256,192,38293,5,8,0:0:0:0:
256,192,38486,5,0,0:0:0:0:
256,192,38680,5,8,0:0:0:0:
256,192,38873,5,8,0:0:0:0:
256,192,39067,5,8,0:0:0:0:
256,192,39163,5,0,0:0:0:0:
256,192,39260,5,8,0:0:0:0:
256,192,39454,5,8,0:0:0:0:
256,192,39647,5,8,0:0:0:0:
256,192,39744,5,0,0:0:0:0:
256,192,39841,5,8,0:0:0:0:
256,192,39938,5,8,0:0:0:0:
256,192,40034,5,8,0:0:0:0:
256,192,40131,5,0,0:0:0:0:
256,192,40228,5,8,0:0:0:0:
256,192,40293,5,8,0:0:0:0:
256,192,40357,5,8,0:0:0:0:
256,192,40422,5,0,0:0:0:0:
256,192,40486,5,0,0:0:0:0:
256,192,40551,5,0,0:0:0:0:
256,192,40615,5,8,0:0:0:0:
256,192,40712,5,8,0:0:0:0:
256,192,40809,5,0,0:0:0:0:
256,192,41002,5,8,0:0:0:0:
256,192,41196,5,0,0:0:0:0:
256,192,41389,5,8,0:0:0:0:
256,192,41583,5,8,0:0:0:0:
256,192,41873,5,8,0:0:0:0:
256,192,41970,5,0,0:0:0:0:
256,192,42163,5,8,0:0:0:0:
256,192,42357,5,8,0:0:0:0:
256,192,42550,5,8,0:0:0:0:
256,192,42615,5,0,0:0:0:0:
256,192,42679,5,8,0:0:0:0:
256,192,42744,5,0,0:0:0:0:
256,192,42937,5,8,0:0:0:0:
256,192,43131,5,8,0:0:0:0:
256,192,43324,5,8,0:0:0:0:
256,192,43389,5,0,0:0:0:0:
256,192,43453,5,8,0:0:0:0:
256,192,43518,5,0,0:0:0:0:
256,192,43647,5,8,0:0:0:0:
256,192,43776,5,8,0:0:0:0:
256,192,43905,5,0,0:0:0:0:
256,192,44034,5,0,0:0:0:0:
256,192,44099,5,8,0:0:0:0:
256,192,44163,5,8,0:0:0:0:
256,192,44292,5,0,0:0:0:0:
256,192,44357,5,8,0:0:0:0:
256,192,44421,5,8,0:0:0:0:
256,192,44486,5,0,0:0:0:0:
256,192,44550,5,8,0:0:0:0:
256,192,44615,5,8,0:0:0:0:
256,192,44679,5,8,0:0:0:0:
256,192,44744,5,0,0:0:0:0:
256,192,44808,5,8,0:0:0:0:
256,192,44872,5,8,0:0:0:0:
256,192,44937,5,0,0:0:0:0:
256,192,45002,5,0,0:0:0:0:
256,192,45066,5,12,0:0:0:0:
256,192,45260,5,0,0:0:0:0:
256,192,45453,5,8,0:0:0:0:
256,192,45647,5,0,0:0:0:0:
256,192,45840,5,8,0:0:0:0:
256,192,46034,5,8,0:0:0:0:
256,192,46228,5,0,0:0:0:0:
256,192,46421,5,8,0:0:0:0:
256,192,46615,5,0,0:0:0:0:
256,192,46808,5,0,0:0:0:0:
256,192,46905,5,0,0:0:0:0:
256,192,47002,5,8,0:0:0:0:
256,192,47099,5,8,0:0:0:0:
256,192,47195,5,0,0:0:0:0:
256,192,47292,5,8,0:0:0:0:
256,192,47389,5,8,0:0:0:0:
256,192,47582,5,0,0:0:0:0:
256,192,47776,5,8,0:0:0:0:
256,192,47840,5,8,0:0:0:0:
256,192,47905,5,8,0:0:0:0:
256,192,47969,5,0,0:0:0:0:
256,192,48163,5,0,0:0:0:0:
256,192,48357,5,0,0:0:0:0:
256,192,48453,5,0,0:0:0:0:
256,192,48550,5,8,0:0:0:0:
256,192,48744,5,0,0:0:0:0:
256,192,48937,5,8,0:0:0:0:
256,192,49131,5,0,0:0:0:0:
256,192,49324,5,8,0:0:0:0:
256,192,49518,5,8,0:0:0:0:
256,192,49615,5,8,0:0:0:0:
256,192,49711,5,0,0:0:0:0:
256,192,49905,5,0,0:0:0:0:
256,192,50002,5,0,0:0:0:0:
256,192,50099,5,8,0:0:0:0:
256,192,50195,5,8,0:0:0:0:
256,192,50292,5,8,0:0:0:0:
256,192,50389,5,0,0:0:0:0:
256,192,50486,5,8,0:0:0:0:
256,192,50679,5,0,0:0:0:0:
256,192,50776,5,0,0:0:0:0:
256,192,50873,5,8,0:0:0:0:
256,192,50969,5,8,0:0:0:0:
256,192,51066,5,8,0:0:0:0:
256,192,51163,5,8,0:0:0:0:
256,192,51260,5,4,0:0:0:0:
256,192,51453,5,0,0:0:0:0:
256,192,51647,5,8,0:0:0:0:
256,192,51711,5,0,0:0:0:0:
256,192,51776,5,0,0:0:0:0:
256,192,51840,5,8,0:0:0:0:
256,192,51905,5,0,0:0:0:0:
256,192,51969,5,0,0:0:0:0:
256,192,52034,5,8,0:0:0:0:
256,192,52099,5,8,0:0:0:0:
256,192,52163,5,0,0:0:0:0:
256,192,52228,5,8,0:0:0:0:
256,192,52292,5,8,0:0:0:0:
256,192,52357,5,8,0:0:0:0:
256,192,52421,5,0,0:0:0:0:
256,192,52615,5,8,0:0:0:0:
256,192,52808,5,8,0:0:0:0:
256,192,52937,5,0,0:0:0:0:
256,192,53066,5,8,0:0:0:0:
256,192,53195,5,0,0:0:0:0:
256,192,53324,5,8,0:0:0:0:
256,192,53453,5,0,0:0:0:0:
256,192,53582,5,8,0:0:0:0:
256,192,53711,5,0,0:0:0:0:
256,192,53776,5,8,0:0:0:0:
256,192,53840,5,8,0:0:0:0:
256,192,53969,5,0,0:0:0:0:
256,192,54034,5,8,0:0:0:0:
256,192,54099,5,8,0:0:0:0:
256,192,54163,5,0,0:0:0:0:
256,192,54228,5,8,0:0:0:0:
256,192,54357,5,8,0:0:0:0:
256,192,54550,5,8,0:0:0:0:
256,192,54647,5,0,0:0:0:0:
256,192,54744,5,8,0:0:0:0:
256,192,54808,5,8,0:0:0:0:
256,192,54873,5,8,0:0:0:0:
256,192,54937,5,0,0:0:0:0:
256,192,55002,5,0,0:0:0:0:
256,192,55066,5,0,0:0:0:0:
256,192,55131,5,8,0:0:0:0:
256,192,55260,5,8,0:0:0:0:
256,192,55324,5,8,0:0:0:0:
256,192,55389,5,0,0:0:0:0:
256,192,55518,5,0,0:0:0:0:
256,192,55647,5,8,0:0:0:0:
256,192,55711,5,8,0:0:0:0:
256,192,55776,5,0,0:0:0:0:
256,192,55905,5,0,0:0:0:0:
256,192,56034,5,8,0:0:0:0:
256,192,56163,5,8,0:0:0:0:
256,192,56292,5,0,0:0:0:0:
256,192,56421,5,8,0:0:0:0:
256,192,56550,5,8,0:0:0:0:
256,192,56679,5,0,0:0:0:0:
256,192,56744,5,8,0:0:0:0:
256,192,56808,5,8,0:0:0:0:
256,192,56873,5,8,0:0:0:0:
256,192,56937,5,0,0:0:0:0:
256,192,57002,5,8,0:0:0:0:
256,192,57066,5,8,0:0:0:0:
256,192,57131,5,0,0:0:0:0:
256,192,57195,5,0,0:0:0:0:
256,192,57260,5,8,0:0:0:0:
256,192,57324,5,0,0:0:0:0:
256,192,57389,5,8,0:0:0:0:
256,192,57453,5,4,0:0:0:0:
256,192,57647,5,0,0:0:0:0:
256,192,57840,5,8,0:0:0:0:
256,192,58034,5,8,0:0:0:0:
256,192,58228,5,0,0:0:0:0:
256,192,58421,5,8,0:0:0:0:
256,192,58615,5,0,0:0:0:0:
256,192,58808,5,8,0:0:0:0:
256,192,59002,5,0,0:0:0:0:
256,192,59195,5,8,0:0:0:0:
256,192,59292,5,0,0:0:0:0:
256,192,59389,5,8,0:0:0:0:
256,192,59486,5,8,0:0:0:0:
256,192,59582,5,8,0:0:0:0:
256,192,59679,5,0,0:0:0:0:
256,192,59776,5,8,0:0:0:0:
256,192,59969,5,8,0:0:0:0:
256,192,60163,5,8,0:0:0:0:
256,192,60228,5,8,0:0:0:0:
256,192,60292,5,8,0:0:0:0:
256,192,60357,5,0,0:0:0:0:
256,192,60550,5,0,0:0:0:0:
256,192,60744,5,0,0:0:0:0:
256,192,60840,5,0,0:0:0:0:
256,192,60937,5,8,0:0:0:0:
256,192,61131,5,0,0:0:0:0:
256,192,61324,5,0,0:0:0:0:
256,192,61518,5,8,0:0:0:0:
256,192,61711,5,8,0:0:0:0:
256,192,61905,5,0,0:0:0:0:
256,192,62002,5,8,0:0:0:0:
256,192,62099,5,8,0:0:0:0:
256,192,62292,5,0,0:0:0:0:
256,192,62389,5,0,0:0:0:0:
256,192,62486,5,8,0:0:0:0:
256,192,62582,5,8,0:0:0:0:
256,192,62679,5,0,0:0:0:0:
256,192,62873,5,8,0:0:0:0:
256,192,62969,5,0,0:0:0:0:
256,192,63066,5,0,0:0:0:0:
256,192,63163,5,8,0:0:0:0:
256,192,63260,5,0,0:0:0:0:
256,192,63357,5,8,0:0:0:0:
256,192,63453,5,8,0:0:0:0:
256,192,63550,5,8,0:0:0:0:
256,192,63647,5,4,0:0:0:0:
256,192,64034,5,0,0:0:0:0:
256,192,64099,5,8,0:0:0:0:
256,192,64163,5,8,0:0:0:0:
256,192,64228,5,0,0:0:0:0:
256,192,64292,5,8,0:0:0:0:
256,192,64357,5,8,0:0:0:0:
256,192,64421,5,8,0:0:0:0:
256,192,64486,5,0,0:0:0:0:
256,192,64550,5,8,0:0:0:0:
256,192,64615,5,0,0:0:0:0:
256,192,64679,5,0,0:0:0:0:
256,192,64744,5,8,0:0:0:0:
256,192,64808,5,0,0:0:0:0:
256,192,65002,5,8,0:0:0:0:
256,192,65195,5,0,0:0:0:0:
256,192,65324,5,8,0:0:0:0:
256,192,65389,5,0,0:0:0:0:
256,192,65453,5,8,0:0:0:0:
256,192,65582,5,0,0:0:0:0:
256,192,65711,5,8,0:0:0:0:
256,192,65776,5,8,0:0:0:0:
256,192,65840,5,0,0:0:0:0:
256,192,65969,5,0,0:0:0:0:
256,192,66099,5,0,0:0:0:0:
256,192,66163,5,8,0:0:0:0:
256,192,66228,5,8,0:0:0:0:
256,192,66357,5,0,0:0:0:0:
256,192,66421,5,0,0:0:0:0:
256,192,66486,5,8,0:0:0:0:
256,192,66550,5,0,0:0:0:0:
256,192,66615,5,8,0:0:0:0:
256,192,66744,5,8,0:0:0:0:
256,192,66840,5,0,0:0:0:0:
256,192,66937,5,0,0:0:0:0:
256,192,67034,5,8,0:0:0:0:
256,192,67131,5,0,0:0:0:0:
256,192,67195,5,8,0:0:0:0:
256,192,67260,5,0,0:0:0:0:
256,192,67324,5,8,0:0:0:0:
256,192,67389,5,8,0:0:0:0:
256,192,67453,5,0,0:0:0:0:
256,192,67518,5,8,0:0:0:0:
256,192,67647,5,8,0:0:0:0:
256,192,67711,5,0,0:0:0:0:
256,192,67776,5,8,0:0:0:0:
256,192,67905,5,0,0:0:0:0:
256,192,68034,5,0,0:0:0:0:
256,192,68099,5,8,0:0:0:0:
256,192,68163,5,8,0:0:0:0:
256,192,68292,5,8,0:0:0:0:
256,192,68389,5,0,0:0:0:0:
256,192,68486,5,0,0:0:0:0:
256,192,68582,5,8,0:0:0:0:
256,192,68679,5,0,0:0:0:0:
256,192,68776,5,0,0:0:0:0:
256,192,68873,5,8,0:0:0:0:
256,192,68969,5,8,0:0:0:0:
256,192,69066,5,0,0:0:0:0:
256,192,69163,5,8,0:0:0:0:
256,192,69260,5,8,0:0:0:0:
256,192,69357,5,8,0:0:0:0:
256,192,69453,5,0,0:0:0:0:
256,192,69518,5,8,0:0:0:0:
256,192,69582,5,8,0:0:0:0:
256,192,69647,5,0,0:0:0:0:
256,192,69711,5,8,0:0:0:0:
256,192,69840,5,8,0:0:0:0:
256,192,70034,5,0,0:0:0:0:
256,192,70228,5,8,0:0:0:0:
256,192,70421,5,0,0:0:0:0:
256,192,70615,5,8,0:0:0:0:
256,192,71002,5,8,0:0:0:0:
256,192,71195,5,0,0:0:0:0:
256,192,71389,5,8,0:0:0:0:
256,192,71582,5,8,0:0:0:0:
256,192,71776,5,8,0:0:0:0:
256,192,71873,5,8,0:0:0:0:
256,192,71969,5,0,0:0:0:0:
256,192,72066,5,0,0:0:0:0:
256,192,72163,5,8,0:0:0:0:
256,192,72357,5,8,0:0:0:0:
256,192,72421,5,8,0:0:0:0:
256,192,72486,5,8,0:0:0:0:
256,192,72550,5,0,0:0:0:0:
256,192,72744,5,8,0:0:0:0:
256,192,72937,5,0,0:0:0:0:
256,192,73131,5,0,0:0:0:0:
256,192,73324,5,8,0:0:0:0:
256,192,73518,5,0,0:0:0:0:
256,192,73711,5,8,0:0:0:0:
256,192,73905,5,8,0:0:0:0:
256,192,73969,5,8,0:0:0:0:
256,192,74034,5,8,0:0:0:0:
256,192,74099,5,0,0:0:0:0:
256,192,74292,5,0,0:0:0:0:
256,192,74486,5,8,0:0:0:0:
256,192,74679,5,0,0:0:0:0:
256,192,74873,5,0,0:0:0:0:
256,192,75066,5,8,0:0:0:0:
256,192,75260,5,0,0:0:0:0:
256,192,75453,5,8,0:0:0:0:
256,192,75518,5,8,0:0:0:0:
256,192,75582,5,8,0:0:0:0:
256,192,75647,5,0,0:0:0:0:
256,192,75711,5,0,0:0:0:0:
256,192,75776,5,0,0:0:0:0:
256,192,75840,5,8,0:0:0:0:
256,192,76034,5,0,0:0:0:0:
256,192,76228,5,0,0:0:0:0:
256,192,76421,5,0,0:0:0:0:
256,192,76486,5,8,0:0:0:0:
256,192,76550,5,8,0:0:0:0:
256,192,76615,5,0,0:0:0:0:
256,192,76808,5,8,0:0:0:0:
256,192,77002,5,0,0:0:0:0:
256,192,77195,5,8,0:0:0:0:
256,192,77389,5,0,0:0:0:0:
256,192,77486,5,8,0:0:0:0:
256,192,77582,5,8,0:0:0:0:
256,192,77776,5,0,0:0:0:0:
256,192,77969,5,8,0:0:0:0:
256,192,78163,5,8,0:0:0:0:
256,192,78357,5,0,0:0:0:0:
256,192,78550,5,8,0:0:0:0:
256,192,78615,5,0,0:0:0:0:
256,192,78679,5,0,0:0:0:0:
256,192,78744,5,8,0:0:0:0:
256,192,78808,5,8,0:0:0:0:
256,192,78873,5,8,0:0:0:0:
256,192,78937,5,0,0:0:0:0:
256,192,79131,5,8,0:0:0:0:
256,192,79324,5,0,0:0:0:0:
256,192,79389,5,0,0:0:0:0:
256,192,79453,5,0,0:0:0:0:
256,192,79518,5,8,0:0:0:0:
256,192,79711,5,0,0:0:0:0:
256,192,79905,5,8,0:0:0:0:
256,192,80099,5,0,0:0:0:0:
256,192,80292,5,8,0:0:0:0:
256,192,80357,5,8,0:0:0:0:
256,192,80421,5,8,0:0:0:0:
256,192,80486,5,0,0:0:0:0:
256,192,80679,5,8,0:0:0:0:
256,192,80873,5,8,0:0:0:0:
256,192,81066,5,0,0:0:0:0:
256,192,81260,5,8,0:0:0:0:
256,192,81453,5,0,0:0:0:0:
256,192,81582,5,8,0:0:0:0:
256,192,81711,5,0,0:0:0:0:
256,192,81840,5,8,0:0:0:0:
256,192,81969,5,8,0:0:0:0:
256,192,82099,5,8,0:0:0:0:
256,192,82228,5,0,0:0:0:0:
256,192,82292,5,8,0:0:0:0:
256,192,82357,5,8,0:0:0:0:
256,192,82421,5,0,0:0:0:0:
256,192,82486,5,8,0:0:0:0:
256,192,82550,5,0,0:0:0:0:
256,192,82615,5,8,0:0:0:0:
256,192,83002,5,0,0:0:0:0:
256,192,83066,5,8,0:0:0:0:
256,192,83131,5,0,0:0:0:0:
256,192,83195,5,0,0:0:0:0:
256,192,83260,5,8,0:0:0:0:
256,192,83776,5,0,0:0:0:0:
256,192,83840,5,8,0:0:0:0:
256,192,83905,5,8,0:0:0:0:
256,192,83969,5,0,0:0:0:0:
256,192,84034,5,8,0:0:0:0:
256,192,84357,5,12,0:0:0:0:
256,192,84550,5,12,0:0:0:0:
256,192,85324,5,12,0:0:0:0:
256,192,85518,5,0,0:0:0:0:
256,192,85711,5,0,0:0:0:0:
256,192,85905,5,8,0:0:0:0:
256,192,86099,5,8,0:0:0:0:
256,192,86292,5,0,0:0:0:0:
256,192,86486,5,8,0:0:0:0:
256,192,86679,5,0,0:0:0:0:
256,192,86873,5,8,0:0:0:0:
256,192,87066,5,0,0:0:0:0:
256,192,87260,5,8,0:0:0:0:
256,192,87453,5,8,0:0:0:0:
256,192,87647,5,8,0:0:0:0:
256,192,87840,5,0,0:0:0:0:
256,192,88034,5,8,0:0:0:0:
256,192,88228,5,0,0:0:0:0:
256,192,88421,5,8,0:0:0:0:
256,192,88615,5,0,0:0:0:0:
256,192,88808,5,0,0:0:0:0:
256,192,89002,5,8,0:0:0:0:
256,192,89195,5,8,0:0:0:0:
256,192,89389,5,0,0:0:0:0:
256,192,89582,5,8,0:0:0:0:
256,192,89776,5,0,0:0:0:0:
256,192,89969,5,8,0:0:0:0:
256,192,90163,5,0,0:0:0:0:
256,192,90357,5,8,0:0:0:0:
256,192,90550,5,0,0:0:0:0:
256,192,90744,5,8,0:0:0:0:
256,192,90937,5,8,0:0:0:0:
256,192,91034,5,8,0:0:0:0:
256,192,91131,5,0,0:0:0:0:
256,192,91228,5,0,0:0:0:0:
256,192,91324,5,8,0:0:0:0:
256,192,91421,5,0,0:0:0:0:
256,192,91518,5,12,0:0:0:0:
256,192,91711,5,0,0:0:0:0:
256,192,91905,5,0,0:0:0:0:
256,192,92099,5,8,0:0:0:0:
256,192,92292,5,8,0:0:0:0:
256,192,92486,5,0,0:0:0:0:
256,192,92679,5,8,0:0:0:0:
256,192,92873,5,0,0:0:0:0:
256,192,92969,5,8,0:0:0:0:
256,192,93066,5,8,0:0:0:0:
256,192,93260,5,0,0:0:0:0:
256,192,93453,5,8,0:0:0:0:
256,192,93647,5,0,0:0:0:0:
256,192,93840,5,0,0:0:0:0:
256,192,94034,5,8,0:0:0:0:
256,192,94228,5,8,0:0:0:0:
256,192,94421,5,0,0:0:0:0:
256,192,94615,5,8,0:0:0:0:
256,192,94808,5,8,0:0:0:0:
256,192,95002,5,8,0:0:0:0:
256,192,95195,5,0,0:0:0:0:
256,192,95389,5,0,0:0:0:0:
256,192,95582,5,8,0:0:0:0:
256,192,95776,5,8,0:0:0:0:
256,192,95969,5,0,0:0:0:0:
256,192,96163,5,8,0:0:0:0:
256,192,96357,5,8,0:0:0:0:
256,192,96550,5,8,0:0:0:0:
256,192,96744,5,0,0:0:0:0:
256,192,96937,5,8,0:0:0:0:
256,192,97131,5,8,0:0:0:0:
256,192,97228,5,8,0:0:0:0:
256,192,97324,5,0,0:0:0:0:
256,192,97421,5,0,0:0:0:0:
256,192,97518,5,0,0:0:0:0:
256,192,97615,5,8,0:0:0:0:
256,192,97711,5,0,0:0:0:0:
256,192,97905,5,8,0:0:0:0:
256,192,98099,5,0,0:0:0:0:
256,192,98292,5,8,0:0:0:0:
256,192,98486,5,8,0:0:0:0:
256,192,98679,5,0,0:0:0:0:
256,192,98873,5,8,0:0:0:0:
256,192,99066,5,0,0:0:0:0:
256,192,99260,5,0,0:0:0:0:
256,192,99453,5,8,0:0:0:0:
256,192,99647,5,8,0:0:0:0:
256,192,99840,5,0,0:0:0:0:
256,192,100034,5,0,0:0:0:0:
256,192,100808,5,0,0:0:0:0:
256,192,101002,5,8,0:0:0:0:
256,192,101195,5,8,0:0:0:0:
256,192,101389,5,0,0:0:0:0:
256,192,101582,5,0,0:0:0:0:
256,192,101776,5,8,0:0:0:0:
256,192,101840,5,8,0:0:0:0:
256,192,101905,5,8,0:0:0:0:
256,192,101969,5,0,0:0:0:0:
256,192,102163,5,8,0:0:0:0:
256,192,102357,5,0,0:0:0:0:
256,192,103131,5,0,0:0:0:0:
256,192,103324,5,0,0:0:0:0:
256,192,103518,5,8,0:0:0:0:
256,192,103711,5,8,0:0:0:0:
256,192,103905,5,0,0:0:0:0:
256,192,104679,5,0,0:0:0:0:
256,192,104873,5,8,0:0:0:0:
256,192,105066,5,8,0:0:0:0:
256,192,105260,5,8,0:0:0:0:
256,192,105453,5,0,0:0:0:0:
256,192,105840,5,8,0:0:0:0:
256,192,106034,5,0,0:0:0:0:
256,192,106421,5,0,0:0:0:0:
256,192,106615,5,0,0:0:0:0:
256,192,106808,5,8,0:0:0:0:
256,192,107002,5,0,0:0:0:0:
256,192,107776,5,0,0:0:0:0:
256,192,107969,5,8,0:0:0:0:
256,192,108163,5,8,0:0:0:0:
256,192,108357,5,0,0:0:0:0:
256,192,108550,5,8,0:0:0:0:
256,192,109324,5,0,0:0:0:0:
256,192,109518,5,8,0:0:0:0:
256,192,109711,5,0,0:0:0:0:
256,192,109905,5,8,0:0:0:0:
256,192,110099,5,8,0:0:0:0:
256,192,110486,5,0,0:0:0:0:
256,192,110873,5,8,0:0:0:0:
256,192,111066,5,0,0:0:0:0:
256,192,111260,5,0,0:0:0:0:
256,192,111453,5,8,0:0:0:0:
256,192,111647,5,8,0:0:0:0:
256,192,112034,5,0,0:0:0:0:
256,192,112421,5,8,0:0:0:0:
256,192,112615,5,8,0:0:0:0:
256,192,112808,5,0,0:0:0:0:
256,192,113002,5,8,0:0:0:0:
256,192,113195,5,0,0:0:0:0:
256,192,113776,5,0,0:0:0:0:
256,192,113873,5,8,0:0:0:0:
256,192,113969,5,8,0:0:0:0:
256,192,114357,5,8,0:0:0:0:
256,192,114744,5,0,0:0:0:0:
256,192,114840,5,0,0:0:0:0:
256,192,114937,5,0,0:0:0:0:
256,192,115034,5,0,0:0:0:0:
256,192,115131,5,8,0:0:0:0:
256,192,115324,5,0,0:0:0:0:
256,192,115518,5,8,0:0:0:0:
256,192,115711,5,0,0:0:0:0:
256,192,115808,5,8,0:0:0:0:
256,192,115905,5,0,0:0:0:0:
256,192,116099,5,8,0:0:0:0:
256,192,116195,5,8,0:0:0:0:
256,192,116292,5,4,0:0:0:0:
256,192,116582,5,0,0:0:0:0:
256,192,116679,5,8,0:0:0:0:
256,192,116776,5,0,0:0:0:0:
256,192,116873,5,8,0:0:0:0:
256,192,116969,5,0,0:0:0:0:
256,192,117066,5,0,0:0:0:0:
256,192,117260,5,8,0:0:0:0:
256,192,117324,5,0,0:0:0:0:
256,192,117389,5,0,0:0:0:0:
256,192,117453,5,8,0:0:0:0:
256,192,117647,5,0,0:0:0:0:
256,192,117840,5,8,0:0:0:0:
256,192,118034,5,8,0:0:0:0:
256,192,118131,5,0,0:0:0:0:
256,192,118228,5,8,0:0:0:0:
256,192,118421,5,0,0:0:0:0:
256,192,118615,5,0,0:0:0:0:
256,192,118808,5,8,0:0:0:0:
256,192,119002,5,0,0:0:0:0:
256,192,119195,5,0,0:0:0:0:
256,192,119292,5,8,0:0:0:0:
256,192,119389,5,8,0:0:0:0:
256,192,119582,5,0,0:0:0:0:
256,192,119679,5,8,0:0:0:0:
256,192,119776,5,8,0:0:0:0:
256,192,119873,5,8,0:0:0:0:
256,192,119969,5,0,0:0:0:0:
256,192,120163,5,8,0:0:0:0:
256,192,120260,5,8,0:0:0:0:
256,192,120357,5,8,0:0:0:0:
256,192,120453,5,0,0:0:0:0:
256,192,120550,5,8,0:0:0:0:
256,192,120647,5,0,0:0:0:0:
256,192,120744,5,8,0:0:0:0:
256,192,120840,5,8,0:0:0:0:
256,192,120937,5,4,0:0:0:0:
256,192,121324,5,8,0:0:0:0:
256,192,121389,5,0,0:0:0:0:
256,192,121453,5,0,0:0:0:0:
256,192,121518,5,8,0:0:0:0:
256,192,121582,5,0,0:0:0:0:
256,192,121647,5,0,0:0:0:0:
256,192,121711,5,8,0:0:0:0:
256,192,121776,5,8,0:0:0:0:
256,192,121840,5,0,0:0:0:0:
256,192,121905,5,8,0:0:0:0:
256,192,121969,5,8,0:0:0:0:
256,192,122034,5,8,0:0:0:0:
256,192,122099,5,0,0:0:0:0:
256,192,122292,5,8,0:0:0:0:
256,192,122486,5,8,0:0:0:0:
256,192,122615,5,0,0:0:0:0:
256,192,122744,5,0,0:0:0:0:
256,192,122873,5,8,0:0:0:0:
256,192,123002,5,8,0:0:0:0:
256,192,123131,5,0,0:0:0:0:
256,192,123260,5,8,0:0:0:0:
256,192,123389,5,0,0:0:0:0:
256,192,123518,5,8,0:0:0:0:
256,192,123647,5,8,0:0:0:0:
256,192,123776,5,0,0:0:0:0:
256,192,123905,5,8,0:0:0:0:
256,192,124034,5,0,0:0:0:0:
256,192,124131,5,8,0:0:0:0:
256,192,124228,5,8,0:0:0:0:
256,192,124324,5,8,0:0:0:0:
256,192,124421,5,0,0:0:0:0:
256,192,124486,5,8,0:0:0:0:
256,192,124550,5,0,0:0:0:0:
256,192,124679,5,8,0:0:0:0:
256,192,124808,5,0,0:0:0:0:
256,192,124937,5,8,0:0:0:0:
256,192,125002,5,8,0:0:0:0:
256,192,125066,5,0,0:0:0:0:
256,192,125195,5,0,0:0:0:0:
256,192,125324,5,8,0:0:0:0:
256,192,125453,5,8,0:0:0:0:
256,192,125582,5,0,0:0:0:0:
256,192,125679,5,8,0:0:0:0:
256,192,125776,5,0,0:0:0:0:
256,192,125873,5,8,0:0:0:0:
256,192,125969,5,8,0:0:0:0:
256,192,126066,5,0,0:0:0:0:
256,192,126163,5,8,0:0:0:0:
256,192,126260,5,8,0:0:0:0:
256,192,126357,5,0,0:0:0:0:
256,192,126550,5,0,0:0:0:0:
256,192,126744,5,8,0:0:0:0:
256,192,126808,5,8,0:0:0:0:
256,192,126873,5,0,0:0:0:0:
256,192,126937,5,8,0:0:0:0:
256,192,127002,5,8,0:0:0:0:
256,192,127066,5,8,0:0:0:0:
256,192,127131,5,0,0:0:0:0:
256,192,127228,5,0,0:0:0:0:
256,192,127324,5,8,0:0:0:0:
256,192,127421,5,0,0:0:0:0:
256,192,127518,5,8,0:0:0:0:
256,192,127615,5,8,0:0:0:0:
256,192,127711,5,0,0:0:0:0:
256,192,127808,5,8,0:0:0:0:
256,192,127905,5,8,0:0:0:0:
256,192,128002,5,0,0:0:0:0:
256,192,128099,5,8,0:0:0:0:
256,192,128195,5,0,0:0:0:0:
256,192,128292,5,8,0:0:0:0:
256,192,128389,5,0,0:0:0:0:
256,192,128486,5,8,0:0:0:0:
256,192,128582,5,0,0:0:0:0:
256,192,128679,5,0,0:0:0:0:
256,192,128776,5,8,0:0:0:0:
256,192,128873,5,0,0:0:0:0:
256,192,128969,5,8,0:0:0:0:
256,192,129066,5,8,0:0:0:0:
256,192,129163,5,0,0:0:0:0:
256,192,129260,5,8,0:0:0:0:
256,192,129357,5,0,0:0:0:0:
256,192,129453,5,0,0:0:0:0:
256,192,129550,5,8,0:0:0:0:
256,192,129647,5,8,0:0:0:0:
256,192,129744,5,0,0:0:0:0:
256,192,129840,5,8,0:0:0:0:
256,192,129937,5,0,0:0:0:0:
256,192,129986,5,8,0:0:0:0:
256,192,130034,5,8,0:0:0:0:
256,192,130179,5,0,0:0:0:0:
256,192,130228,5,8,0:0:0:0:
256,192,130324,5,0,0:0:0:0:
256,192,130421,5,8,0:0:0:0:
256,192,130469,5,8,0:0:0:0:
256,192,130518,5,0,0:0:0:0:
256,192,130615,5,8,0:0:0:0:
256,192,130808,5,0,0:0:0:0:
256,192,130873,5,8,0:0:0:0:
256,192,130937,5,0,0:0:0:0:
256,192,131002,5,8,0:0:0:0:
256,192,131050,5,8,0:0:0:0:
256,192,131099,5,0,0:0:0:0:
256,192,131147,5,0,0:0:0:0:
256,192,131195,5,8,0:0:0:0:
256,192,131389,5,8,0:0:0:0:
256,192,131486,5,8,0:0:0:0:
256,192,131582,5,0,0:0:0:0:
256,192,131679,5,8,0:0:0:0:
256,192,131776,5,0,0:0:0:0:
256,192,131873,5,8,0:0:0:0:
256,192,131969,5,8,0:0:0:0:
256,192,132066,5,0,0:0:0:0:
256,192,132163,5,8,0:0:0:0:
256,192,132260,5,0,0:0:0:0:
256,192,132357,5,8,0:0:0:0:
256,192,132453,5,0,0:0:0:0:
256,192,132550,5,8,0:0:0:0:
256,192,132615,5,8,0:0:0:0:
256,192,132679,5,0,0:0:0:0:
256,192,132744,5,8,0:0:0:0:
256,192,132840,5,8,0:0:0:0:
256,192,132937,5,0,0:0:0:0:
256,192,133034,5,8,0:0:0:0:
256,192,133131,5,0,0:0:0:0:
256,192,133228,5,8,0:0:0:0:
256,192,133324,5,4,0:0:0:0:
256,192,133711,5,0,0:0:0:0:
256,192,133776,5,8,0:0:0:0:
256,192,133840,5,0,0:0:0:0:
256,192,133905,5,8,0:0:0:0:
256,192,133969,5,8,0:0:0:0:
256,192,134034,5,0,0:0:0:0:
256,192,134099,5,8,0:0:0:0:
256,192,134292,5,8,0:0:0:0:
256,192,134357,5,8,0:0:0:0:
256,192,134421,5,8,0:0:0:0:
256,192,134486,5,0,0:0:0:0:
256,192,134679,5,0,0:0:0:0:
256,192,134873,5,8,0:0:0:0:
256,192,135066,5,8,0:0:0:0:
256,192,135131,5,8,0:0:0:0:
256,192,135195,5,8,0:0:0:0:
256,192,135260,5,0,0:0:0:0:
256,192,135453,5,8,0:0:0:0:
256,192,135518,5,0,0:0:0:0:
256,192,135582,5,0,0:0:0:0:
256,192,135647,5,8,0:0:0:0:
256,192,135776,5,0,0:0:0:0:
256,192,135905,5,8,0:0:0:0:
256,192,136034,5,8,0:0:0:0:
256,192,136228,5,8,0:0:0:0:
256,192,136292,5,0,0:0:0:0:
256,192,136421,5,8,0:0:0:0:
256,192,136550,5,0,0:0:0:0:
256,192,136679,5,8,0:0:0:0:
256,192,136808,5,8,0:0:0:0:
256,192,136937,5,0,0:0:0:0:
256,192,137066,5,8,0:0:0:0:
256,192,137195,5,0,0:0:0:0:
256,192,137453,5,0,0:0:0:0:
256,192,137582,5,0,0:0:0:0:
256,192,137711,5,8,0:0:0:0:
256,192,137840,5,0,0:0:0:0:
256,192,137969,5,8,0:0:0:0:
256,192,138228,5,8,0:0:0:0:
256,192,138357,5,0,0:0:0:0:
256,192,138486,5,8,0:0:0:0:
256,192,138615,5,0,0:0:0:0:
256,192,138744,5,8,0:0:0:0:
256,192,138873,5,8,0:0:0:0:
256,192,139002,5,0,0:0:0:0:
256,192,139131,5,0,0:0:0:0:
256,192,139195,5,8,0:0:0:0:
256,192,139260,5,0,0:0:0:0:
256,192,139324,5,0,0:0:0:0:
256,192,139389,5,8,0:0:0:0:
256,192,139453,5,8,0:0:0:0:
256,192,140292,12,0,144163,0:0:0:0:
