osu file format v14

[General]
AudioFilename: audio.mp3
AudioLeadIn: 0
PreviewTime: 67636
Countdown: 0
SampleSet: Normal
StackLeniency: 0.7
Mode: 1
LetterboxInBreaks: 0
WidescreenStoryboard: 0

[Editor]
Bookmarks: 36997,47210,67636,88061
DistanceSpacing: 0.81
BeatDivisor: 3
GridSize: 32
TimelineZoom: 1.9

[Metadata]
Title:* Crow Solace *
TitleUnicode:* Crow Solace *
Artist:m108
ArtistUnicode:m108
Creator:Faputa
Version:* Oni *
Source:THE BMS OF FIGHTERS 2012 -Ein neuer Heiliger Krieg-
Tags:13lade’s 13lades BOF2012 Epic Trancecore Zyon Zion Zaiyin 載音 载音 Nanjing AQUATRAX Yinling 音灵 INVAXION bilibili Featured Artist FA Mappers' Guild MG MPG Video Rhythm Game Electronic Instrumental
BeatmapID:3011468
BeatmapSetID:1450831

[Difficulty]
HPDrainRate:6
CircleSize:2
OverallDifficulty:6
ApproachRate:10
SliderMultiplier:1.4
SliderTickRate:1

[Events]
//Background and Video events
0,0,"axle.jpg",0,0
//Break Periods
//Storyboard Layer 0 (Background)
//Storyboard Layer 1 (Fail)
//Storyboard Layer 2 (Pass)
//Storyboard Layer 3 (Foreground)
//Storyboard Layer 4 (Overlay)
//Storyboard Sound Samples

[TimingPoints]
-23,319.148936170213,4,1,0,70,1,0
25588,-100,4,1,0,40,0,0
26705,-100,4,1,0,80,0,0
26784,319.148936170213,4,1,0,80,1,0
36838,-100,4,1,0,90,0,0
47130,-100,4,1,0,95,0,0
67635,-90.9090909090909,4,1,0,100,0,1
88060,-90.9090909090909,4,1,0,100,0,0
88221,-100,4,1,0,70,0,0
97955,-100,4,1,0,80,0,0
109444,-90.9090909090909,4,1,0,100,0,0
109762,319.148936170213,4,1,0,100,1,1
109762,-90.9090909090909,4,1,0,100,0,1
119974,-90.9090909090909,4,1,0,100,0,0
120136,-93.0232558139535,4,1,0,90,0,0
120455,-95.2380952380952,4,1,0,90,0,0
121412,-97.5609756097561,4,1,0,90,0,0
122689,-100,4,1,0,90,0,0
124923,-90.9090909090909,4,1,0,100,0,0
125081,-90.9090909090909,4,1,0,100,0,1
140400,-90.9090909090909,4,1,0,100,0,0
140481,-90.9090909090909,4,1,0,80,0,0
140721,-93.8086303939962,4,1,0,80,0,0
141838,-96.8054211035818,4,1,0,60,0,0
143114,-100,4,1,0,40,0,0

[HitObjects]
256,192,5083,5,12,0:0:0:0:
256,192,5721,1,0,0:0:0:0:
256,192,6359,1,8,0:0:0:0:
256,192,6998,1,8,0:0:0:0:
256,192,7636,1,0,0:0:0:0:
256,192,8274,1,8,0:0:0:0:
256,192,8913,1,0,0:0:0:0:
256,192,9551,1,8,0:0:0:0:
256,192,9711,1,0,0:0:0:0:
256,192,9870,1,0,0:0:0:0:
256,192,10030,1,8,0:0:0:0:
256,192,10109,1,8,0:0:0:0:
256,192,10189,1,8,0:0:0:0:
256,192,10508,1,0,0:0:0:0:
256,192,11147,1,0,0:0:0:0:
256,192,11466,1,0,0:0:0:0:
256,192,11785,1,8,0:0:0:0:
256,192,12104,1,8,0:0:0:0:
256,192,12423,1,8,0:0:0:0:
256,192,12742,1,0,0:0:0:0:
256,192,13062,1,8,0:0:0:0:
256,192,13381,1,8,0:0:0:0:
256,192,13700,1,0,0:0:0:0:
256,192,14019,1,8,0:0:0:0:
256,192,14338,1,0,0:0:0:0:
256,192,14657,1,8,0:0:0:0:
256,192,14817,1,0,0:0:0:0:
256,192,14977,1,8,0:0:0:0:
256,192,15136,1,8,0:0:0:0:
256,192,15296,1,4,0:0:0:0:
256,192,15615,1,0,0:0:0:0:
256,192,15934,1,8,0:0:0:0:
256,192,16253,1,0,0:0:0:0:
256,192,16413,1,8,0:0:0:0:
256,192,16572,1,0,0:0:0:0:
256,192,16732,1,8,0:0:0:0:
256,192,16891,1,0,0:0:0:0:
256,192,17211,1,8,0:0:0:0:
256,192,17530,1,0,0:0:0:0:
256,192,17849,1,8,0:0:0:0:
256,192,18168,1,0,0:0:0:0:
256,192,18487,1,8,0:0:0:0:
256,192,18647,1,0,0:0:0:0:
256,192,18966,1,0,0:0:0:0:
256,192,19125,1,8,0:0:0:0:
256,192,19604,1,8,0:0:0:0:
256,192,20083,1,0,0:0:0:0:
256,192,20402,1,8,0:0:0:0:
256,192,20482,1,8,0:0:0:0:
256,192,20562,1,0,0:0:0:0:
256,192,20721,1,8,0:0:0:0:
256,192,21040,1,0,0:0:0:0:
256,192,21200,1,0,0:0:0:0:
256,192,21359,1,8,0:0:0:0:
256,192,21679,1,0,0:0:0:0:
256,192,21838,1,0,0:0:0:0:
256,192,21998,1,8,0:0:0:0:
256,192,22157,1,0,0:0:0:0:
256,192,22477,1,0,0:0:0:0:
256,192,22636,1,8,0:0:0:0:
256,192,22955,1,0,0:0:0:0:
256,192,23274,1,8,0:0:0:0:
256,192,23434,1,0,0:0:0:0:
256,192,23753,1,0,0:0:0:0:
256,192,23913,1,8,0:0:0:0:
256,192,24072,1,0,0:0:0:0:
256,192,24232,1,8,0:0:0:0:
256,192,24471,1,8,0:0:0:0:
256,192,24551,1,0,0:0:0:0:
256,192,24711,1,8,0:0:0:0:
256,192,24950,1,8,0:0:0:0:
256,192,25030,1,0,0:0:0:0:
256,192,25189,1,8,0:0:0:0:
256,192,25349,1,8,0:0:0:0:
256,192,25508,1,0,0:0:0:0:
256,192,25668,12,0,26625,0:0:0:0:
256,192,26784,5,8,0:0:0:0:
256,192,26863,1,8,0:0:0:0:
256,192,26943,1,8,0:0:0:0:
256,192,27103,1,8,0:0:0:0:
256,192,27182,1,8,0:0:0:0:
256,192,27262,1,8,0:0:0:0:
256,192,27422,1,8,0:0:0:0:
256,192,27502,1,8,0:0:0:0:
256,192,27581,1,8,0:0:0:0:
256,192,28060,1,0,0:0:0:0:
256,192,28140,1,0,0:0:0:0:
256,192,28220,1,0,0:0:0:0:
256,192,28379,1,0,0:0:0:0:
256,192,28459,1,0,0:0:0:0:
256,192,28539,1,0,0:0:0:0:
256,192,28698,1,0,0:0:0:0:
256,192,28778,1,0,0:0:0:0:
256,192,28858,1,0,0:0:0:0:
256,192,29337,1,8,0:0:0:0:
256,192,29416,1,8,0:0:0:0:
256,192,29496,1,8,0:0:0:0:
256,192,29656,1,8,0:0:0:0:
256,192,29736,1,8,0:0:0:0:
256,192,29815,1,8,0:0:0:0:
256,192,29975,1,8,0:0:0:0:
256,192,30055,1,8,0:0:0:0:
256,192,30135,1,8,0:0:0:0:
256,192,30613,1,12,0:0:0:0:
256,192,30773,1,12,0:0:0:0:
256,192,31092,1,12,0:0:0:0:
256,192,31411,1,12,0:0:0:0:
256,192,31730,1,12,0:0:0:0:
256,192,31890,1,4,0:0:0:0:
256,192,32049,1,0,0:0:0:0:
256,192,32209,1,8,0:0:0:0:
256,192,32289,1,8,0:0:0:0:
256,192,32369,1,8,0:0:0:0:
256,192,32528,1,8,0:0:0:0:
256,192,32608,1,8,0:0:0:0:
256,192,32688,1,8,0:0:0:0:
256,192,32847,1,0,0:0:0:0:
256,192,33007,1,0,0:0:0:0:
256,192,33166,1,8,0:0:0:0:
256,192,33246,1,8,0:0:0:0:
256,192,33326,1,8,0:0:0:0:
256,192,33486,1,0,0:0:0:0:
256,192,33565,1,0,0:0:0:0:
256,192,33645,1,0,0:0:0:0:
256,192,33805,1,8,0:0:0:0:
256,192,33885,1,8,0:0:0:0:
256,192,33964,1,8,0:0:0:0:
256,192,34124,1,0,0:0:0:0:
256,192,34284,1,8,0:0:0:0:
256,192,34443,1,0,0:0:0:0:
256,192,34603,1,8,0:0:0:0:
256,192,34762,1,0,0:0:0:0:
256,192,34922,1,8,0:0:0:0:
256,192,35081,1,0,0:0:0:0:
256,192,35161,1,0,0:0:0:0:
256,192,35241,1,8,0:0:0:0:
256,192,35401,1,0,0:0:0:0:
256,192,35560,1,8,0:0:0:0:
256,192,35720,1,0,0:0:0:0:
256,192,35799,1,0,0:0:0:0:
256,192,35879,1,8,0:0:0:0:
256,192,35959,1,8,0:0:0:0:
256,192,36039,1,0,0:0:0:0:
256,192,36198,1,0,0:0:0:0:
256,192,36358,1,8,0:0:0:0:
256,192,36438,1,8,0:0:0:0:
256,192,36518,1,0,0:0:0:0:
256,192,36597,1,0,0:0:0:0:
256,192,36677,1,8,0:0:0:0:
256,192,36996,1,12,0:0:0:0:
256,192,37315,1,8,0:0:0:0:
256,192,37475,1,0,0:0:0:0:
256,192,37635,1,8,0:0:0:0:
256,192,37794,1,8,0:0:0:0:
256,192,37874,1,8,0:0:0:0:
256,192,37954,1,0,0:0:0:0:
256,192,38113,1,0,0:0:0:0:
256,192,38273,1,8,0:0:0:0:
256,192,38432,1,0,0:0:0:0:
256,192,38592,1,8,0:0:0:0:
256,192,38752,1,0,0:0:0:0:
256,192,38831,1,0,0:0:0:0:
256,192,38911,1,8,0:0:0:0:
256,192,39071,1,0,0:0:0:0:
256,192,39230,1,8,0:0:0:0:
256,192,39310,1,0,0:0:0:0:
256,192,39390,1,8,0:0:0:0:
256,192,39549,1,8,0:0:0:0:
256,192,39709,1,0,0:0:0:0:
256,192,39789,1,0,0:0:0:0:
256,192,39869,1,0,0:0:0:0:
256,192,40028,1,8,0:0:0:0:
256,192,40188,1,0,0:0:0:0:
256,192,40268,1,0,0:0:0:0:
256,192,40347,1,0,0:0:0:0:
256,192,40507,1,8,0:0:0:0:
256,192,40666,1,0,0:0:0:0:
256,192,40746,1,0,0:0:0:0:
256,192,40826,1,8,0:0:0:0:
256,192,40986,1,8,0:0:0:0:
256,192,41145,1,0,0:0:0:0:
256,192,41305,1,8,0:0:0:0:
256,192,41385,1,8,0:0:0:0:
256,192,41464,1,0,0:0:0:0:
256,192,41624,1,0,0:0:0:0:
256,192,41784,1,8,0:0:0:0:
256,192,41863,1,0,0:0:0:0:
256,192,41943,1,8,0:0:0:0:
256,192,42103,1,0,0:0:0:0:
256,192,42422,1,8,0:0:0:0:
256,192,42581,1,0,0:0:0:0:
256,192,42661,1,0,0:0:0:0:
256,192,42741,1,8,0:0:0:0:
256,192,42901,1,8,0:0:0:0:
256,192,43060,1,0,0:0:0:0:
256,192,43220,1,0,0:0:0:0:
256,192,43379,1,8,0:0:0:0:
256,192,43459,1,8,0:0:0:0:
256,192,43539,1,0,0:0:0:0:
256,192,43698,1,8,0:0:0:0:
256,192,43858,1,0,0:0:0:0:
256,192,43938,1,0,0:0:0:0:
256,192,44018,1,0,0:0:0:0:
256,192,44177,1,8,0:0:0:0:
256,192,44337,1,0,0:0:0:0:
256,192,44416,1,0,0:0:0:0:
256,192,44496,1,0,0:0:0:0:
256,192,44656,1,8,0:0:0:0:
256,192,44815,1,0,0:0:0:0:
256,192,44895,1,0,0:0:0:0:
256,192,44975,1,8,0:0:0:0:
256,192,45135,1,0,0:0:0:0:
256,192,45294,1,8,0:0:0:0:
256,192,45374,1,8,0:0:0:0:
256,192,45454,1,0,0:0:0:0:
256,192,45613,1,8,0:0:0:0:
256,192,45773,1,8,0:0:0:0:
256,192,45932,1,0,0:0:0:0:
256,192,46012,1,0,0:0:0:0:
256,192,46092,1,8,0:0:0:0:
256,192,46172,1,8,0:0:0:0:
256,192,46252,1,0,0:0:0:0:
256,192,46411,1,0,0:0:0:0:
256,192,46571,1,8,0:0:0:0:
256,192,46651,1,8,0:0:0:0:
256,192,46730,1,0,0:0:0:0:
256,192,46810,1,0,0:0:0:0:
256,192,46890,1,8,0:0:0:0:
256,192,47049,1,0,0:0:0:0:
256,192,47209,1,12,0:0:0:0:
256,192,47528,1,0,0:0:0:0:
256,192,47688,1,8,0:0:0:0:
256,192,47847,1,0,0:0:0:0:
256,192,47927,1,0,0:0:0:0:
256,192,48007,1,8,0:0:0:0:
256,192,48166,1,8,0:0:0:0:
256,192,48246,1,8,0:0:0:0:
256,192,48326,1,8,0:0:0:0:
256,192,48486,1,0,0:0:0:0:
256,192,48725,1,0,0:0:0:0:
256,192,48805,1,8,0:0:0:0:
256,192,48964,1,8,0:0:0:0:
256,192,49124,1,0,0:0:0:0:
256,192,49284,1,8,0:0:0:0:
256,192,49363,1,0,0:0:0:0:
256,192,49443,1,8,0:0:0:0:
256,192,49603,1,0,0:0:0:0:
256,192,49682,1,0,0:0:0:0:
256,192,49762,1,8,0:0:0:0:
256,192,50002,1,8,0:0:0:0:
256,192,50241,1,8,0:0:0:0:
256,192,50401,1,0,0:0:0:0:
256,192,50480,1,8,0:0:0:0:
256,192,50560,1,0,0:0:0:0:
256,192,50720,1,0,0:0:0:0:
256,192,50879,1,8,0:0:0:0:
256,192,51039,1,0,0:0:0:0:
256,192,51252,1,8,0:0:0:0:
256,192,51358,1,8,0:0:0:0:
256,192,51571,1,0,0:0:0:0:
256,192,51677,1,8,0:0:0:0:
256,192,51784,1,0,0:0:0:0:
256,192,51890,1,0,0:0:0:0:
256,192,51996,1,8,0:0:0:0:
256,192,52315,1,8,0:0:0:0:
256,192,52555,1,8,0:0:0:0:
256,192,52635,1,0,0:0:0:0:
256,192,52794,1,8,0:0:0:0:
256,192,52874,1,8,0:0:0:0:
256,192,52954,1,8,0:0:0:0:
256,192,53113,1,0,0:0:0:0:
256,192,53273,1,8,0:0:0:0:
256,192,53353,1,8,0:0:0:0:
256,192,53432,1,0,0:0:0:0:
256,192,53592,1,8,0:0:0:0:
256,192,53752,1,8,0:0:0:0:
256,192,53911,1,0,0:0:0:0:
256,192,54071,1,8,0:0:0:0:
256,192,54151,1,8,0:0:0:0:
256,192,54230,1,8,0:0:0:0:
256,192,54390,1,0,0:0:0:0:
256,192,54470,1,0,0:0:0:0:
256,192,54549,1,8,0:0:0:0:
256,192,54629,1,8,0:0:0:0:
256,192,54709,1,0,0:0:0:0:
256,192,54869,1,8,0:0:0:0:
256,192,55028,1,8,0:0:0:0:
256,192,55188,1,0,0:0:0:0:
256,192,55347,1,8,0:0:0:0:
256,192,55427,1,8,0:0:0:0:
256,192,55507,1,8,0:0:0:0:
256,192,55666,1,8,0:0:0:0:
256,192,55826,1,0,0:0:0:0:
256,192,55986,1,8,0:0:0:0:
256,192,56065,1,8,0:0:0:0:
256,192,56145,1,8,0:0:0:0:
256,192,56305,1,8,0:0:0:0:
256,192,56464,1,0,0:0:0:0:
256,192,56624,1,8,0:0:0:0:
256,192,56784,1,8,0:0:0:0:
256,192,56863,1,8,0:0:0:0:
256,192,56943,1,0,0:0:0:0:
256,192,57023,1,0,0:0:0:0:
256,192,57103,1,8,0:0:0:0:
256,192,57262,1,0,0:0:0:0:
256,192,57422,1,12,0:0:0:0:
256,192,57741,1,0,0:0:0:0:
256,192,57901,1,8,0:0:0:0:
256,192,58060,1,8,0:0:0:0:
256,192,58140,1,8,0:0:0:0:
256,192,58220,1,0,0:0:0:0:
256,192,58299,1,0,0:0:0:0:
256,192,58379,1,8,0:0:0:0:
256,192,58539,1,0,0:0:0:0:
256,192,58619,1,0,0:0:0:0:
256,192,58698,1,8,0:0:0:0:
256,192,58858,1,8,0:0:0:0:
256,192,59018,1,0,0:0:0:0:
256,192,59177,1,8,0:0:0:0:
256,192,59257,1,0,0:0:0:0:
256,192,59337,1,8,0:0:0:0:
256,192,59496,1,0,0:0:0:0:
256,192,59656,1,8,0:0:0:0:
256,192,59736,1,8,0:0:0:0:
256,192,59815,1,0,0:0:0:0:
256,192,59895,1,0,0:0:0:0:
256,192,59975,1,8,0:0:0:0:
256,192,60135,1,0,0:0:0:0:
256,192,60294,1,8,0:0:0:0:
256,192,60454,1,8,0:0:0:0:
256,192,60534,1,8,0:0:0:0:
256,192,60613,1,0,0:0:0:0:
256,192,60773,1,0,0:0:0:0:
256,192,60932,1,8,0:0:0:0:
256,192,61092,1,0,0:0:0:0:
256,192,61172,1,0,0:0:0:0:
256,192,61252,1,8,0:0:0:0:
256,192,61411,1,0,0:0:0:0:
256,192,61571,1,8,0:0:0:0:
256,192,61730,1,0,0:0:0:0:
256,192,61890,1,8,0:0:0:0:
256,192,61970,1,0,0:0:0:0:
256,192,62049,1,8,0:0:0:0:
256,192,62209,1,0,0:0:0:0:
256,192,62289,1,8,0:0:0:0:
256,192,62369,1,0,0:0:0:0:
256,192,62528,1,0,0:0:0:0:
256,192,62688,1,8,0:0:0:0:
256,192,62847,1,0,0:0:0:0:
256,192,63007,1,8,0:0:0:0:
256,192,63326,1,8,0:0:0:0:
256,192,63486,1,0,0:0:0:0:
256,192,63645,1,8,0:0:0:0:
256,192,63805,1,0,0:0:0:0:
256,192,63964,1,8,0:0:0:0:
256,192,64124,1,8,0:0:0:0:
256,192,64284,1,0,0:0:0:0:
256,192,64603,1,8,0:0:0:0:
256,192,64762,1,8,0:0:0:0:
256,192,64922,1,0,0:0:0:0:
256,192,65081,1,8,0:0:0:0:
256,192,65161,1,8,0:0:0:0:
256,192,65241,1,8,0:0:0:0:
256,192,65401,1,0,0:0:0:0:
256,192,65560,1,0,0:0:0:0:
256,192,65720,1,8,0:0:0:0:
256,192,65799,1,8,0:0:0:0:
256,192,65879,1,0,0:0:0:0:
256,192,66039,1,8,0:0:0:0:
256,192,66198,1,0,0:0:0:0:
256,192,66358,1,8,0:0:0:0:
256,192,66438,1,0,0:0:0:0:
256,192,66518,1,8,0:0:0:0:
256,192,66677,1,0,0:0:0:0:
256,192,66757,1,0,0:0:0:0:
256,192,66837,1,8,0:0:0:0:
256,192,66996,1,0,0:0:0:0:
256,192,67076,1,0,0:0:0:0:
256,192,67156,1,8,0:0:0:0:
256,192,67236,1,8,0:0:0:0:
256,192,67315,1,0,0:0:0:0:
256,192,67635,1,12,0:0:0:0:
256,192,67954,1,0,0:0:0:0:
256,192,68113,1,8,0:0:0:0:
256,192,68193,1,8,0:0:0:0:
256,192,68273,1,8,0:0:0:0:
256,192,68353,1,8,0:0:0:0:
256,192,68432,1,0,0:0:0:0:
256,192,68592,1,8,0:0:0:0:
256,192,68752,1,0,0:0:0:0:
256,192,68911,1,8,0:0:0:0:
256,192,69071,1,0,0:0:0:0:
256,192,69151,1,0,0:0:0:0:
256,192,69230,1,0,0:0:0:0:
256,192,69390,1,8,0:0:0:0:
256,192,69549,1,8,0:0:0:0:
256,192,69629,1,8,0:0:0:0:
256,192,69709,1,8,0:0:0:0:
256,192,69869,1,0,0:0:0:0:
256,192,70028,1,8,0:0:0:0:
256,192,70188,1,8,0:0:0:0:
256,192,70507,1,0,0:0:0:0:
256,192,70666,1,8,0:0:0:0:
256,192,70746,1,8,0:0:0:0:
256,192,70826,1,8,0:0:0:0:
256,192,70906,1,8,0:0:0:0:
256,192,70986,1,0,0:0:0:0:
256,192,71145,1,8,0:0:0:0:
256,192,71305,1,0,0:0:0:0:
256,192,71464,1,8,0:0:0:0:
256,192,71624,1,8,0:0:0:0:
256,192,71704,1,8,0:0:0:0:
256,192,71784,1,0,0:0:0:0:
256,192,71943,1,8,0:0:0:0:
256,192,72103,1,0,0:0:0:0:
256,192,72182,1,0,0:0:0:0:
256,192,72262,1,0,0:0:0:0:
256,192,72422,1,8,0:0:0:0:
256,192,72581,1,0,0:0:0:0:
256,192,72741,1,8,0:0:0:0:
256,192,72901,1,0,0:0:0:0:
256,192,73060,1,8,0:0:0:0:
256,192,73220,1,0,0:0:0:0:
256,192,73299,1,0,0:0:0:0:
256,192,73379,1,8,0:0:0:0:
256,192,73539,1,0,0:0:0:0:
256,192,73698,1,8,0:0:0:0:
256,192,73858,1,0,0:0:0:0:
256,192,74018,1,8,0:0:0:0:
256,192,74177,1,8,0:0:0:0:
256,192,74337,1,0,0:0:0:0:
256,192,74496,1,8,0:0:0:0:
256,192,74576,1,0,0:0:0:0:
256,192,74656,1,8,0:0:0:0:
256,192,74815,1,0,0:0:0:0:
256,192,74975,1,8,0:0:0:0:
256,192,75135,1,0,0:0:0:0:
256,192,75294,1,8,0:0:0:0:
256,192,75613,1,0,0:0:0:0:
256,192,75773,1,8,0:0:0:0:
256,192,75853,1,8,0:0:0:0:
256,192,75932,1,0,0:0:0:0:
256,192,76092,1,8,0:0:0:0:
256,192,76252,1,8,0:0:0:0:
256,192,76411,1,0,0:0:0:0:
256,192,76571,1,8,0:0:0:0:
256,192,76651,1,8,0:0:0:0:
256,192,76730,1,8,0:0:0:0:
256,192,76810,1,8,0:0:0:0:
256,192,76890,1,0,0:0:0:0:
256,192,77049,1,8,0:0:0:0:
256,192,77369,1,0,0:0:0:0:
256,192,77448,1,0,0:0:0:0:
256,192,77528,1,8,0:0:0:0:
256,192,77688,1,0,0:0:0:0:
256,192,77847,1,12,0:0:0:0:
256,192,78166,1,8,0:0:0:0:
256,192,78326,1,0,0:0:0:0:
256,192,78486,1,8,0:0:0:0:
256,192,78565,1,8,0:0:0:0:
256,192,78645,1,8,0:0:0:0:
256,192,78805,1,0,0:0:0:0:
256,192,78964,1,0,0:0:0:0:
256,192,79124,1,8,0:0:0:0:
256,192,79284,1,0,0:0:0:0:
256,192,79363,1,8,0:0:0:0:
256,192,79523,1,0,0:0:0:0:
256,192,79603,1,8,0:0:0:0:
256,192,79762,1,0,0:0:0:0:
256,192,79842,1,8,0:0:0:0:
256,192,79922,1,0,0:0:0:0:
256,192,80081,1,8,0:0:0:0:
256,192,80241,1,8,0:0:0:0:
256,192,80401,1,0,0:0:0:0:
256,192,80560,1,8,0:0:0:0:
256,192,80640,1,8,0:0:0:0:
256,192,80720,1,8,0:0:0:0:
256,192,80879,1,8,0:0:0:0:
256,192,81039,1,0,0:0:0:0:
256,192,81198,1,8,0:0:0:0:
256,192,81358,1,0,0:0:0:0:
256,192,81518,1,8,0:0:0:0:
256,192,81677,1,8,0:0:0:0:
256,192,81837,1,8,0:0:0:0:
256,192,81916,1,8,0:0:0:0:
256,192,81996,1,0,0:0:0:0:
256,192,82156,1,8,0:0:0:0:
256,192,82315,1,0,0:0:0:0:
256,192,82475,1,8,0:0:0:0:
256,192,82635,1,8,0:0:0:0:
256,192,82794,1,0,0:0:0:0:
256,192,82954,1,8,0:0:0:0:
256,192,83273,1,8,0:0:0:0:
256,192,83432,1,0,0:0:0:0:
256,192,83592,1,8,0:0:0:0:
256,192,83672,1,8,0:0:0:0:
256,192,83752,1,8,0:0:0:0:
256,192,83831,1,8,0:0:0:0:
256,192,83911,1,0,0:0:0:0:
256,192,84071,1,8,0:0:0:0:
256,192,84230,1,0,0:0:0:0:
256,192,84310,1,0,0:0:0:0:
256,192,84390,1,8,0:0:0:0:
256,192,84470,1,8,0:0:0:0:
256,192,84549,1,0,0:0:0:0:
256,192,84709,1,0,0:0:0:0:
256,192,84869,1,8,0:0:0:0:
256,192,84948,1,8,0:0:0:0:
256,192,85028,1,0,0:0:0:0:
256,192,85108,1,0,0:0:0:0:
256,192,85188,1,8,0:0:0:0:
256,192,85347,1,0,0:0:0:0:
256,192,85507,1,12,0:0:0:0:
256,192,85666,1,0,0:0:0:0:
256,192,85746,1,0,0:0:0:0:
256,192,85826,1,0,0:0:0:0:
256,192,85986,1,8,0:0:0:0:
256,192,86145,1,0,0:0:0:0:
256,192,86225,1,0,0:0:0:0:
256,192,86305,1,0,0:0:0:0:
256,192,86464,1,8,0:0:0:0:
256,192,86544,1,8,0:0:0:0:
256,192,86624,1,0,0:0:0:0:
256,192,86704,1,0,0:0:0:0:
256,192,86784,1,8,0:0:0:0:
256,192,87103,1,0,0:0:0:0:
256,192,87262,1,8,0:0:0:0:
256,192,87342,1,8,0:0:0:0:
256,192,87422,1,0,0:0:0:0:
256,192,87502,1,0,0:0:0:0:
256,192,87581,1,8,0:0:0:0:
256,192,87741,1,8,0:0:0:0:
256,192,87821,1,8,0:0:0:0:
256,192,87901,1,0,0:0:0:0:
256,192,88060,1,12,0:0:0:0:
256,192,88698,1,8,0:0:0:0:
256,192,89337,1,8,0:0:0:0:
256,192,89975,1,0,0:0:0:0:
256,192,90613,1,8,0:0:0:0:
256,192,91890,1,0,0:0:0:0:
256,192,92528,1,0,0:0:0:0:
256,192,93166,1,8,0:0:0:0:
256,192,94443,1,8,0:0:0:0:
256,192,95720,1,0,0:0:0:0:
256,192,96358,1,8,0:0:0:0:
256,192,96996,1,0,0:0:0:0:
256,192,98273,1,8,0:0:0:0:
256,192,98911,1,0,0:0:0:0:
256,192,99549,1,8,0:0:0:0:
256,192,100188,1,0,0:0:0:0:
256,192,100826,1,8,0:0:0:0:
256,192,101464,1,0,0:0:0:0:
256,192,102103,1,8,0:0:0:0:
256,192,102422,1,0,0:0:0:0:
256,192,102502,1,0,0:0:0:0:
256,192,102581,1,0,0:0:0:0:
256,192,102741,1,8,0:0:0:0:
256,192,102901,1,0,0:0:0:0:
256,192,103060,1,8,0:0:0:0:
256,192,103220,1,8,0:0:0:0:
256,192,103379,1,0,0:0:0:0:
256,192,103698,1,0,0:0:0:0:
256,192,104018,1,8,0:0:0:0:
256,192,104337,1,0,0:0:0:0:
256,192,104656,1,8,0:0:0:0:
256,192,104975,1,8,0:0:0:0:
256,192,105294,1,0,0:0:0:0:
256,192,105613,1,8,0:0:0:0:
256,192,105932,1,0,0:0:0:0:
256,192,106252,1,8,0:0:0:0:
256,192,106571,1,0,0:0:0:0:
256,192,106890,1,0,0:0:0:0:
256,192,107209,1,8,0:0:0:0:
256,192,107528,1,0,0:0:0:0:
256,192,107847,1,8,0:0:0:0:
256,192,108166,1,8,0:0:0:0:
256,192,109603,1,0,0:0:0:0:
256,192,109762,1,12,0:0:0:0:
256,192,110081,1,8,0:0:0:0:
256,192,110240,1,0,0:0:0:0:
256,192,110320,1,0,0:0:0:0:
256,192,110400,1,8,0:0:0:0:
256,192,110480,1,8,0:0:0:0:
256,192,110559,1,0,0:0:0:0:
256,192,110719,1,8,0:0:0:0:
256,192,110879,1,0,0:0:0:0:
256,192,111038,1,8,0:0:0:0:
256,192,111198,1,8,0:0:0:0:
256,192,111357,1,0,0:0:0:0:
256,192,111517,1,8,0:0:0:0:
256,192,111597,1,8,0:0:0:0:
256,192,111676,1,0,0:0:0:0:
256,192,111756,1,0,0:0:0:0:
256,192,111836,1,8,0:0:0:0:
256,192,111996,1,0,0:0:0:0:
256,192,112155,1,8,0:0:0:0:
256,192,112315,1,0,0:0:0:0:
256,192,112474,1,0,0:0:0:0:
256,192,112634,1,8,0:0:0:0:
256,192,112714,1,8,0:0:0:0:
256,192,112793,1,0,0:0:0:0:
256,192,112953,1,8,0:0:0:0:
256,192,113113,1,0,0:0:0:0:
256,192,113192,1,0,0:0:0:0:
256,192,113272,1,8,0:0:0:0:
256,192,113432,1,8,0:0:0:0:
256,192,113512,1,0,0:0:0:0:
256,192,113591,1,8,0:0:0:0:
256,192,113751,1,0,0:0:0:0:
256,192,113910,1,8,0:0:0:0:
256,192,114070,1,8,0:0:0:0:
256,192,114230,1,0,0:0:0:0:
256,192,114389,1,0,0:0:0:0:
256,192,114549,1,8,0:0:0:0:
256,192,114868,1,8,0:0:0:0:
256,192,114948,1,8,0:0:0:0:
256,192,115027,1,0,0:0:0:0:
256,192,115107,1,0,0:0:0:0:
256,192,115187,1,8,0:0:0:0:
256,192,115347,1,0,0:0:0:0:
256,192,115506,1,8,0:0:0:0:
256,192,115666,1,0,0:0:0:0:
256,192,115825,1,8,0:0:0:0:
256,192,115985,1,8,0:0:0:0:
256,192,116144,1,0,0:0:0:0:
256,192,116224,1,0,0:0:0:0:
256,192,116304,1,8,0:0:0:0:
256,192,116384,1,8,0:0:0:0:
256,192,116464,1,0,0:0:0:0:
256,192,116623,1,0,0:0:0:0:
256,192,116783,1,8,0:0:0:0:
256,192,116942,1,0,0:0:0:0:
256,192,117102,1,8,0:0:0:0:
256,192,117262,1,8,0:0:0:0:
256,192,117421,1,0,0:0:0:0:
256,192,117634,1,8,0:0:0:0:
256,192,117740,1,8,0:0:0:0:
256,192,117953,1,0,0:0:0:0:
256,192,118059,1,8,0:0:0:0:
256,192,118166,1,0,0:0:0:0:
256,192,118272,1,0,0:0:0:0:
256,192,118379,1,8,0:0:0:0:
256,192,118698,1,8,0:0:0:0:
256,192,118777,1,0,0:0:0:0:
256,192,118857,1,8,0:0:0:0:
256,192,119017,1,0,0:0:0:0:
256,192,119097,1,0,0:0:0:0:
256,192,119176,1,8,0:0:0:0:
256,192,119336,1,0,0:0:0:0:
256,192,119416,1,0,0:0:0:0:
256,192,119496,1,8,0:0:0:0:
256,192,119575,1,8,0:0:0:0:
256,192,119655,1,0,0:0:0:0:
256,192,119815,1,0,0:0:0:0:
256,192,119974,1,12,0:0:0:0:
256,192,120293,1,8,0:0:0:0:
256,192,120613,1,0,0:0:0:0:
256,192,120772,1,8,0:0:0:0:
256,192,120852,1,8,0:0:0:0:
256,192,120932,1,8,0:0:0:0:
256,192,121091,1,8,0:0:0:0:
256,192,121251,1,0,0:0:0:0:
256,192,121570,1,8,0:0:0:0:
256,192,121730,1,0,0:0:0:0:
256,192,121889,1,8,0:0:0:0:
256,192,122049,1,8,0:0:0:0:
256,192,122208,1,0,0:0:0:0:
256,192,122368,1,8,0:0:0:0:
256,192,122527,1,0,0:0:0:0:
256,192,122847,1,8,0:0:0:0:
256,192,123006,1,0,0:0:0:0:
256,192,123166,1,8,0:0:0:0:
256,192,123325,1,8,0:0:0:0:
256,192,123405,1,8,0:0:0:0:
256,192,123485,1,8,0:0:0:0:
256,192,123644,1,0,0:0:0:0:
256,192,123804,1,8,0:0:0:0:
256,192,123884,1,8,0:0:0:0:
256,192,123964,1,8,0:0:0:0:
256,192,124123,1,8,0:0:0:0:
256,192,124203,1,8,0:0:0:0:
256,192,124283,1,8,0:0:0:0:
256,192,124442,1,0,0:0:0:0:
256,192,124522,1,0,0:0:0:0:
256,192,124602,1,0,0:0:0:0:
256,192,124762,1,12,0:0:0:0:
256,192,125081,1,4,0:0:0:0:
256,192,125240,1,8,0:0:0:0:
256,192,125400,1,8,0:0:0:0:
256,192,125559,1,0,0:0:0:0:
256,192,125639,1,0,0:0:0:0:
256,192,125719,1,8,0:0:0:0:
256,192,125879,1,0,0:0:0:0:
256,192,126038,1,8,0:0:0:0:
256,192,126198,1,0,0:0:0:0:
256,192,126357,1,8,0:0:0:0:
256,192,126517,1,0,0:0:0:0:
256,192,126597,1,0,0:0:0:0:
256,192,126676,1,8,0:0:0:0:
256,192,126836,1,8,0:0:0:0:
256,192,126996,1,8,0:0:0:0:
256,192,127075,1,8,0:0:0:0:
256,192,127155,1,0,0:0:0:0:
256,192,127235,1,0,0:0:0:0:
256,192,127315,1,8,0:0:0:0:
256,192,127474,1,0,0:0:0:0:
256,192,127634,1,8,0:0:0:0:
256,192,127714,1,8,0:0:0:0:
256,192,127793,1,8,0:0:0:0:
256,192,127873,1,8,0:0:0:0:
256,192,127953,1,0,0:0:0:0:
256,192,128113,1,8,0:0:0:0:
256,192,128272,1,0,0:0:0:0:
256,192,128432,1,8,0:0:0:0:
256,192,128512,1,8,0:0:0:0:
256,192,128591,1,8,0:0:0:0:
256,192,128751,1,0,0:0:0:0:
256,192,128910,1,8,0:0:0:0:
256,192,129070,1,0,0:0:0:0:
256,192,129230,1,8,0:0:0:0:
256,192,129389,1,8,0:0:0:0:
256,192,129549,1,0,0:0:0:0:
256,192,129629,1,0,0:0:0:0:
256,192,129708,1,8,0:0:0:0:
256,192,129788,1,8,0:0:0:0:
256,192,129868,1,8,0:0:0:0:
256,192,130187,1,12,0:0:0:0:
256,192,130347,1,0,0:0:0:0:
256,192,130506,1,8,0:0:0:0:
256,192,130586,1,8,0:0:0:0:
256,192,130666,1,0,0:0:0:0:
256,192,130825,1,8,0:0:0:0:
256,192,130985,1,8,0:0:0:0:
256,192,131144,1,0,0:0:0:0:
256,192,131304,1,8,0:0:0:0:
256,192,131464,1,8,0:0:0:0:
256,192,131623,1,0,0:0:0:0:
256,192,131703,1,8,0:0:0:0:
256,192,131863,1,0,0:0:0:0:
256,192,131942,1,8,0:0:0:0:
256,192,132102,1,0,0:0:0:0:
256,192,132182,1,8,0:0:0:0:
256,192,132262,1,0,0:0:0:0:
256,192,132421,1,8,0:0:0:0:
256,192,132581,1,8,0:0:0:0:
256,192,132740,1,0,0:0:0:0:
256,192,132900,1,8,0:0:0:0:
256,192,133059,1,0,0:0:0:0:
256,192,133219,1,0,0:0:0:0:
256,192,133299,1,0,0:0:0:0:
256,192,133379,1,8,0:0:0:0:
256,192,133538,1,0,0:0:0:0:
256,192,133698,1,8,0:0:0:0:
256,192,133857,1,8,0:0:0:0:
256,192,134017,1,0,0:0:0:0:
256,192,134176,1,8,0:0:0:0:
256,192,134256,1,8,0:0:0:0:
256,192,134336,1,0,0:0:0:0:
256,192,134496,1,8,0:0:0:0:
256,192,134655,1,0,0:0:0:0:
256,192,134735,1,0,0:0:0:0:
256,192,134815,1,8,0:0:0:0:
256,192,134894,1,8,0:0:0:0:
256,192,134974,1,0,0:0:0:0:
256,192,135134,1,0,0:0:0:0:
256,192,135293,1,12,0:0:0:0:
256,192,135613,1,8,0:0:0:0:
256,192,135772,1,0,0:0:0:0:
256,192,135932,1,8,0:0:0:0:
256,192,136012,1,8,0:0:0:0:
256,192,136091,1,8,0:0:0:0:
256,192,136171,1,8,0:0:0:0:
256,192,136251,1,0,0:0:0:0:
256,192,136410,1,8,0:0:0:0:
256,192,136570,1,0,0:0:0:0:
256,192,136650,1,0,0:0:0:0:
256,192,136730,1,8,0:0:0:0:
256,192,136809,1,8,0:0:0:0:
256,192,136889,1,0,0:0:0:0:
256,192,137049,1,0,0:0:0:0:
256,192,137208,1,8,0:0:0:0:
256,192,137288,1,8,0:0:0:0:
256,192,137368,1,0,0:0:0:0:
256,192,137448,1,0,0:0:0:0:
256,192,137527,1,8,0:0:0:0:
256,192,137687,1,0,0:0:0:0:
256,192,137847,1,12,0:0:0:0:
256,192,138006,1,0,0:0:0:0:
256,192,138086,1,0,0:0:0:0:
256,192,138166,1,0,0:0:0:0:
256,192,138325,1,8,0:0:0:0:
256,192,138485,1,0,0:0:0:0:
256,192,138565,1,0,0:0:0:0:
256,192,138644,1,0,0:0:0:0:
256,192,138804,1,8,0:0:0:0:
256,192,138964,1,0,0:0:0:0:
256,192,139123,1,12,0:0:0:0:
256,192,139283,1,0,0:0:0:0:
256,192,139363,1,0,0:0:0:0:
256,192,139442,1,8,0:0:0:0:
256,192,139522,1,8,0:0:0:0:
256,192,139602,1,8,0:0:0:0:
256,192,139762,1,0,0:0:0:0:
256,192,139868,1,0,0:0:0:0:
256,192,139974,1,0,0:0:0:0:
256,192,140081,1,8,0:0:0:0:
256,192,140293,1,0,0:0:0:0:
256,192,140400,1,12,0:0:0:0:
256,192,140559,12,12,144150,0:0:0:0:
