osu file format v14

[General]
AudioFilename: audio.mp3
AudioLeadIn: 0
PreviewTime: 67636
Countdown: 0
SampleSet: Normal
StackLeniency: 0.7
Mode: 1
LetterboxInBreaks: 0
WidescreenStoryboard: 0

[Editor]
Bookmarks: 36997,47210,67636,88061
DistanceSpacing: 0.81
BeatDivisor: 3
GridSize: 32
TimelineZoom: 0.4999997

[Metadata]
Title:* Crow Solace *
TitleUnicode:* Crow Solace *
Artist:m108
ArtistUnicode:m108
Creator:Faputa
Version:* Kantan *
Source:THE BMS OF FIGHTERS 2012 -Ein neuer Heiliger Krieg-
Tags:13lade’s 13lades BOF2012 Epic Trancecore Zyon Zion Zaiyin 載音 载音 Nanjing AQUATRAX Yinling 音灵 INVAXION bilibili Featured Artist FA Mappers' Guild MG MPG Video Rhythm Game Electronic Instrumental
BeatmapID:3012154
BeatmapSetID:1450831

[Difficulty]
HPDrainRate:8.5
CircleSize:2
OverallDifficulty:3
ApproachRate:10
SliderMultiplier:1.4
SliderTickRate:1

[Events]
//Background and Video events
0,0,"axle.jpg",0,0
//Break Periods
//Storyboard Layer 0 (Background)
//Storyboard Layer 1 (Fail)
//Storyboard Layer 2 (Pass)
//Storyboard Layer 3 (Foreground)
//Storyboard Layer 4 (Overlay)
//Storyboard Sound Samples

[TimingPoints]
-23,319.148936170213,4,1,0,70,1,0
25588,-100,4,1,0,40,0,0
26705,-100,4,1,0,80,0,0
26784,319.148936170213,4,1,0,80,1,0
36838,-100,4,1,0,90,0,0
47130,-100,4,1,0,95,0,0
67635,-100,4,1,0,100,0,1
88060,-100,4,1,0,100,0,0
88221,-100,4,1,0,70,0,0
97955,-100,4,1,0,80,0,0
109444,-100,4,1,0,100,0,0
109762,319.148936170213,4,1,0,100,1,1
109762,-100,4,1,0,100,0,1
119974,-100,4,1,0,100,0,0
120136,-100,4,1,0,90,0,0
124923,-100,4,1,0,100,0,0
125081,-100,4,1,0,100,0,1
140400,-100,4,1,0,100,0,0
140481,-100,4,1,0,80,0,0
141838,-100,4,1,0,60,0,0
143114,-100,4,1,0,40,0,0

[HitObjects]
256,192,5083,5,12,0:0:0:0:
256,192,7636,1,0,0:0:0:0:
256,192,10189,1,8,0:0:0:0:
256,192,12742,1,0,0:0:0:0:
256,192,15295,1,4,0:0:0:0:
256,192,16572,1,0,0:0:0:0:
256,192,17848,1,8,0:0:0:0:
256,192,19125,1,8,0:0:0:0:
256,192,19604,1,0,0:0:0:0:
256,192,20402,1,8,0:0:0:0:
256,192,21678,1,0,0:0:0:0:
256,192,22955,1,8,0:0:0:0:
256,192,24231,1,8,0:0:0:0:
256,192,24710,1,8,0:0:0:0:
256,192,25508,1,0,0:0:0:0:
256,192,26785,1,0,0:0:0:0:
256,192,28061,1,8,0:0:0:0:
256,192,29338,1,0,0:0:0:0:
256,192,30614,1,8,0:0:0:0:
256,192,31093,1,8,0:0:0:0:
256,192,31891,1,0,0:0:0:0:
256,192,32529,1,0,0:0:0:0:
256,192,33167,1,8,0:0:0:0:
256,192,33805,1,0,0:0:0:0:
256,192,34443,1,8,0:0:0:0:
256,192,35082,1,8,0:0:0:0:
256,192,35401,1,8,0:0:0:0:
256,192,35720,1,0,0:0:0:0:
256,192,36039,1,0,0:0:0:0:
256,192,36358,1,8,0:0:0:0:
256,192,36996,1,12,0:0:0:0:
256,192,37635,1,0,0:0:0:0:
256,192,38273,1,8,0:0:0:0:
256,192,38911,1,8,0:0:0:0:
256,192,39230,1,8,0:0:0:0:
256,192,39550,1,0,0:0:0:0:
256,192,40507,1,0,0:0:0:0:
256,192,40826,1,8,0:0:0:0:
256,192,41464,1,0,0:0:0:0:
256,192,41784,1,8,0:0:0:0:
256,192,42103,1,0,0:0:0:0:
256,192,42741,1,8,0:0:0:0:
256,192,43379,1,0,0:0:0:0:
256,192,44018,1,0,0:0:0:0:
256,192,44656,1,8,0:0:0:0:
256,192,45294,1,8,0:0:0:0:
256,192,45613,1,8,0:0:0:0:
256,192,45933,1,0,0:0:0:0:
256,192,46252,1,0,0:0:0:0:
256,192,46571,1,8,0:0:0:0:
256,192,47209,1,12,0:0:0:0:
256,192,48167,1,8,0:0:0:0:
256,192,48486,1,0,0:0:0:0:
256,192,49443,1,0,0:0:0:0:
256,192,49762,1,8,0:0:0:0:
256,192,50401,1,0,0:0:0:0:
256,192,51039,1,8,0:0:0:0:
256,192,51358,1,8,0:0:0:0:
256,192,51677,1,0,0:0:0:0:
256,192,52316,1,8,0:0:0:0:
256,192,52954,1,8,0:0:0:0:
256,192,53592,1,0,0:0:0:0:
256,192,53911,1,0,0:0:0:0:
256,192,54230,1,8,0:0:0:0:
256,192,54869,1,0,0:0:0:0:
256,192,55347,1,8,0:0:0:0:
256,192,56145,1,0,0:0:0:0:
256,192,56464,1,0,0:0:0:0:
256,192,56784,1,8,0:0:0:0:
256,192,57422,1,12,0:0:0:0:
256,192,58379,1,0,0:0:0:0:
256,192,58699,1,8,0:0:0:0:
256,192,59656,1,8,0:0:0:0:
256,192,59975,1,0,0:0:0:0:
256,192,60613,1,8,0:0:0:0:
256,192,61252,1,0,0:0:0:0:
256,192,61571,1,0,0:0:0:0:
256,192,61890,1,8,0:0:0:0:
256,192,62209,1,8,0:0:0:0:
256,192,62528,1,0,0:0:0:0:
256,192,63167,1,0,0:0:0:0:
256,192,63805,1,8,0:0:0:0:
256,192,64443,1,8,0:0:0:0:
256,192,65082,1,0,0:0:0:0:
256,192,65720,1,8,0:0:0:0:
256,192,66039,1,8,0:0:0:0:
256,192,66358,1,0,0:0:0:0:
256,192,66677,1,0,0:0:0:0:
256,192,66996,1,8,0:0:0:0:
256,192,67635,1,12,0:0:0:0:
256,192,68912,1,8,0:0:0:0:
256,192,69550,1,8,0:0:0:0:
256,192,69869,1,8,0:0:0:0:
256,192,70188,1,0,0:0:0:0:
256,192,70826,1,0,0:0:0:0:
256,192,71464,1,8,0:0:0:0:
256,192,72103,1,0,0:0:0:0:
256,192,72422,1,8,0:0:0:0:
256,192,72741,1,0,0:0:0:0:
256,192,73379,1,8,0:0:0:0:
256,192,74018,1,0,0:0:0:0:
256,192,74656,1,8,0:0:0:0:
256,192,74975,1,8,0:0:0:0:
256,192,75294,1,0,0:0:0:0:
256,192,76571,1,8,0:0:0:0:
256,192,77050,1,0,0:0:0:0:
256,192,77847,1,12,0:0:0:0:
256,192,78486,1,8,0:0:0:0:
256,192,79124,1,0,0:0:0:0:
256,192,79443,1,0,0:0:0:0:
256,192,79762,1,8,0:0:0:0:
256,192,80082,1,8,0:0:0:0:
256,192,80401,1,0,0:0:0:0:
256,192,81039,1,0,0:0:0:0:
256,192,81677,1,8,0:0:0:0:
256,192,81996,1,8,0:0:0:0:
256,192,82316,1,0,0:0:0:0:
256,192,82954,1,8,0:0:0:0:
256,192,83592,1,8,0:0:0:0:
256,192,83911,1,8,0:0:0:0:
256,192,84230,1,0,0:0:0:0:
256,192,84550,1,0,0:0:0:0:
256,192,84869,1,8,0:0:0:0:
256,192,85507,1,12,0:0:0:0:
256,192,86464,1,8,0:0:0:0:
256,192,86784,1,0,0:0:0:0:
256,192,87741,1,0,0:0:0:0:
256,192,88060,1,12,0:0:0:0:
256,192,90613,1,8,0:0:0:0:
256,192,91890,1,0,0:0:0:0:
256,192,93167,1,8,0:0:0:0:
256,192,94443,1,0,0:0:0:0:
256,192,95720,1,0,0:0:0:0:
256,192,96996,1,0,0:0:0:0:
256,192,98273,1,8,0:0:0:0:
256,192,99550,1,8,0:0:0:0:
256,192,100826,1,0,0:0:0:0:
256,192,102103,1,0,0:0:0:0:
256,192,102741,1,8,0:0:0:0:
256,192,103379,1,0,0:0:0:0:
256,192,104656,1,8,0:0:0:0:
256,192,105933,1,8,0:0:0:0:
256,192,107209,1,0,0:0:0:0:
256,192,109763,1,12,0:0:0:0:
256,192,110400,1,8,0:0:0:0:
256,192,111038,1,0,0:0:0:0:
256,192,111676,1,0,0:0:0:0:
256,192,111995,1,8,0:0:0:0:
256,192,112315,1,0,0:0:0:0:
256,192,112953,1,0,0:0:0:0:
256,192,113272,1,0,0:0:0:0:
256,192,113591,1,8,0:0:0:0:
256,192,113910,1,8,0:0:0:0:
256,192,114229,1,0,0:0:0:0:
256,192,114868,1,12,0:0:0:0:
256,192,115825,1,8,0:0:0:0:
256,192,116144,1,0,0:0:0:0:
256,192,116783,1,8,0:0:0:0:
256,192,117102,1,8,0:0:0:0:
256,192,117421,1,0,0:0:0:0:
256,192,118059,1,8,0:0:0:0:
256,192,118378,1,0,0:0:0:0:
256,192,118698,1,8,0:0:0:0:
256,192,119017,1,0,0:0:0:0:
256,192,119336,1,8,0:0:0:0:
256,192,119974,1,12,0:0:0:0:
256,192,120932,1,0,0:0:0:0:
256,192,121251,1,8,0:0:0:0:
256,192,121889,1,8,0:0:0:0:
256,192,122527,1,0,0:0:0:0:
256,192,123485,1,0,0:0:0:0:
256,192,123804,1,8,0:0:0:0:
256,192,124442,1,8,0:0:0:0:
256,192,125081,1,4,0:0:0:0:
256,192,125719,1,8,0:0:0:0:
256,192,126357,1,8,0:0:0:0:
256,192,126676,1,8,0:0:0:0:
256,192,126995,1,0,0:0:0:0:
256,192,127315,1,0,0:0:0:0:
256,192,127634,1,8,0:0:0:0:
256,192,128591,1,0,0:0:0:0:
256,192,128910,1,8,0:0:0:0:
256,192,129549,1,0,0:0:0:0:
256,192,130187,1,12,0:0:0:0:
256,192,130825,1,8,0:0:0:0:
256,192,131463,1,0,0:0:0:0:
256,192,131783,1,0,0:0:0:0:
256,192,132102,1,8,0:0:0:0:
256,192,132421,1,8,0:0:0:0:
256,192,132740,1,0,0:0:0:0:
256,192,133378,1,0,0:0:0:0:
256,192,134017,1,8,0:0:0:0:
256,192,134336,1,0,0:0:0:0:
256,192,134655,1,8,0:0:0:0:
256,192,135293,1,12,0:0:0:0:
256,192,135932,1,8,0:0:0:0:
256,192,136251,1,8,0:0:0:0:
256,192,136570,1,0,0:0:0:0:
256,192,136889,1,0,0:0:0:0:
256,192,137208,1,8,0:0:0:0:
256,192,137846,1,12,0:0:0:0:
256,192,138804,1,8,0:0:0:0:
256,192,139123,1,4,0:0:0:0:
256,192,140081,1,0,0:0:0:0:
256,192,140400,1,12,0:0:0:0:
256,192,140719,8,12,144150,0:0:0:0:
